#TITLE:Blindside;
#SUBTITLE:;
#ARTIST:Kayzo x Pixel Terror;
#TITLETRANSLIT:;
#SUBTITLETRANSLIT:;
#ARTISTTRANSLIT:;
#GENRE:Brostep;
#CREDIT:;
#BANNER:Blindside-bn.png;
#BACKGROUND:Blindside-bg.png;
#LYRICSPATH:;
#CDTITLE:cdtitle.png;
#MUSIC:Blindside.ogg;
#OFFSET:-0.006000;
#SAMPLESTART:48.006001;
#SAMPLELENGTH:15.484000;
#SELECTABLE:YES;
#BPMS:0.000000=155.000000
;
#STOPS:
;
#BGCHANGES:0.000=Blindside.avi=1.000=1=0=0=StretchNoLoop==CrossFade==,
99999=-nosongbg-=1.000=0=0=0 // don't automatically add -songbackground-
;
#KEYSOUNDS:;
#ATTACKS:;

//---------------dance-single - ----------------
#NOTES:
     dance-single:
     X-Scale 14:
     Hard:
     9:
     0.577083,0.852186,0.424249,0.645596,0.276684,438.000000,392.000000,46.000000,70.000000,13.000000,0.000000,0.577083,0.852186,0.424249,0.645596,0.276684,438.000000,392.000000,46.000000,70.000000,13.000000,0.000000:
// measure 0
0000
0000
0000
0000
,  // measure 1
0000
0000
0000
0000
,  // measure 2
0000
0000
0000
0000
,  // measure 3
0000
0000
0000
0000
,  // measure 4
0001
0000
0010
0000
0200
0000
0000
0000
0300
0000
0000
0000
1000
0000
0100
1000
,  // measure 5
0100
0000
0000
0000
0010
0000
0001
0100
0000
0010
1000
0000
0001
0000
1000
0001
,  // measure 6
1000
0010
0001
0100
,  // measure 7
1000
0010
1000
0010
2000
0000
0000
3100
,  // measure 8
2100
0000
0200
0000
3300
0010
0002
0000
,  // measure 9
0200
0000
0000
0000
0303
0000
0001
0000
1000
0001
1000
0000
0020
0000
0000
0000
,  // measure 10
0200
0000
0000
0000
0330
0000
0001
0000
1000
0010
1000
0000
0100
0000
0010
0000
,  // measure 11
0000
0010
0100
2000
0000
0000
0010
3000
,  // measure 12
2010
0000
0002
0000
3003
0010
0200
0000
,  // measure 13
2000
0000
0000
0000
3300
0000
0001
0000
0100
0001
0100
0000
0020
0000
0000
0000
,  // measure 14
2000
0000
0000
0000
3030
0000
0001
0000
1000
0001
1000
0000
0010
0000
1000
0000
,  // measure 15
0000
0000
0000
0100
0000
0000
0010
0000
0000
0001
0000
0000
0000
0000
0000
0001
0100
0001
0100
0000
0000
0000
0000
0000
,  // measure 16
1001
0000
0000
1000
0100
0000
0000
0000
1000
0000
0001
0000
0010
0000
0000
0000
,  // measure 17
0200
0320
0032
2003
,  // measure 18
3020
0000
0000
0001
0000
0000
1000
0000
1030
0010
1000
0000
0100
0000
0100
0000
,  // measure 19
0200
0300
0100
0200
0000
0300
0110
0000
,  // measure 20
1001
0000
0000
0001
0010
0000
0001
0000
1000
0000
0010
0000
1000
0000
0100
0000
,  // measure 21
0020
0032
2003
3020
,  // measure 22
0230
0000
0000
1000
0000
0000
0001
0000
0301
0100
0001
1000
0010
0000
1000
0000
,  // measure 23
2000
0000
3000
0000
1000
0000
2000
0000
3100
1000
0001
1000
0100
0000
0100
0000
,  // measure 24
0210
0000
2000
0000
3300
0001
1000
0000
,  // measure 25
2001
0000
0000
0000
3200
0000
0000
0000
0310
0001
0010
0000
0001
0000
0000
0000
,  // measure 26
0012
0000
0200
0000
0303
0010
1000
0000
,  // measure 27
2010
0000
0000
0000
3002
0000
0000
0000
0103
0001
0100
0000
0010
0000
0000
0000
,  // measure 28
0110
1010
1001
0011
,  // measure 29
0110
1010
1001
0011
,  // measure 30
0001
0010
0100
1000
0010
0100
0001
1000
,  // measure 31
M000
M000
0000
0000
0100
0001
0100
0001
,  // measure 32
0101
0000
0000
0000
1000
0000
0001
0000
0100
0000
0000
0010
0100
0000
0001
0000
,  // measure 33
0010
0000
0000
0000
0100
0000
1000
0000
0001
0000
0000
0100
0001
0000
1000
0000
,  // measure 34
2001
0000
3100
0010
0011
0000
1000
0000
,  // measure 35
1010
0010
0100
0001
1000
0100
0001
0100
,  // measure 36
2000
0000
0000
0000
3001
0000
1000
0000
0010
1000
0010
1000
0010
1000
0010
1000
,  // measure 37
0001
0010
0001
0010
0001
0010
0001
0010
0100
0000
0010
0000
0002
0000
1003
0000
,  // measure 38
1002
0000
0013
0100
1100
0000
0100
0000
,  // measure 39
1001
0001
1000
0010
0100
0001
0100
0001
,  // measure 40
0101
0001
1001
1000
,  // measure 41
1100
0100
1010
MMMM
,  // measure 42
0001
0000
1000
0000
0001
0000
1000
0000
0000
0100
0000
0000
0110
0000
0000
0000
0000
0000
0001
0000
0000
0000
0000
0000
,  // measure 43
0101
0100
0001
1000
0010
0100
0001
0010
,  // measure 44
0100
0000
0000
0000
1000
0000
0000
0000
0010
0000
0000
0000
1000
0000
0000
0000
0000
0000
0010
0000
0000
0000
0000
0000
0100
0000
0000
0010
0000
0000
0100
0000
0000
0010
0000
0000
0100
0000
0000
0010
0000
0000
0100
0000
0000
0010
0000
0000
,  // measure 45
1000
0000
0000
0001
0000
0000
1000
0000
0000
0001
0000
0000
1000
0000
0000
0001
0000
0000
1000
0000
0001
0000
1000
0000
0001
0000
0000
0000
0000
0000
0001
0000
0000
0000
0000
0000
1000
0000
0000
0000
0000
0000
0100
0000
0000
0000
0000
0000
,  // measure 46
0010
0000
0100
0000
1000
0000
0001
0000
0000
1000
0000
0000
1001
0000
0000
0000
0000
0000
0001
0000
0000
0100
0000
0000
,  // measure 47
0201
0302
2003
3020
,  // measure 48
1030
0000
0000
0010
1000
0000
0001
0000
0010
0100
0010
0000
0001
0000
1000
0000
,  // measure 49
0100
0000
0010
0100
1000
0000
1000
0000
0001
0000
0100
0000
0040
0000
0000
0000
,  // measure 50
2030
0000
3000
0000
2000
0000
3000
0000
0002
0000
0000
0023
0000
0000
0130
0000
,  // measure 51
2000
0000
0000
3020
0000
0000
0130
0000
0002
0000
0000
2003
0010
0000
3010
0000
,  // measure 52
2010
0000
3000
0000
2000
0000
3000
0000
1001
0000
0000
0001
0100
0000
0001
0000
,  // measure 53
1000
0000
0000
0100
0010
0000
0001
0000
1000
0000
0000
0010
2000
0000
0000
0000
,  // measure 54
3020
0000
0030
0000
0M20
0000
0030
0000
0011
0000
0000
0010
0001
0000
1000
0000
,  // measure 55
0010
0000
0000
0100
0010
0000
1000
0000
0004
0000
0000
0000
0023
0000
0000
0000
,  // measure 56
0130
0010
0011
0001
,  // measure 57
1001
1000
1010
MMMM
,  // measure 58
0012
0003
0002
0003
0101
0000
0100
0000
,  // measure 59
1100
0000
1000
0100
0001
1000
0010
0001
,  // measure 60
0012
0003
0002
0003
1001
0000
0010
0000
,  // measure 61
1010
0000
1000
0010
0001
0010
2000
0000
,  // measure 62
3200
0300
02M0
0300
0101
0000
0001
0100
,  // measure 63
0201
0302
2003
3020
,  // measure 64
1030
0000
0000
0010
1000
0000
0001
0000
0010
0100
1000
0000
0001
0000
1000
0000
,  // measure 65
0100
0000
0000
0100
0000
0000
0100
0000
0M00
0000
0001
0000
0001
0000
1000
0000
,  // measure 66
1000
0000
0000
0000
;

//---------------dance-single - ----------------
#NOTES:
     dance-single:
     X-Scale 11:
     Medium:
     8:
     0.476950,0.547834,0.341243,0.498031,0.069171,362.000000,325.000000,37.000000,54.000000,0.000000,0.000000,0.476950,0.547834,0.341243,0.498031,0.069171,362.000000,325.000000,37.000000,54.000000,0.000000,0.000000:
0000
0000
0000
0000
,
0000
0000
0000
0000
,
0000
0000
0000
0000
,
0000
0000
0000
0000
,
2000
0000
3001
0200
0000
0000
1300
0100
,
0002
0000
1003
0020
0000
0000
0031
0010
,
1000
0100
0010
0001
,
1000
0001
1000
0001
2000
0000
0000
0100
,
3200
0000
2300
0000
3000
0001
0200
0000
,
0302
0000
0003
1000
0100
0010
0002
0000
,
0203
0000
0300
0001
0100
1000
0100
0002
,
0000
0103
0001
0200
0000
0000
1000
0000
,
0302
0000
0023
0000
0030
0010
0200
0000
,
2300
0000
3000
0001
0100
0010
2000
0000
,
3200
0000
0300
1000
0100
0001
0100
2000
,
0000
3001
0100
0002
0003
4000
3000
0000
,
1001
0000
1000
0000
0001
0100
0010
0100
,
0002
0023
0230
2300
,
3020
0000
0000
0001
0000
0000
0100
0000
0130
0000
0010
0000
1000
0000
0001
0000
,
1000
0000
1000
0200
0000
0300
0110
0000
,
1001
0000
0001
0000
1000
0010
0100
0010
,
2000
3200
0302
0203
,
2300
0000
0000
0100
0000
0000
0001
0000
3001
0000
0000
1000
0100
0000
0100
0000
,
0100
0000
0010
0100
2000
0000
3001
0001
,
1001
0000
1000
0000
0000
0010
1000
0000
,
1010
0000
0000
0000
0001
0000
0000
0000
1000
0001
1000
0000
0100
0000
0000
0000
,
0110
0000
0010
0000
0000
0001
0010
0000
,
0011
0000
0000
0000
0001
0000
0000
0000
1000
0001
1000
0000
0010
0000
0000
0000
,
1010
1000
1001
0001
,
0011
0010
0110
0100
,
1100
1000
0100
0010
0001
0100
0010
1000
,
0000
0000
0001
0100
0001
0000
0010
0100
,
0110
1001
0110
1001
,
0110
1001
0110
1001
,
1100
0000
0100
0010
0001
0000
0001
0000
,
1000
0010
1000
0010
1000
0001
1000
0001
,
0010
0000
0100
0010
0002
0000
0100
0000
,
2003
0000
0010
0000
3001
1000
0200
0000
,
0310
0000
0001
1000
1001
0000
0001
0000
,
0100
0001
1000
0001
0010
1000
0010
0001
,
0011
1000
1001
0001
,
0101
0100
0110
1000
,
1001
0000
1000
0100
1000
0000
1000
0000
,
0001
0100
0010
1000
0100
0001
0100
1000
,
0001
0000
0010
0100
2000
0000
0100
0000
,
3002
0000
0010
0000
1003
0001
0200
0000
,
0310
0000
0100
0001
0101
0000
0001
1000
,
0002
0203
2300
3020
,
0032
0000
0000
0010
0000
0000
1000
0000
1003
0001
1000
0000
0100
0000
0010
0000
,
0002
0000
1000
1000
1003
0001
0200
0000
,
0310
0000
0000
0000
0010
0000
0000
0000
1000
0000
0000
0001
0000
0000
0100
0000
,
0010
0000
0000
1000
0000
0000
0001
0000
0100
0000
0000
0000
0001
0000
0100
0000
,
0101
0000
0000
0000
0001
0000
0000
0000
1000
0000
0000
0001
0000
0000
0010
0000
,
0001
0000
0000
1000
0000
0000
0010
0000
1000
0000
0001
0000
0020
0000
0000
0000
,
0130
0000
0000
0000
0100
0000
0000
0000
1001
0000
0000
1000
0000
0000
0001
0000
,
0010
0000
0000
0100
0000
0000
0010
0000
0002
0000
0000
0000
2003
0000
0000
0000
,
3100
1000
1100
0100
,
0110
0010
0011
0001
,
1001
1000
0001
0100
,
0001
0000
1000
0010
1000
0000
0001
0100
,
0001
1000
1001
0001
,
0101
0000
0100
0001
1000
0001
0020
0000
,
0130
0000
0010
0000
0011
0000
0001
1000
,
0020
0032
0203
2300
,
3001
0000
0000
0010
0000
0000
0001
0000
1000
0000
0010
0000
0100
0000
0010
0000
,
1000
0000
0000
1000
0000
0000
1000
0000
0000
0000
0010
0000
0100
0000
0010
0000
,
0100
0000
0000
0000
;

//---------------dance-single - ----------------
#NOTES:
     dance-single:
     X-Scale 7:
     Easy:
     5:
     0.276684,0.365223,0.156788,0.166010,0.000000,210.000000,193.000000,17.000000,18.000000,0.000000,0.000000,0.276684,0.365223,0.156788,0.166010,0.000000,210.000000,193.000000,17.000000,18.000000,0.000000,0.000000:
0000
0000
0000
0000
,
0000
0000
0000
0000
,
0000
0000
0000
0000
,
0000
0000
0000
0000
,
0001
0000
0000
0010
0000
0000
0100
0000
,
1000
0000
0000
0010
0000
0000
0100
0000
,
0001
0000
0000
1000
0000
0000
0001
0000
,
0010
0100
2000
0000
,
3100
0000
0100
0000
0000
1000
0001
0000
,
0010
0000
0000
0001
1000
0000
0010
0000
,
1000
0000
0000
0100
0010
0000
0001
0010
,
0000
0100
1000
0100
0000
0000
1000
0000
,
1001
0000
0001
0000
0000
0100
0001
0000
,
1000
0000
0000
0100
0010
0000
0100
0000
,
1000
0000
0000
0001
0100
0000
0001
1000
,
0000
0010
1000
0001
0000
0000
0001
0000
,
1001
0000
0000
0000
1000
0000
0000
0100
,
1000
0001
0100
0001
,
0020
0000
0130
0000
,
2000
0000
3000
2000
0000
3000
2000
0000
,
3001
0000
0000
0000
0100
0000
0000
0001
,
1000
0100
0010
0100
,
2000
0000
3001
0000
,
0020
0000
0030
0020
0030
0000
0000
0000
,
0110
0000
0000
0000
,
1001
0000
0000
0000
,
0110
0000
0000
0000
,
1001
0000
0000
0000
,
0110
0100
0010
0001
,
1000
0010
0100
0010
,
1000
0001
0010
0001
,
0000
0000
1000
0000
,
1001
1000
0100
1000
,
0001
0100
0001
0000
,
1001
1000
0001
0000
,
0010
0000
0100
0000
,
1000
0001
0200
1000
,
0302
0000
0010
0000
1003
0001
1000
0000
,
0100
0010
0001
0000
,
0100
0000
0001
0000
,
1000
0001
0100
0001
,
1000
0001
0100
0000
,
1001
0000
0001
0100
,
0001
0000
1000
0000
,
0001
0010
0200
0001
,
2300
0000
0010
0000
3001
1000
0001
0000
,
1001
0000
1000
0000
0010
0000
1000
0001
,
0010
0001
1000
0010
,
2000
0000
3200
0000
,
0320
0000
0031
1000
,
1001
0001
1000
0000
,
0010
0000
1000
0000
,
1001
0001
0100
0000
,
0010
0100
0001
0000
,
0010
0100
0010
0000
,
0001
1000
0001
0000
,
1000
0100
0010
0001
,
0100
0010
1000
0000
,
1001
0001
0100
0001
,
1000
0000
1100
0000
,
1000
0001
0100
0001
,
1000
0000
0101
0000
,
0001
0100
0010
0100
,
0001
0000
0000
0000
,
0002
0000
0203
0000
,
0320
0000
0130
0000
,
0110
0000
0000
0000
;

//---------------dance-single - ----------------
#NOTES:
     dance-single:
     X-Scale 2:
     Beginner:
     2:
     0.126484,0.182611,0.036891,0.000000,0.000000,96.000000,92.000000,4.000000,0.000000,0.000000,0.000000,0.126484,0.182611,0.036891,0.000000,0.000000,96.000000,92.000000,4.000000,0.000000,0.000000,0.000000:
0000
0000
0000
0000
,
0000
0000
0000
0000
,
0000
0000
0000
0000
,
0000
0000
0000
0000
,
1000
0000
0000
0000
,
0100
0000
0000
0000
,
0010
0000
0000
0000
,
0001
0000
0000
0000
,
1001
0000
0000
0000
,
1000
0000
0000
0000
,
0001
0000
0000
0000
,
0010
0000
0000
0000
,
0100
0000
0000
0000
,
1000
0000
0000
0000
,
0010
0000
0000
0000
,
0100
0000
0000
0000
,
0001
0000
0000
0000
,
0010
0000
0100
0000
,
0010
0000
0000
0000
,
0001
0000
0000
0000
,
1000
0000
0000
0000
,
0010
0000
0100
0000
,
0010
0000
0000
0000
,
1000
0000
0000
0000
,
0001
0000
0000
0000
,
0010
0000
0000
0000
,
0100
0000
0000
0000
,
1000
0000
0000
0000
,
0001
0000
0100
0000
,
0010
0000
1000
0000
,
0100
0000
0010
0000
,
0001
0000
0000
0000
,
1000
0000
0000
0000
,
0001
0000
0000
0000
,
1001
0000
1000
0000
,
0100
0000
0010
0000
,
0100
0000
1000
0000
,
0001
0000
0100
0000
,
0001
0000
1000
0000
,
0001
0000
0100
0000
,
0001
0000
1000
0000
,
0010
0000
1000
0000
,
0001
0000
0010
0000
,
0100
0000
0010
0000
,
0001
0000
1000
0000
,
0010
0000
1000
0000
,
0001
0000
1000
0000
,
0100
0000
0000
0000
,
0010
0000
0000
0000
,
0100
0000
0000
0000
,
0110
0000
0000
0000
,
1000
0000
0000
0000
,
0001
0000
0010
0000
,
0100
0000
0010
0000
,
0001
0000
1000
0000
,
0010
0000
1000
0000
,
0001
0000
0010
0000
,
0100
0000
1000
0000
,
0010
0000
1000
0000
,
0001
0000
0100
0000
,
0001
0000
1000
0000
,
0100
0000
0010
0000
,
0001
0000
1000
0000
,
0001
0000
0000
0000
,
1000
0000
0000
0000
,
0001
0000
0000
0000
,
1001
0000
0000
0000
;
