#TITLE:Blessed Be;
#SUBTITLE:;
#ARTIST:Spiritbox;
#TITLETRANSLIT:;
#SUBTITLETRANSLIT:;
#ARTISTTRANSLIT:;
#GENRE:Metalcore;
#CREDIT:;
#BANNER:Blessed Be-bn.png;
#BACKGROUND:Blessed Be-bg.png;
#LYRICSPATH:;
#CDTITLE:cdtitle.png;
#MUSIC:Blessed Be.ogg;
#OFFSET:-0.002000;
#SAMPLESTART:47.431000;
#SAMPLELENGTH:18.857000;
#SELECTABLE:YES;
#BPMS:0.000000=105.000000
,131.000000=107.000000
,187.000000=105.000000
;
#STOPS:130.000000=0.571000
;
#BGCHANGES:0.000=Blessed Be.avi=1.000=1=0=0=StretchNoLoop==CrossFade==,
99999=-nosongbg-=1.000=0=0=0 // don't automatically add -songbackground-
;
#KEYSOUNDS:;
#ATTACKS:;

//---------------dance-single - ----------------
#NOTES:
     dance-single:
     X-Scale 14:
     Hard:
     9:
     0.592147,0.646162,0.322010,0.205539,0.702257,605.000000,558.000000,47.000000,30.000000,0.000000,0.000000,0.592147,0.646162,0.322010,0.205539,0.702257,605.000000,558.000000,47.000000,30.000000,0.000000,0.000000:
// measure 0
0000
0000
0000
0000
,  // measure 1
1000
0001
0100
0001
1000
0001
0000
0000
0010
0100
0000
0000
1000
0100
0000
0000
,  // measure 2
0010
0001
1000
0010
0100
0001
0000
0000
1000
0001
0000
0000
0100
0001
0000
0000
,  // measure 3
1000
0100
0001
0100
0010
0001
0000
0000
0010
0100
0000
0000
1000
0001
0000
0000
,  // measure 4
1000
0010
0100
0001
0101
0000
0001
1000
0001
0100
0010
0001
0010
0100
0001
0010
,  // measure 5
0100
0000
0000
0100
0000
0000
1000
0000
0001
0000
0010
0000
1000
0000
0010
0000
,  // measure 6
0001
0000
0000
0100
0000
0000
0010
0000
2000
0000
0000
0000
3200
0000
0300
0000
,  // measure 7
0010
0000
0000
0010
0000
0000
0001
0000
1000
0000
0010
0000
0001
0000
0010
0000
,  // measure 8
1000
0000
0000
0001
0000
0000
0010
0000
0200
0000
0000
0000
0320
0000
0000
0000
,  // measure 9
0031
0000
0000
0001
0000
0000
1000
0000
0010
0000
0001
0000
1000
0000
0100
0000
,  // measure 10
0010
0000
0000
1000
0000
0000
0001
0000
0200
0000
0000
0000
0302
0000
0013
0000
,  // measure 11
0100
1000
0000
0002
0000
0000
0000
0000
0003
0000
0100
0000
0010
0000
1000
0000
,  // measure 12
0100
0000
0000
1000
0000
0000
0001
0000
0200
0000
0000
0000
0020
0000
0330
0000
,  // measure 13
0110
0000
0000
0100
0001
0000
1000
0000
0100
1000
0000
0000
1010
0000
0000
0000
,  // measure 14
1000
0000
0001
0100
0001
1000
0000
0000
0100
0000
0000
0100
0010
0000
0001
0100
,  // measure 15
0001
0000
0000
0010
0100
0000
1000
0000
0001
0100
0000
0000
0101
0000
0000
0000
,  // measure 16
0001
0000
1000
0000
0100
1000
0001
0000
0100
0001
0000
0001
1000
0010
1000
0100
,  // measure 17
0010
0000
0000
0001
0100
0000
0001
0000
0010
0100
0000
0000
1100
0000
0000
0000
,  // measure 18
1000
0000
0010
0100
0001
0010
0000
0000
0100
0000
0000
0100
1000
0000
0001
0010
,  // measure 19
0001
0000
0000
1000
0010
0000
1000
0000
0001
0100
0000
0000
0010
0100
0010
0000
,  // measure 20
1000
0000
0000
0010
0100
0000
0001
0000
0001
0000
1000
0000
0010
0000
1000
0001
,  // measure 21
1000
0000
0000
0100
0010
0000
0110
0000
0000
0011
0000
0000
2001
0000
0000
0000
,  // measure 22
0100
0000
3100
0000
1000
0001
0000
0000
0101
0000
0100
0001
0010
0100
1000
0000
,  // measure 23
1100
0000
0000
0100
0010
0000
0001
0000
1000
0010
0000
0000
1001
0000
0000
0000
,  // measure 24
0001
0000
0010
0000
0001
0100
0000
0000
0010
0100
1000
0100
0010
1000
0001
0100
,  // measure 25
0001
0010
0000
0100
1000
0000
1100
0000
0000
0011
0000
0000
0102
0000
0000
0000
,  // measure 26
1000
0000
1003
0000
0001
0010
0000
0000
0001
1000
0000
0010
1000
0100
0000
0000
,  // measure 27
0110
0000
0000
0000
0000
0000
0000
0000
0000
0011
0000
0000
0000
0000
0000
0000
0000
0000
1001
0000
0000
0000
0000
0000
1000
0000
0000
0100
0000
0000
0000
0000
0000
0000
0000
0000
1100
0000
0000
0000
0000
0000
0100
0000
1000
0000
0100
0000
,  // measure 28
2000
0000
3002
0000
0003
0020
0000
0032
,  // measure 29
0100
0003
0000
0000
0000
0001
0010
0100
,  // measure 30
1000
0000
0000
0010
0000
0000
0100
0000
0002
0000
1000
0000
1000
0000
0010
0000
,  // measure 31
0013
0000
0001
0000
1000
0000
0100
0000
0200
0300
0200
0000
0010
0000
0010
0000
,  // measure 32
0000
1000
0000
0010
0000
1000
0000
0010
0300
0000
0000
0000
0011
0000
0000
0000
,  // measure 33
1000
0000
0001
0010
0100
1000
0100
0010
0001
0100
0010
1000
0001
0100
0001
0000
,  // measure 34
0101
0000
0001
1000
0100
1000
0010
0100
0001
1000
0010
1000
1010
0000
0000
0000
,  // measure 35
1000
0000
0010
1000
0001
0010
1000
0010
0100
1000
0100
0001
0100
0010
0001
0000
,  // measure 36
0011
0000
0010
0100
1000
0001
0100
1000
0100
0001
0010
0001
0011
0000
0000
0000
,  // measure 37
1000
0000
0001
1000
0010
0100
0001
1000
0100
0001
0100
1000
0010
0100
0010
0000
,  // measure 38
0110
0000
0100
0001
1000
0010
0100
0001
0010
1000
0010
0100
1000
0001
0000
0000
,  // measure 39
1000
0000
0001
0100
0001
1000
0100
0010
0100
1000
0001
0100
0010
0100
0001
0000
,  // measure 40
0101
0000
0001
0010
1000
0010
0001
1000
0100
1000
0001
0010
0001
0100
0000
0000
,  // measure 41
0002
0000
0000
0000
2003
0000
0000
0000
0100
0100
3000
0000
1000
0000
0001
0100
,  // measure 42
0001
0000
1000
0000
1100
0000
0100
0000
0010
0001
1000
0001
0010
0100
0000
0010
,  // measure 43
0001
0000
1000
0001
0100
0000
0000
0000
0010
0100
0000
0010
1000
0000
0001
0100
,  // measure 44
0000
0000
0000
0001
0000
0000
1000
0000
0000
0000
0000
0000
0100
0000
0000
0010
0000
0000
0000
0000
0000
0010
0000
0000
0001
0000
0010
0000
0001
0000
0010
0000
0000
0001
0000
0000
2000
0000
0000
0000
0000
0000
0000
0000
0000
0000
0000
0000
,  // measure 45
3100
0000
1000
0100
0010
0001
0100
0010
1000
0001
0100
1000
0100
0001
1000
0000
,  // measure 46
1000
0000
0010
1000
0001
1000
0010
0100
0001
1000
0100
0000
2000
0000
0000
3002
,  // measure 47
0000
0000
0203
0000
0000
0010
0300
0000
2100
0000
0000
0000
0000
0000
0000
0000
,  // measure 48
3001
0010
1000
0001
0100
1000
0002
0000
,  // measure 49
0103
0000
0000
0010
0000
0000
1000
0000
0000
0001
0000
0000
0200
0000
0000
0000
0000
0000
0301
0100
0001
0100
0000
0000
,  // measure 50
0001
1000
0100
0001
0100
0010
0001
1000
0010
0100
0001
0010
0001
1000
0000
0001
,  // measure 51
0010
0000
0101
0000
0000
0110
0000
0000
2001
0000
0000
0000
3100
0000
1100
0000
,  // measure 52
1000
0001
0000
0000
0100
0010
0000
1000
0100
1000
0000
0000
1010
0000
0000
1000
,  // measure 53
0001
0000
0010
0000
0100
1000
0000
0000
1100
0000
0000
0000
1000
0000
0001
0000
,  // measure 54
0100
0001
0000
0000
0101
0000
0000
0100
0010
1000
0001
0010
0100
1000
0000
0010
,  // measure 55
0100
0000
0110
0000
0000
1001
0000
0000
1010
0000
0000
0000
1000
0000
0001
0000
,  // measure 56
0010
0001
0000
0000
1000
0000
0000
0010
0100
0001
0010
0000
0010
0001
0000
1000
,  // measure 57
0100
0000
1100
0000
0000
0101
0000
0000
0011
0000
0010
0000
0100
0000
0010
0000
,  // measure 58
0001
1000
0000
0000
0100
1000
0001
0100
0010
0001
0010
0100
0001
0000
0000
1000
,  // measure 59
0100
0000
1100
0000
0000
1001
0000
0000
0101
0000
0000
0000
0001
0000
1000
0000
,  // measure 60
0000
0010
1000
0000
0001
0010
0000
0001
0100
0010
1000
0001
1001
0000
0000
0011
,  // measure 61
0000
0000
0000
0000
0000
0000
1001
0000
0000
0000
0000
0000
0100
0000
0000
1000
0000
0000
0000
0000
0000
0000
0000
0000
1100
0000
0000
0000
0000
0000
0100
0000
0010
0000
0100
0000
0010
0000
0000
0000
0000
0000
0010
0000
0000
0000
0000
0000
,  // measure 62
0001
0010
0000
0010
0100
0000
0020
0000
0001
0000
0002
0000
0000
0000
0033
0000
;

//---------------dance-single - ----------------
#NOTES:
     dance-single:
     X-Scale 11:
     Medium:
     7:
     0.399332,0.430775,0.274051,0.500144,0.229518,408.000000,368.000000,40.000000,73.000000,0.000000,0.000000,0.399332,0.430775,0.274051,0.500144,0.229518,408.000000,368.000000,40.000000,73.000000,0.000000,0.000000:
0000
0000
0000
0000
,
0101
0000
0001
0000
1000
0100
0000
0000
1000
0001
0000
0000
1000
0100
0000
0000
,
0010
0000
0100
0000
1000
0001
0000
0000
0010
0001
0000
0000
1000
0001
0000
0000
,
0010
0000
0100
0000
1000
0010
0000
0000
0100
0001
0000
0000
1000
0010
0000
0000
,
1000
0000
0001
0000
1000
0000
1100
0000
0000
0110
0000
0000
0101
0000
0001
0100
,
0002
0000
0000
0000
0003
1000
0001
1000
,
0100
0000
0000
1000
0000
0000
0001
0000
0200
0000
0000
0000
0310
0000
0000
0000
,
2000
0000
0000
0000
3000
0100
0010
0001
,
1000
0000
0000
0001
0000
0000
0100
0000
0020
0000
0000
0000
2030
0000
0000
0000
,
3002
0000
0000
0000
0003
0010
0001
1000
,
0010
0000
0000
0100
0000
0000
0001
0000
0010
0000
0000
0000
0001
0000
1000
0000
,
0010
1000
0000
0001
0000
0000
0100
0000
0100
0000
0010
0000
1000
0000
0100
0000
,
1000
0000
0000
0001
0000
0000
0100
0000
0002
0000
0000
0000
0023
0000
0000
0000
,
0130
0000
0000
0000
1010
0000
1000
0000
0000
0001
0000
0000
0101
0000
0000
0000
,
0001
0000
0000
1000
0000
0000
0100
0000
2000
0000
0000
3002
0000
0000
0203
0000
,
0010
0000
0300
0000
0110
0000
0010
0000
0000
1000
0000
0000
1001
0000
0000
0000
,
0010
0000
0000
0001
0000
0000
1000
0000
0100
0000
0000
1000
0000
0000
0002
0000
,
0010
0000
0003
0000
0011
0000
0010
0000
0000
0100
0000
0000
1010
0000
0000
0000
,
1000
0000
0001
0000
0100
0000
0010
0000
1000
0000
0000
0001
0100
0000
0001
0000
,
0010
0000
0000
0100
1000
0000
1100
0000
0000
0101
0000
0000
0011
0000
0001
0010
,
0001
0000
0010
0100
0000
0000
0000
0000
0000
0000
1000
0000
0100
0000
0010
0000
,
0002
0000
0000
0203
0000
0000
0320
0000
0000
0001
0000
0000
0130
0000
0000
0000
,
0010
1000
0100
0001
1000
0100
0010
1000
,
1001
0000
0000
0001
0100
0000
0001
0000
0010
0000
0100
0000
2000
0000
0000
0000
,
3020
0000
0230
0000
0301
0100
1000
0100
,
0001
0000
0000
0010
0000
0000
0200
0000
0000
0001
0000
0000
1300
0000
0000
0000
,
0100
0010
0001
1000
0100
0001
0100
0010
,
0001
0000
0000
0011
0000
0000
1001
0000
0000
1010
0000
0000
0110
0000
0000
0000
,
0201
0000
0302
0000
0003
2000
0000
3200
,
0020
0330
0000
0000
0000
0100
1000
0001
,
0100
0000
0000
0010
0000
0000
1000
0000
0002
0000
0000
0000
0000
0000
0000
0000
,
0100
1000
0010
1000
,
0100
1000
0013
1200
,
0000
2300
0000
0000
3002
0000
0103
0001
,
0010
0000
0100
0000
1100
0000
0000
1000
0000
0000
0001
0000
0201
0000
0000
0000
,
0010
0000
0320
0000
0100
0000
0000
0000
0001
0000
0000
0000
1030
0010
1000
0000
,
0001
0000
0100
0001
0100
0000
0010
0000
2000
0000
0000
0000
3200
0000
0000
0000
,
0000
2300
0000
0000
3002
0000
0103
0001
,
1000
0000
0100
0000
0110
0000
0000
0010
0000
0000
0001
0000
0200
0000
0000
0000
,
0001
0000
0302
0000
0100
0000
0000
0000
1000
0000
0000
0000
0013
0001
0010
0000
,
0100
0000
1000
0100
1000
0000
0001
0000
0100
0000
0001
0000
1000
0100
0000
0000
,
2100
0000
0000
0000
3002
0000
0000
0000
0103
0001
0000
0000
0010
0000
0100
0000
,
1000
0000
0001
0000
0101
0000
0100
0000
0010
0000
1000
0000
0100
1000
0000
0100
,
0020
0000
0000
0000
0001
0000
0000
0000
0130
0010
0000
0001
0010
0000
0001
0000
,
1000
0010
0100
0001
0010
0100
2100
0000
,
0010
3002
0010
1000
,
0103
0000
0001
0100
0001
0000
1000
0000
0100
0000
0010
0000
0002
0000
0000
0023
,
0000
0000
2030
0000
0000
3200
0000
0000
0302
0000
0000
0000
0000
0000
0000
0000
,
0103
0001
1000
0010
0001
0010
2000
0000
,
3001
0010
1000
0010
0002
0000
0203
0000
,
0320
0000
0000
0000
1030
0000
0001
0000
0100
0000
0001
0000
0101
0000
0000
0110
,
0000
0000
1010
0000
0000
1100
0000
0000
1002
0000
0000
0000
0103
0000
0001
0000
,
0010
0000
1000
0000
0001
0000
0010
0000
0100
0000
0001
0000
1001
0000
0000
1000
,
0100
1000
0001
0010
0200
0000
0320
0000
,
0032
0000
0000
0000
1003
0000
0000
0001
0100
0000
0001
0100
0002
0000
0000
1000
,
0000
0000
2003
0000
0000
0010
0000
0000
3020
0000
0000
0000
2000
0000
0000
0000
,
0030
0000
3002
0000
0010
0000
0000
0000
2003
0000
0000
0000
3100
0000
0000
1010
,
0000
0000
0110
0000
0000
0011
0000
0000
0101
0000
0100
0000
0020
0000
0000
2030
,
0000
0000
3200
0000
0010
0000
0000
0000
2300
0000
0000
0000
3002
0000
0000
0100
,
0000
0000
0203
0000
0000
0010
0000
0000
0320
0000
0000
0000
2000
0000
0000
0000
,
3000
0000
0230
0000
0010
0000
0000
0000
0302
0000
0000
0000
1003
0000
0000
0101
,
0000
0000
0011
0000
0000
1010
0000
0000
1001
0000
1000
0000
0010
0000
0010
0000
,
1000
0001
2000
0000
0000
0000
3200
0000
0000
0000
0320
0000
0000
0000
0030
0000
;

//---------------dance-single - ----------------
#NOTES:
     dance-single:
     X-Scale 5:
     Easy:
     3:
     0.260349,0.300343,0.157580,0.322010,0.000000,266.000000,243.000000,23.000000,47.000000,0.000000,0.000000,0.260349,0.300343,0.157580,0.322010,0.000000,266.000000,243.000000,23.000000,47.000000,0.000000,0.000000:
0000
0000
0000
0000
,
1000
1001
0001
0001
,
0010
0110
0100
0100
,
1000
1010
0010
0010
,
0100
0000
0110
0010
0100
0001
0010
0001
,
2000
0000
0000
0000
0000
0001
0000
0000
,
3001
0000
0100
0010
,
2000
0000
0000
0000
0000
0010
0000
0000
,
3010
0000
0001
1000
,
0002
0000
0000
0000
0000
1000
0000
0000
,
1003
0000
0100
0010
,
0002
0000
0000
0000
0000
0100
0000
0000
,
0103
0000
0010
1000
,
0001
1000
0100
1100
,
1000
0001
0010
0100
,
0010
0001
1000
1001
,
0010
1000
0001
0100
,
0001
1000
0100
0110
,
0010
0001
1000
0001
,
0100
0010
0100
0101
,
0000
0000
0000
0000
0000
1000
0001
0100
,
0001
0000
1000
0020
0000
0000
0130
0000
,
0010
0000
1000
0000
0001
0000
0010
0100
,
2000
0000
3001
0000
1000
0100
0020
0000
,
0032
0000
2003
0000
3010
0000
1000
0001
,
0100
0000
0010
2000
0000
0000
3001
0000
,
1000
0000
0001
0000
0010
0100
1000
0000
,
1100
0000
1000
0000
0001
0100
0020
0000
,
2030
0000
0000
3000
,
1002
0000
0000
0000
,
0023
0000
0100
0000
,
0230
0000
0010
0000
1300
0100
2000
0000
,
0002
0000
3003
0120
,
0000
0230
0000
0000
0302
0000
1003
0000
,
0001
0000
1000
0000
0100
0010
0002
0000
,
0000
2003
0000
0000
0000
3000
1000
0000
,
1001
0001
0101
0200
,
0000
0302
0000
0000
0023
0000
0130
0000
,
1000
0000
0001
0000
0100
0001
0020
0000
,
0000
0230
0000
0000
0000
0000
1300
0000
,
0100
0000
1000
0001
0100
0001
1000
0000
,
0020
0000
0230
0000
0010
0300
0100
0001
,
1000
0100
0010
0100
1000
0002
0103
0000
,
0200
0000
0010
0000
0001
0000
0310
0100
,
0001
1000
0100
0010
0100
1000
1100
0000
,
1000
0002
0100
1000
,
0013
0000
0011
0000
0010
0100
1000
0000
,
0000
0001
0000
0000
1001
0000
0000
0000
,
1000
0000
0010
0000
1000
0001
0020
0000
,
0100
0000
0230
2300
,
3002
0000
0003
0100
0001
0010
0110
0000
,
0100
2000
0000
0000
3001
0000
1000
0000
,
0010
1000
0001
0000
0100
0010
2000
0000
,
3001
0100
0010
0100
0002
0000
2003
0000
,
3200
0310
0100
1100
,
0000
0110
0000
0000
0102
0000
1000
0000
,
0010
0000
0103
0000
0001
0010
0100
0000
,
0000
0110
0000
0000
0010
0001
1000
0000
,
0000
0020
0000
0000
2030
0000
3002
0000
,
0000
0023
0000
0030
0201
0000
0000
0010
,
0000
0000
0301
0000
0100
0001
1000
0000
,
0000
1100
0000
0000
0100
0010
0001
0000
,
1000
0000
0001
0100
0001
0100
0000
0000
;

//---------------dance-single - ----------------
#NOTES:
     dance-single:
     X-Scale 1:
     Beginner:
     1:
     0.089067,0.107480,0.020554,0.000000,0.000000,91.000000,88.000000,3.000000,0.000000,0.000000,0.000000,0.089067,0.107480,0.020554,0.000000,0.000000,91.000000,88.000000,3.000000,0.000000,0.000000,0.000000:
0000
0000
0000
0000
,
0000
0001
0000
1000
,
0000
0001
0000
1000
,
0000
0100
0000
0010
,
0000
0100
0000
0010
,
0000
0000
0000
0000
,
0001
0000
0000
0000
,
1000
0000
0000
0000
,
0010
0000
0000
0000
,
1000
0000
0000
0000
,
0001
0000
0000
0000
,
0010
0000
0000
0000
,
0001
0000
0000
0000
,
0000
1000
0000
0100
,
0000
1000
0000
0001
,
0000
1000
0000
0001
,
0000
0100
0000
0001
,
0000
1000
0000
0001
,
0000
0100
0000
0001
,
0000
1000
0000
0001
,
0000
0000
0000
0000
,
1001
0000
0000
1000
,
0000
0001
0000
1000
,
0000
0100
0000
1000
,
0000
0001
0000
0100
,
0000
0001
0000
1000
,
0000
0001
0000
0010
,
0000
0000
0100
0000
,
1000
0000
0000
0000
,
1001
0000
0000
0000
,
0000
0000
0000
0000
,
0000
0000
0000
0000
,
0000
0000
0000
0110
,
0000
0010
0000
0000
,
0000
1000
0000
0000
,
0000
0001
0000
0000
,
0000
0100
0000
0000
,
0000
0001
0000
0000
,
0000
1000
0000
0000
,
0000
0100
0000
0000
,
0000
0010
0000
0000
,
0000
0001
0000
0000
,
0000
1000
0000
0000
,
0000
0001
0000
0000
,
0000
0100
0000
0000
,
0000
0001
0000
0000
,
0000
1000
0001
1000
,
0000
0000
0100
0000
,
0000
0000
0000
1000
,
0000
0001
0100
0001
,
1000
0000
0000
0000
,
0001
0000
1000
0000
,
0001
0000
1000
0000
,
0100
0000
0010
0000
,
0100
0000
0010
0000
,
0001
0000
1000
0000
,
0001
0000
0100
0000
,
0001
0000
1000
0000
,
0010
0000
1000
0000
,
0000
0000
0001
0000
,
0000
0000
0000
1000
,
0000
0000
0000
0010
,
0000
0100
0000
0010
;
