#TITLE:Black Moon Sympathy;
#SUBTITLE:;
#ARTIST:TeddyLoid;
#TITLETRANSLIT:;
#SUBTITLETRANSLIT:;
#ARTISTTRANSLIT:;
#GENRE:Electro House;
#CREDIT:;
#BANNER:BMS-bn.png;
#BACKGROUND:BMS-bg.png;
#LYRICSPATH:;
#CDTITLE:cdtitle.png;
#MUSIC:Black Moon Sympathy.ogg;
#OFFSET:-0.623000;
#SAMPLESTART:92.009003;
#SAMPLELENGTH:15.000000;
#SELECTABLE:YES;
#DISPLAYBPM:64.000000:128.000000;
#BPMS:0.000000=64.000000
,32.000000=128.000000
,64.000000=32.000000
,65.000000=64.000000
,97.000000=128.000000
,125.000000=64.000000
,126.000000=128.000000
,188.000000=64.000000
,190.000000=128.000000
;
#STOPS:
;
#BGCHANGES:
;
#KEYSOUNDS:;
#ATTACKS:;

//---------------dance-single - ----------------
#NOTES:
     dance-single:
     X-Scale 12:
     Hard:
     8:
     0.476268,0.588019,0.077696,0.141266,0.420266,472.000000,461.000000,11.000000,20.000000,0.000000,0.000000,0.476268,0.588019,0.077696,0.141266,0.420266,472.000000,461.000000,11.000000,20.000000,0.000000,0.000000:
// measure 0
0000
0000
0000
0000
,  // measure 1
0000
0000
0000
0000
,  // measure 2
0000
0000
0000
0000
,  // measure 3
0000
0000
0000
0000
,  // measure 4
1001
0000
0001
0000
0010
0000
0001
0000
0100
0000
0010
0000
1000
0100
0010
0001
,  // measure 5
0100
0000
0001
0000
0010
0000
0001
0000
1000
0000
0010
1000
0000
0001
0100
0001
,  // measure 6
0010
0200
0000
0000
0310
0000
0001
0020
0000
0000
0031
0000
1000
0100
0010
0002
,  // measure 7
1000
1000
0100
0100
0023
0000
0032
0000
,  // measure 8
1003
0000
0001
1000
0001
0000
0010
0000
0100
0000
0010
0000
0001
0000
1000
0000
,  // measure 9
0010
0000
0100
0001
0100
0000
0001
0000
0010
0000
0001
0000
1000
0000
0010
0000
,  // measure 10
1000
0000
0100
0010
0100
0000
1000
0000
0001
0000
0100
0000
0010
0000
0100
0000
,  // measure 11
0002
0000
0023
0000
0230
0000
1300
0100
,  // measure 12
1000
0000
0001
0010
0001
0000
1000
0000
0001
0000
1000
0010
0000
0000
0010
0000
,  // measure 13
1000
0000
0100
0010
0100
0000
1000
0000
0001
0000
0100
0001
0000
0000
0001
0000
,  // measure 14
0010
0000
0100
0010
0100
0000
1000
0000
0001
0000
0100
0001
0000
0000
0001
0000
,  // measure 15
0010
0000
0001
0100
0001
0000
0010
0000
0100
0000
0010
0000
0100
0000
0100
0000
,  // measure 16
2002
0000
0000
0000
0000
0000
3003
0000
1000
0000
0100
1000
0000
0000
0100
0000
1000
0000
0010
0000
0100
0000
0001
0000
1000
0000
0001
0010
0000
0000
0001
0000
,  // measure 17
0100
0000
0010
0000
0001
0000
0010
0000
0100
0000
0000
0000
0001
0000
0100
0000
0000
0000
0001
0000
0000
0000
0100
0000
0010
0000
1000
0010
0000
0000
1000
0000
,  // measure 18
0100
0000
0010
0000
0100
0000
1000
0000
0001
0000
0010
0001
0000
0000
0100
0000
0001
0000
0010
0000
0100
0000
1000
0000
0010
0000
1000
0001
0000
0000
1000
0000
,  // measure 19
0010
0000
0001
0000
0010
0000
1000
0000
0100
0000
0000
0000
1000
0000
0010
0000
0000
0000
0100
0000
0000
0000
0010
0000
1000
0000
0100
1000
0000
0000
0010
0000
,  // measure 20
0100
0001
0010
0001
0100
0010
0001
0010
1000
0020
0000
0230
0000
0302
0000
0000
,  // measure 21
0013
0000
0000
0000
0001
0100
1000
0100
0010
0200
0000
0302
0000
2003
0000
0000
,  // measure 22
3001
0000
0000
0000
1000
0100
0001
1000
0010
0002
0000
0203
0000
0320
0000
0000
,  // measure 23
1030
0000
0000
0000
0001
0010
1000
0001
0100
1000
0000
0000
1010
0000
0011
0000
,  // measure 24
0101
1100
1001
0000
0001
0000
0001
0000
,  // measure 25
0100
0000
0010
0000
1000
0000
0010
1000
0000
0000
0100
0000
0010
0000
0001
0100
,  // measure 26
0001
0001
1000
0000
1000
0000
1000
0000
,  // measure 27
0010
0000
0100
0000
0001
0000
1000
0001
0000
0000
1000
0000
0010
0000
0100
0000
,  // measure 28
0010
0000
0010
0000
1000
0000
0010
1000
0000
0000
0001
0000
0010
0000
0001
0100
,  // measure 29
0000
0000
0001
0000
1000
0000
0100
0010
0000
0000
0100
0000
1000
0000
0001
0100
,  // measure 30
0000
0000
0001
0000
1000
0000
0010
0100
0000
0000
0010
0000
1000
0000
0001
0010
,  // measure 31
0000
0001
2001
0000
3100
0100
0010
0010
,  // measure 32
0011
0000
1000
0001
0000
0000
1000
0000
0010
0000
0001
0000
0010
0000
0100
0000
,  // measure 33
0001
1000
0010
0000
1000
0100
0010
0100
,  // measure 34
1000
0000
0001
0000
0100
0000
0010
0000
1000
0000
0000
0100
0000
0000
1000
0000
,  // measure 35
0001
0000
0010
0001
0000
0000
0100
0000
0001
0000
0010
0000
0100
0000
1000
0000
,  // measure 36
0010
1000
0100
0000
0010
0001
1000
0010
,  // measure 37
0100
0001
1000
0000
0010
0100
0001
0010
,  // measure 38
0100
0000
0010
0001
1000
0001
0010
0001
,  // measure 39
1000
0000
0100
0010
0000
0000
0100
0000
1000
0000
1000
0000
0001
0000
0001
0000
,  // measure 40
0100
0000
0010
0100
0000
0000
0010
0000
1000
0000
0100
0000
0001
0000
0100
0000
,  // measure 41
1000
0000
0100
1000
0000
0000
0010
0000
1000
0000
0001
0000
1000
0000
0100
0000
,  // measure 42
0010
0000
1000
0000
0010
0000
0001
0000
0100
0000
0000
0001
0000
0000
0100
0000
,  // measure 43
0010
0000
1000
0001
1000
0100
0010
0100
,  // measure 44
1000
0010
0100
0000
0001
0000
1000
0100
,  // measure 45
0010
0000
0100
0010
0000
0000
0100
0000
1000
0000
0001
0000
1000
0000
0010
0000
,  // measure 46
0100
0000
0001
0100
0000
0000
0001
0000
0010
0000
0100
0000
0010
0000
0001
0000
,  // measure 47
0011
0000
0010
0001
0000
0000
0000
0000
1000
0000
0000
0000
0100
1000
0100
1000
0100
0000
0000
0000
1000
0000
0000
0000
0001
0000
0000
0000
1000
0000
0000
0000
,  // measure 48
0100
0000
0010
0000
0001
0000
1000
0000
0001
0100
0001
0100
0010
1000
0010
1000
,  // measure 49
0010
0000
0100
0010
0100
0000
0100
0000
0001
0000
1000
0000
0010
0000
1000
0000
,  // measure 50
0001
0010
0001
0010
0100
1000
0100
1000
0100
0000
0000
0000
1000
0010
1000
0010
,  // measure 51
1000
0000
0000
0000
1000
0001
1000
0001
1000
0000
0001
0000
0100
0000
0001
0000
,  // measure 52
1000
0000
0100
0000
0010
0000
0001
0000
0100
0010
0100
0010
1000
0001
1000
0001
,  // measure 53
1000
0000
0001
0010
0001
0000
0001
0000
1000
0000
0010
0000
0100
0000
0010
0000
,  // measure 54
1000
0001
1000
0001
0100
0010
0100
0010
1000
0000
0001
0000
0100
0000
0010
0000
,  // measure 55
1000
0000
0001
1000
0001
0000
0001
0000
1001
0000
0000
0000
0000
0000
0000
0000
;

//---------------dance-single - ----------------
#NOTES:
     dance-single:
     X-Scale 9:
     Medium:
     7:
     0.336011,0.450815,0.063570,0.190709,0.180114,333.000000,324.000000,9.000000,27.000000,0.000000,0.000000,0.336011,0.450815,0.063570,0.190709,0.180114,333.000000,324.000000,9.000000,27.000000,0.000000,0.000000:
0000
0000
0000
0000
,
0000
0000
0000
0000
,
0000
0000
0000
0000
,
0000
0000
0000
0000
,
1001
1000
0010
1000
0100
0010
0001
0100
,
0001
0010
0100
1000
0100
0010
0001
0100
,
0001
1000
0010
1000
0100
0010
0100
1000
,
0001
0100
0001
0010
0200
0000
0320
0000
,
0130
0000
0010
0000
0001
1000
0001
0000
,
0010
0000
0100
0000
1000
0010
1000
0000
,
0100
0000
1000
0000
0001
0010
0001
0000
,
2000
0000
3200
0000
0320
0000
0031
0010
,
0001
0000
0100
0000
0001
0010
0100
0000
,
0010
0001
2000
0010
,
3020
0001
1000
0001
,
0100
0000
1030
0010
1000
0000
0001
0001
,
1001
0000
0000
0000
0000
0000
0000
0000
1100
0000
0000
1000
0000
0000
0100
0000
0000
0000
1000
0000
0001
0000
0010
0000
0100
0000
0000
0010
0000
0000
0100
0000
,
0000
0000
1000
0000
0000
0000
1000
0000
0001
0000
0000
0000
0100
0000
0001
0000
0000
0000
0010
0000
0000
0000
0100
0000
0100
0000
0000
0010
0000
0000
0001
0000
,
0000
0000
1000
0000
0000
0000
1000
0000
0010
0000
0000
1000
0000
0000
0100
0000
0000
0000
0010
0000
0001
0000
0100
0000
0001
0000
0000
0010
0000
0000
0001
0000
,
0000
1000
0000
1000
0100
0000
0010
0100
0000
0010
0000
0002
0000
0000
0003
2000
,
0000
0000
3000
0000
1100
0000
0100
0000
1000
0010
0000
1000
0000
0001
0000
0000
,
0100
0000
0000
0000
0001
0000
0010
0000
0100
0010
0000
0100
0000
1000
0000
0000
,
0001
0000
0000
0000
0100
0010
0001
0010
0100
0001
0000
1000
0000
0001
0000
0000
,
0010
0000
0000
0000
0100
1000
0001
1000
0001
0010
0000
0100
0000
0010
0000
0000
,
0110
0110
0110
0000
0010
0000
0100
0000
,
1000
0001
1000
0100
0010
0100
1000
0001
,
0010
0010
0100
0000
0010
0000
0100
0000
,
1000
0001
0010
0100
0010
0001
0100
0010
,
1000
0000
1000
0000
0001
0000
0000
0100
0000
0000
0001
0000
0010
0000
0000
0100
,
0000
0000
0010
0000
0001
0000
0000
1000
0000
0000
0010
0000
1000
0000
0000
0100
,
0000
0000
0010
0000
0001
0000
0000
0100
0000
0000
0001
0000
1000
0000
0000
0010
,
0000
1000
0200
0000
0001
0000
0010
0000
,
1300
0000
0010
0000
1000
0100
0010
0001
,
0100
0002
0010
0000
0100
0000
0013
0001
,
1000
0000
0001
0000
0100
0000
0010
0000
1000
0000
0000
1000
0000
0000
2000
0000
,
0001
0000
0100
0000
3001
1000
0100
0010
,
0100
0020
1000
0000
0031
0010
0001
0100
,
0010
2000
0001
0000
3100
1000
0010
1000
,
0100
0000
0010
0002
0000
0203
0000
0302
,
0010
0000
0100
0000
1003
0000
0001
0001
,
1001
0000
0100
0000
1000
0000
0001
0100
,
0001
0020
1000
0000
0031
0100
0001
0010
,
0100
0000
1000
0000
0010
0000
0100
0000
0001
0000
0000
0001
0000
0000
0002
0000
,
0100
0000
1003
0001
0010
0001
0010
0100
,
1000
0020
0001
0000
1030
0000
0010
2000
,
0100
0000
0001
3000
1000
0001
0010
0200
,
0001
1000
0001
1000
,
0310
0020
0031
0010
,
0100
0000
1000
0000
0001
0100
1000
0100
,
0001
0010
0001
1000
,
0001
0010
1000
0010
0002
0000
2003
0000
,
3002
0000
0013
0020
1000
0000
0100
0000
,
0001
0000
0130
0000
0010
0001
1000
0010
,
0100
0001
1000
0001
,
0010
0100
1000
0100
0010
0000
0001
0000
,
1000
0000
0010
0010
1010
0000
0000
0000
;

//---------------dance-single - ----------------
#NOTES:
     dance-single:
     X-Scale 5:
     Easy:
     4:
     0.228044,0.294010,0.042380,0.077696,0.021190,226.000000,220.000000,6.000000,11.000000,0.000000,0.000000,0.228044,0.294010,0.042380,0.077696,0.021190,226.000000,220.000000,6.000000,11.000000,0.000000,0.000000:
0000
0000
0000
0000
,
0000
0000
0000
0000
,
0000
0000
0000
0000
,
0000
0000
0000
0000
,
1100
0010
1000
0100
,
0010
0100
1000
0001
,
0100
0010
0100
0001
,
0010
0100
2000
3000
,
0101
1000
0001
0010
,
0001
1000
0100
0010
,
0100
1000
0001
0100
,
0001
0000
0010
0000
0100
0000
1000
0010
,
1000
0100
0010
0100
,
1000
0001
0020
0100
,
0230
1000
0000
0001
,
0000
0000
1300
0100
0010
0000
0010
0000
,
0110
0100
1000
0001
,
0100
0001
0010
0100
,
0010
0001
1000
0010
,
1000
0100
0010
0100
,
1000
0000
0000
0000
0001
0000
0010
0000
0100
0000
0000
0010
0000
0100
0000
0000
,
0010
0000
0000
0000
0001
0000
1000
0000
0010
0000
0000
1000
0000
0010
0000
0000
,
1000
0000
0000
0000
0001
0000
0100
0000
0010
0000
0000
0100
0000
0010
0000
0000
,
1000
0000
0001
0010
0100
0000
1000
1000
,
0010
0010
1010
0000
1000
0000
1000
0000
,
0001
0100
0010
1000
,
0001
0100
0001
0000
0001
0000
0001
0000
,
0010
0100
0010
0001
,
1000
0010
1000
0000
0001
0000
0100
0000
,
0010
0100
0001
0010
,
0100
1000
0010
1000
,
0100
2100
0000
0000
,
3001
1000
0100
1000
,
0010
0100
0001
0010
,
0100
1000
0010
1000
,
0100
0000
0010
0000
0001
0100
0001
1000
,
0000
0200
0000
0000
0300
0010
0100
1000
,
0000
0002
0000
0000
0103
0001
0010
0100
,
1000
0000
0010
1000
0000
0001
0000
2000
,
0000
0000
0010
0000
3000
0000
1000
0100
,
0010
0100
1000
0001
,
0100
0010
0100
0001
,
0010
0100
1000
0010
,
1000
0000
0100
0010
0000
0001
0100
0001
,
0010
0200
0000
0000
0300
0000
1000
0002
,
0000
0000
0100
0003
0001
0010
0100
2000
,
0000
0001
0000
0100
,
3200
0000
0301
0100
,
1000
0010
1000
0100
,
0010
0001
0100
0001
,
0010
0100
0010
0001
,
1000
0000
0100
0010
0001
0000
0100
0000
,
0001
0010
0100
0010
,
0001
1000
0010
0100
,
0010
1000
0100
0010
,
0001
0100
0001
0000
0101
0000
0000
0000
;

//---------------dance-single - ----------------
#NOTES:
     dance-single:
     X-Scale 1:
     Beginner:
     1:
     0.106958,0.156805,0.021190,0.000000,0.000000,106.000000,103.000000,3.000000,0.000000,0.000000,0.000000,0.106958,0.156805,0.021190,0.000000,0.000000,106.000000,103.000000,3.000000,0.000000,0.000000,0.000000:
0000
0000
0000
0000
,
0000
0000
0000
0000
,
0000
0000
0000
0000
,
0000
0000
0000
0000
,
1000
0000
0000
0000
,
0100
0000
0000
0000
,
0010
0000
0000
0000
,
0001
0000
0000
0000
,
1001
0000
0010
0000
,
1000
0000
0001
0000
,
1000
0000
0100
0000
,
0010
0000
0001
0000
,
0100
0000
0001
0000
,
0010
0000
0100
0000
,
1000
0000
0001
0000
,
1000
0000
0010
0000
,
1000
1000
0000
0100
,
0000
0010
0000
0001
,
0000
1000
0000
0010
,
0000
0100
0000
0001
,
0000
1000
0000
0001
,
0010
0001
0000
1000
,
0100
1000
0000
0010
,
0100
0010
0000
1000
,
0001
1001
0000
0000
,
0000
0001
0000
0100
,
0000
0001
0000
0000
,
0000
1000
0000
0010
,
0000
1000
1000
0000
,
0010
0000
1000
0000
,
0001
0000
0100
0000
,
0001
0001
0000
0000
,
0011
0000
0100
0000
,
0001
0000
0010
0000
,
0100
0000
1000
0000
,
0010
0000
1000
0000
,
0100
0000
0010
0000
,
0100
0000
1000
0000
,
0001
0000
0100
0000
,
0001
0000
1000
0000
,
0010
0000
1000
0000
,
0001
0000
0010
0000
,
0100
0000
1000
0000
,
0010
0000
0100
0000
,
0010
0000
1000
0000
,
0100
0000
0010
0000
,
0001
0000
1000
0000
,
0001
0000
1000
0000
,
0010
0000
1000
0000
,
0100
0000
0010
0000
,
0001
0000
0100
0000
,
0001
0000
0010
0000
,
0100
0000
1000
0000
,
0001
0000
1000
0000
,
0100
0000
0010
0000
,
0001
0000
0100
0000
;
