#VERSION:0.83;
#TITLE:Bittersweet;
#SUBTITLE:;
#ARTIST:Pixel Terror;
#TITLETRANSLIT:;
#SUBTITLETRANSLIT:;
#ARTISTTRANSLIT:;
#GENRE:Brostep;
#ORIGIN:;
#CREDIT:;
#BANNER:Bittersweet-bn.png;
#BACKGROUND:Bittersweet-bg.png;
#PREVIEWVID:;
#JACKET:Bittersweet-jacket.png;
#CDIMAGE:;
#DISCIMAGE:;
#LYRICSPATH:;
#CDTITLE:cdtitle.png;
#MUSIC:Bittersweet.ogg;
#OFFSET:-0.003000;
#SAMPLESTART:44.803001;
#SAMPLELENGTH:12.800000;
#SELECTABLE:YES;
#BPMS:0.000=75.000,
24.000=150.000,
53.000=75.000,
61.000=150.000,
135.000=75.000,
137.000=150.000,
166.000=75.000,
174.000=150.000;
#STOPS:52.000=1.200,
73.000=0.800,
165.000=1.200,
186.000=0.800;
#DELAYS:;
#WARPS:;
#TIMESIGNATURES:0.000=4=4;
#TICKCOUNTS:0.000=4;
#COMBOS:0.000=1;
#SPEEDS:0.000=1.000=0.000=0;
#SCROLLS:0.000=1.000;
#FAKES:;
#LABELS:0.000=Song Start;
#BGCHANGES:;
#KEYSOUNDS:;
#ATTACKS:
;

//---------------dance-single - ----------------
#NOTEDATA:;
#CHARTNAME:X-Scale 13;
#STEPSTYPE:dance-single;
#DESCRIPTION:;
#CHARTSTYLE:;
#DIFFICULTY:Hard;
#METER:9;
#RADARVALUES:0.552710,0.667457,0.400239,0.133413,0.533651,493.000000,442.000000,51.000000,17.000000,12.000000,0.000000,5.000000,0.000000,0.000000,0.552710,0.667457,0.400239,0.133413,0.533651,493.000000,442.000000,51.000000,17.000000,12.000000,0.000000,5.000000,0.000000,0.000000;
#CREDIT:;
#NOTES:
// measure 0
0000
0000
0000
0000
,  // measure 1
0000
0000
0000
0000
,  // measure 2
1000
0100
0020
0000
0000
0000
0032
0000
0003
0000
0000
2000
0000
3002
0000
0203
,  // measure 3
0000
0000
0000
0000
0000
0000
0300
0000
0000
0000
0002
0000
0103
0002
0000
2003
,  // measure 4
0000
0000
0000
0000
0000
0000
3200
0000
0000
0000
0320
0000
0130
2000
0000
3000
,  // measure 5
0002
0000
0203
0000
0000
0000
0300
0000
0002
0000
0023
0000
0130
1000
0100
1000
,  // measure 6
1100
0000
0000
1000
0000
0000
0001
0000
0100
0000
0010
0000
1000
0000
0000
0000
,  // measure 7
1000
0000
0000
0100
0000
0000
0010
0000
0100
0000
1000
0000
0001
0000
0000
0000
,  // measure 8
0010
0000
0000
0100
0000
0000
0010
0000
0001
0000
0010
0000
0001
0000
0000
0000
,  // measure 9
0001
0000
0000
0100
0000
0000
0001
0000
1000
0000
0100
0000
1000
0000
0000
0000
,  // measure 10
1001
0000
0000
0001
0000
0000
0100
0000
1000
0000
0100
0000
0010
0000
0000
0000
,  // measure 11
1000
0000
0000
0001
0000
0000
0100
0000
0001
0000
0010
0000
0100
0000
0000
0000
,  // measure 12
1000
0000
0000
0010
0000
0000
1000
0000
0001
0000
0100
0000
0001
0000
0000
0000
,  // measure 13
1001
0000
0000
0000
0000
0000
0000
0000
1100
0000
0000
1000
0000
0000
0100
0000
0000
0010
0000
0000
0001
0000
0000
0000
0101
0000
0000
0001
0000
0000
0010
0000
,  // measure 14
0000
0001
0000
0000
1000
0000
0000
0000
1010
0000
0000
0010
0000
0000
1000
0000
0000
0001
0000
0000
0100
0000
0000
0000
0101
0000
0000
0001
0000
0000
1000
0000
,  // measure 15
0000
0100
0000
0000
0010
0000
0001
0000
1001
0000
0000
0000
0000
0000
1000
0000
0100
0000
0000
0000
1000
0000
0000
0000
0001
0000
0000
0000
0000
0000
0010
0000
,  // measure 16
0100
0000
0010
0000
0001
0000
0000
1000
0010
0000
1000
0000
0001
0000
0000
0010
,  // measure 17
0100
1000
0100
0001
0100
1000
0100
0010
,  // measure 18
0100
1000
0100
1000
1100
0000
0000
0100
1000
0000
0001
0000
1001
0000
0000
0000
,  // measure 19
1000
0000
0010
0000
0100
0000
0010
0000
0001
0000
0010
0000
1000
0000
0000
0001
,  // measure 20
0100
0000
0001
0010
0100
0000
0000
0100
0000
0000
0100
0000
1100
0000
1000
0000
,  // measure 21
0010
0000
0100
0000
0001
0000
0010
0000
0100
0000
0010
0000
0001
0000
0000
0100
,  // measure 22
0001
0000
1000
0000
1100
0000
0100
1000
0000
0000
0001
0000
1001
0000
0000
0000
,  // measure 23
1000
0000
0100
0000
0001
0000
0100
0000
0010
0000
0001
0000
1000
0000
0000
1000
,  // measure 24
0000
0000
1000
0001
0100
0000
0000
0100
0002
0000
0000
0000
0013
0000
0100
0010
,  // measure 25
0100
0010
0100
0000
1000
0000
0001
0100
0001
0100
0001
0000
0101
0000
0000
0001
,  // measure 26
1000
0000
0001
0000
0010
0100
1000
0000
0001
0000
0001
0000
0101
0000
0000
0000
,  // measure 27
0100
0001
1000
0010
1000
0001
0010
0100
,  // measure 28
1000
0000
0100
0010
0100
0000
0000
1000
0001
0000
0010
0000
0001
1000
0000
0000
,  // measure 29
0100
0010
0001
1000
0001
0100
0010
0100
,  // measure 30
0001
0000
0000
0000
0000
0000
0010
0000
0000
0000
0000
0000
0100
0000
0000
0000
0000
0000
0000
0000
0000
1000
0000
0000
0100
0000
0000
0000
1000
0000
0000
0000
0001
0000
0000
0000
0100
0000
0000
0000
0000
0000
0000
0000
0000
0000
0000
0000
,  // measure 31
0001
0010
1000
0010
0001
1000
0010
0001
,  // measure 32
0010
0000
1000
0001
0100
0000
0000
0100
0020
0000
0000
0000
1030
0000
0001
0010
,  // measure 33
0001
0010
0001
0000
0100
0000
0010
1000
0010
1000
0010
0000
0100
0000
0010
0100
,  // measure 34
0001
0010
0100
0100
1100
0000
0000
1000
0000
0000
0100
0000
1000
0000
0001
0000
,  // measure 35
0100
0000
0000
0000
0001
0000
0000
0010
0000
0000
0100
0000
1000
0000
0001
0000
,  // measure 36
1000
0000
0000
0000
0100
0000
0000
0010
0000
0000
0001
0000
1000
0000
0010
0000
,  // measure 37
1000
0000
0000
0000
0100
0000
0000
0010
0000
0000
0100
0000
1000
0000
0001
0000
,  // measure 38
0100
0000
0000
0000
0001
0000
0000
1000
0000
0000
0010
0000
0100
0000
0001
0000
,  // measure 39
0010
0000
0000
0000
0100
0000
0000
0010
0000
0000
0001
0000
1000
0000
0010
0000
,  // measure 40
1000
0000
0000
0000
0001
0000
0000
0100
0000
0000
0001
0000
0010
0000
0100
0000
,  // measure 41
1000
0000
0000
0000
0000
0000
0000
0000
1100
0000
0000
0000
0000
0000
0000
0000
1001
0000
0000
1000
0000
0000
0100
0000
0000
0010
0000
0000
0001
0000
0000
0000
,  // measure 42
0101
0000
0000
0001
0000
0000
0010
0000
0000
0001
0000
0000
1000
0000
0000
0000
1010
0000
0000
0010
0000
0000
1000
0000
0000
0001
0000
0000
0100
0000
0000
0000
,  // measure 43
0101
0000
0000
0000
0000
0000
0000
0000
0000
0000
0000
0000
0000
0000
0000
0000
0000
0000
0001
0000
0000
0000
0000
0000
0000
0000
0000
0000
0000
0000
0000
0000
0000
0000
0000
0000
1000
0000
0000
0000
0000
0000
0000
0000
0000
0000
0000
0000
0000
0000
0000
0000
0000
0000
0100
0000
0000
0000
0000
0000
0000
0000
0000
0000
0000
0000
0000
0000
0000
0000
0000
0000
0010
0000
0000
0000
0000
0000
0000
0000
0000
0000
0000
0000
0000
0000
0000
0000
0001
0000
0000
0000
0000
0000
0000
0000
0010
0000
0000
0000
0000
0000
0000
0000
0000
0000
0000
0000
0000
0000
0000
0000
0000
0000
0000
0000
0000
0000
0000
0000
0000
0000
0000
0000
0000
0000
0000
0000
0000
0000
0000
0000
0001
0000
0000
0000
0000
0000
0000
0000
0000
0000
0000
0000
1000
0000
0000
0000
0000
0000
0000
0000
0000
0000
0000
0000
0000
0000
0000
0000
0000
0000
0000
0000
0000
0000
0000
0000
0010
0000
0000
0000
0000
0000
0000
0000
0000
0000
0000
0000
0000
0000
0000
0000
0000
0000
0000
0000
0000
0000
0000
0000
,  // measure 44
1000
0000
0000
0100
0010
0000
0100
0000
1000
0000
0000
0001
0100
0000
0001
0000
,  // measure 45
1000
0000
0000
0000
0000
0000
0000
0000
0000
0100
0000
0000
0010
0000
0000
0000
0000
0000
0100
0000
0000
0000
0000
0000
1100
0000
0000
0000
0000
0000
0000
0000
0101
0000
0000
0000
0000
0000
0000
0000
0011
0000
0000
0000
0000
0000
0000
0000
,  // measure 46
1010
0000
1001
0000
0001
1000
1001
0000
0010
0100
0000
1000
,  // measure 47
1001
MMMM
0110
0100
,  // measure 48
0101
0000
0001
0000
0001
0000
1001
0000
0000
4000
0000
0000
,  // measure 49
3100
0000
1000
0100
0010
0001
0011
0000
0000
1000
0000
0000
,  // measure 50
1001
0000
1000
0000
1000
0000
1100
0000
0100
0010
0100
0000
,  // measure 51
0110
MMMM
1001
0001
,  // measure 52
0101
0000
0100
0000
0100
0000
0110
0000
0000
0040
0000
0000
,  // measure 53
1030
0010
0100
0001
1000
0010
1000
0001
1000
0100
0010
0001
,  // measure 54
0011
0000
0000
0000
0000
0000
0000
0000
0000
0001
0000
0000
0000
0000
0000
0000
0000
0000
1000
0000
0000
0000
0000
0000
0100
0000
0000
0000
1000
0000
0000
0000
0001
0000
0000
0000
0100
0000
0000
0000
0000
0000
0100
0000
0000
0000
0000
0000
,  // measure 55
0101
0000
0000
0001
0000
0000
1000
0000
0000
1000
0000
0100
,  // measure 56
1000
0000
0000
0100
0000
0000
0100
0000
0010
0001
1000
0001
,  // measure 57
1001
0000
1000
0001
1000
0010
1010
0000
0000
1000
0000
0100
,  // measure 58
0110
0000
0000
0010
0000
0000
0101
0000
0001
1000
0001
0000
,  // measure 59
1001
0000
0000
MMMM
0000
0000
0011
0000
0000
0010
0000
0100
,  // measure 60
1100
0000
4000
0000
3004
0003
0040
0000
,  // measure 61
0130
0010
0001
1000
0001
0100
0101
0000
0000
1001
0000
0000
,  // measure 62
1100
0000
0000
0000
0000
0000
0000
0000
0000
1000
0000
0000
0000
0000
0000
0000
0000
0000
0001
0000
0000
0000
0000
0000
0010
0000
0000
0000
0001
0000
0000
0000
1000
0000
0000
0000
0010
0000
0000
0000
0000
0000
0010
0000
0000
0000
0000
0000
,  // measure 63
1001
0000
0000
0000
;

//---------------dance-single - ----------------
#NOTEDATA:;
#CHARTNAME:X-Scale 10;
#STEPSTYPE:dance-single;
#DESCRIPTION:;
#CHARTSTYLE:;
#DIFFICULTY:Medium;
#METER:7;
#RADARVALUES:0.429388,0.568574,0.298217,0.251130,0.251130,383.000000,345.000000,38.000000,32.000000,0.000000,0.000000,0.000000,0.000000,0.000000,0.429388,0.568574,0.298217,0.251130,0.251130,383.000000,345.000000,38.000000,32.000000,0.000000,0.000000,0.000000,0.000000,0.000000;
#CREDIT:;
#NOTES:
0000
0000
0000
0000
,
0000
0000
0000
0000
,
0001
0010
0002
0000
0000
0003
2000
0000
3000
0000
0000
0100
0000
0010
0000
0002
,
0000
0000
0000
0000
0000
0000
0003
0000
0000
0000
1000
0000
0100
1000
0000
0002
,
0000
0000
0000
0003
0000
0010
0100
1000
,
0001
2000
0000
3000
0001
2000
0000
3000
,
1001
1000
0020
0000
0001
0000
1030
0100
,
0010
0000
0000
0001
0000
0100
0000
0002
,
1000
0000
0010
0000
1000
0003
0001
0100
,
0001
0000
0010
0000
0100
1000
0000
0200
,
0010
0000
1000
0000
0010
0300
0100
1000
,
0001
0020
2030
3200
,
0302
2003
3000
0010
,
1010
0000
0000
0000
0000
0000
0000
0000
1001
0000
0000
0001
0000
0000
0010
0000
0000
0010
0000
0000
0001
0000
0000
0000
1000
0000
0000
0100
0000
0000
0010
0000
,
0000
0010
0000
0000
0001
0000
0000
0000
0100
0000
0000
0001
0000
0000
1000
0000
0000
1000
0000
0000
0010
0000
0000
0000
1000
0000
0000
0001
0000
0000
0010
0000
,
0000
0010
0000
0000
0100
0000
0000
0000
0110
0000
0000
0000
0000
0000
0010
0000
0000
0000
0000
0000
0001
0000
0000
0000
0011
0000
0000
0000
0000
0000
0001
0000
,
0000
0000
1000
0000
1001
0000
0000
0001
0000
0000
0100
0000
0101
0000
0000
0001
,
0000
1000
0100
0010
0001
0100
0010
1000
,
0001
0000
0010
0000
0011
0000
0000
0001
1000
0000
0001
0000
1001
0000
0000
0000
,
1000
0000
0010
0000
1000
0000
0001
0000
0010
0000
0001
0000
0100
0000
0000
0100
,
0000
0000
0100
0000
0001
0000
0000
0001
0000
0000
0001
0000
1001
0000
0000
0000
,
1000
0000
0010
0000
0100
0000
0010
0000
0001
0000
0010
0000
1000
0000
0000
1000
,
0000
0000
1000
0000
0100
0000
0000
0100
0000
0000
0010
0000
0001
0000
0000
0000
,
1000
0000
0010
0000
0100
0000
1000
0000
0100
0000
0001
0000
0010
0000
0000
0010
,
0000
0000
0010
0000
0100
0000
0000
0100
2000
0000
0000
0000
3001
0000
0000
0000
,
1000
0100
1000
0000
0001
0100
0101
0000
,
1001
0000
0000
0000
0001
1000
0001
0000
0010
0000
0100
0000
1010
0000
0000
0000
,
1000
0001
0100
0001
0000
0010
0100
0010
,
0000
0000
0001
0000
1000
0000
0000
0100
0000
0000
0010
0000
0000
0010
0000
0000
,
0010
0001
1000
0001
0010
0100
0010
0100
,
1000
0000
0000
0010
0000
0000
1000
0000
0000
1000
0000
0000
0001
0000
0100
0000
0001
0000
1000
0000
0000
0000
0000
0000
,
0100
0010
0001
0010
0000
0100
1000
0100
,
0000
0000
0010
0000
0001
0000
0000
0001
0200
0000
0000
0000
0301
0000
0000
0000
,
1000
0100
1000
0000
0001
0100
0002
0000
,
2000
3003
1001
1000
0200
0000
0001
0000
,
0320
0000
0000
0000
0031
0000
0000
0010
0000
0000
0001
0000
0000
0000
1000
0000
,
0000
0020
0001
0000
0100
0000
1000
0030
,
0010
1000
0010
0000
0100
0000
0001
1000
,
0000
0200
0001
0000
0010
0000
1000
0300
,
0100
0010
0001
0000
0020
0000
2030
0000
,
3200
0302
2003
3000
,
0010
0000
1010
0000
1001
1000
0001
0100
,
0001
0010
0100
1000
0100
0010
0100
1000
,
0001
0000
0100
0000
0001
0000
1000
0000
1001
0000
0000
1000
0000
0000
0100
0000
,
1100
0000
0000
1000
0000
0000
0001
0000
1001
0000
0000
0001
0000
0000
0100
0000
,
0101
0000
0000
0000
0000
0000
0000
0000
0000
0001
0000
0000
0000
0000
0000
0000
0000
0000
1000
0000
0000
0000
0000
0000
1001
0000
0000
0000
0000
0000
0000
0000
0110
0000
0000
0000
0000
0000
0000
0000
1001
0000
0000
0000
0000
0000
0000
0000
,
0110
0000
1001
0000
1000
0001
1000
0000
0100
1000
0000
0100
,
0010
0100
1100
1000
,
0001
0000
0100
0000
0001
0000
2000
0000
0000
3200
0000
0000
,
0310
0001
0101
1000
,
0001
0000
0100
0000
0100
0000
0001
0000
1000
0100
1000
0000
,
1100
1000
1001
0001
,
0100
0000
0001
0000
1000
0000
0001
0000
0000
0020
0000
0000
,
0130
1000
1100
0100
,
0110
0000
0000
0010
0000
0000
0001
0000
0000
1000
0000
0000
0001
0000
0001
0000
,
1001
1000
0010
1000
,
0001
0000
0000
0010
0000
0000
0100
0000
0000
1000
0001
0100
,
0001
0000
0000
0010
0000
0000
0101
0000
0000
0001
0000
1000
,
0100
0000
0000
1000
0000
0000
0001
0000
0010
0100
0000
0000
,
0110
0000
0000
0010
0000
0000
0101
0000
0000
0001
0000
1000
,
0100
2000
3001
0020
,
0130
0010
0011
0001
,
1001
0000
0000
1000
0000
0000
0100
0000
0000
1000
0000
0000
0001
0000
0000
0000
,
1001
0000
0000
0000
;

//---------------dance-single - ----------------
#NOTEDATA:;
#CHARTNAME:X-Scale 6;
#STEPSTYPE:dance-single;
#DESCRIPTION:;
#CHARTSTYLE:;
#DIFFICULTY:Easy;
#METER:4;
#RADARVALUES:0.308307,0.346089,0.266826,0.180500,0.000000,275.000000,241.000000,34.000000,23.000000,0.000000,0.000000,0.000000,0.000000,0.000000,0.308307,0.346089,0.266826,0.180500,0.000000,275.000000,241.000000,34.000000,23.000000,0.000000,0.000000,0.000000,0.000000,0.000000;
#CREDIT:;
#NOTES:
0000
0000
0000
0000
,
0000
0000
0000
0000
,
0001
0000
1000
0000
,
0001
0000
1000
0100
,
1000
0000
0001
0000
,
1000
0000
0001
0100
,
0101
0001
1000
0100
,
1000
0001
0010
0100
,
0010
0001
1000
0100
,
1000
0001
0100
0010
,
0100
0001
0010
0100
,
0010
0001
1000
0010
,
1000
0001
0010
0100
,
1000
0000
1001
0002
0003
0002
1003
0200
,
0300
0200
0310
0002
0003
0002
1003
0020
,
0030
0020
0130
0000
0010
0000
1000
0000
,
0001
0100
0010
1000
,
0001
0000
0010
0100
1000
0001
1000
0010
,
2000
0000
3001
0000
0001
0010
0011
0000
,
0001
0000
1000
0000
0010
1000
0001
0000
,
0100
0000
0001
0000
0010
0100
1000
0000
,
0001
0000
1000
0000
0010
1000
0001
0000
,
0010
0000
0001
0000
1000
0001
0100
0000
,
0010
0000
0100
0000
0001
0010
0100
0000
,
1000
0001
2000
3100
,
0000
1001
0000
0101
,
1010
0000
1000
0001
0100
0001
1000
0000
,
0100
0000
0010
0001
0000
1000
0001
1000
,
0000
0010
1010
0000
0000
0000
1001
0000
,
1000
0001
0010
0000
0100
1000
0001
0000
,
0010
0001
1000
0000
0100
0000
1100
0000
,
1000
0000
0001
0100
0000
0010
0100
0001
,
0000
0010
0100
0000
2000
0000
3001
0000
,
0000
1001
0000
0110
,
0000
0100
1000
0001
,
1000
0010
0100
0010
,
1000
0001
0100
0001
,
0010
0100
0010
0001
,
1000
0100
0010
0100
,
1000
0001
0010
0001
,
1000
0001
0010
0001
,
1000
0000
0001
0000
1001
2000
3000
2000
,
3100
0020
0030
0020
0031
2000
3000
2000
,
3010
0200
0300
0200
0301
0000
1000
0000
,
0100
0010
0001
1000
,
0100
0000
0010
0000
0001
0000
1000
0001
,
0010
0000
0100
1000
0001
0000
0000
0000
,
1001
0000
1100
1000
,
1001
0000
0101
0002
,
1003
0000
1001
1000
,
1010
0000
0110
0100
,
0101
0001
1001
1000
,
1010
0000
1001
0002
,
0013
0000
1001
0000
,
1010
0000
1000
0001
,
1000
0000
0100
0000
,
1000
0000
0001
0000
,
1001
0000
0110
0000
,
1010
0000
1001
0001
,
0101
0000
0110
0010
,
1001
2000
3100
0020
,
0031
0000
1001
0000
,
1010
0000
1000
0001
,
1000
0000
0000
0000
;

//---------------dance-single - ----------------
#NOTEDATA:;
#CHARTNAME:X-Scale 3;
#STEPSTYPE:dance-single;
#DESCRIPTION:;
#CHARTSTYLE:;
#DIFFICULTY:Beginner;
#METER:2;
#RADARVALUES:0.132292,0.197765,0.039239,0.000000,0.000000,118.000000,113.000000,5.000000,0.000000,0.000000,0.000000,0.000000,0.000000,0.000000,0.132292,0.197765,0.039239,0.000000,0.000000,118.000000,113.000000,5.000000,0.000000,0.000000,0.000000,0.000000,0.000000,0.000000;
#CREDIT:;
#NOTES:
0000
0000
0000
0000
,
0000
0000
0000
0000
,
1000
0000
0100
0000
,
0010
0000
0001
0000
,
1000
0000
0100
0000
,
0010
0000
0001
0000
,
1000
0000
0000
0000
,
0010
0000
0000
0000
,
1000
0000
0000
0000
,
0001
0000
0000
0000
,
0010
0000
0000
0000
,
0100
0000
0000
0000
,
1000
0000
0000
0000
,
0001
1000
0000
0100
,
0000
1000
0000
0100
,
0000
0010
0000
0100
,
0000
1000
0000
0001
,
0000
1000
0001
1000
,
0001
1000
0000
1001
,
0000
0001
0000
0010
,
0000
0100
0000
1000
,
0000
0010
0000
1000
,
0000
0001
0000
0100
,
0000
0010
0000
0100
,
0000
0001
0000
0010
,
0000
0100
0000
0010
,
0000
0001
0000
1001
,
0000
1000
0000
0001
,
0000
0100
0000
0001
,
0000
1000
0000
0100
,
0000
0010
0000
0100
,
0000
1000
0000
0001
,
0000
0100
0000
0001
,
0000
1000
0000
0010
,
0000
1000
0000
0000
,
0000
0100
0000
0000
,
0000
0010
0000
0000
,
0000
0001
0000
0000
,
0000
1000
0000
0000
,
0000
0001
0000
0000
,
0000
0010
0000
0000
,
0000
0100
1000
0000
,
0100
0000
1000
0000
,
0100
0000
0010
0000
,
0001
0000
1000
0000
,
0001
0000
0100
0000
,
0010
0000
0100
0000
,
0110
0000
0010
1000
,
0001
0000
0010
0000
,
0001
0000
1000
0010
,
1000
0000
0100
0000
,
0010
0000
0001
1000
,
0010
0000
0100
0000
,
0001
0000
0010
0000
,
0100
0000
0010
0000
,
0110
0000
0000
0000
,
0000
0000
0000
0000
,
1001
0000
1000
0000
,
0001
0000
0100
0000
,
0010
0000
1000
0000
,
0001
0000
0010
0000
,
0100
0000
1000
0001
,
1000
0000
0100
0000
,
0010
0000
0000
0000
;

//---------------dance-single - ----------------
#NOTEDATA:;
#CHARTNAME:X-Scale 16;
#STEPSTYPE:dance-single;
#DESCRIPTION:;
#CHARTSTYLE:;
#DIFFICULTY:Challenge;
#METER:11;
#RADARVALUES:0.643521,1.112428,0.415934,0.062783,0.718075,574.000000,521.000000,53.000000,8.000000,32.000000,0.000000,6.000000,0.000000,0.000000,0.643521,1.112428,0.415934,0.062783,0.718075,574.000000,521.000000,53.000000,8.000000,32.000000,0.000000,6.000000,0.000000,0.000000;
#CREDIT:;
#NOTES:
// measure 0
0000
0000
0000
0000
,  // measure 1
0000
0000
0000
0000
,  // measure 2
0001
0000
0000
0010
0100
0000
1000
0000
0010
0000
0000
1000
0001
0000
0100
0000
,  // measure 3
0010
0000
0000
0100
0001
0000
0010
0000
0100
0000
1000
0000
0010
0000
1000
0000
,  // measure 4
0100
0000
0000
0010
0001
0000
1000
0000
0010
0000
0000
0100
0010
0000
1000
0000
,  // measure 5
0001
0000
0000
0010
0100
0000
0010
0000
0001
0000
1000
0000
0010
0000
1000
0000
,  // measure 6
1001
0000
0000
0001
0100
0000
0001
0000
1000
0000
0100
0000
1000
0000
0000
0000
,  // measure 7
0001
0000
0000
0100
0010
0000
0100
0000
0001
0000
0010
0000
0100
0000
0000
0000
,  // measure 8
1000
0000
0000
0010
1000
0000
0001
0000
0100
0000
0010
0000
0100
0000
0000
0000
,  // measure 9
0001
0000
0000
0010
0001
0000
1000
0000
0100
0000
0010
0000
0001
0000
0000
0000
,  // measure 10
0101
0000
0000
0001
1000
0000
0010
0000
0001
0000
0010
0000
1000
0000
0000
0000
,  // measure 11
0100
0000
0000
0010
0001
0000
0100
0000
0010
0000
0100
0000
0001
0000
0000
0000
,  // measure 12
0010
0000
0000
0100
1000
0000
0001
0000
0100
0000
0001
0000
1000
0000
0000
0000
,  // measure 13
1001
0000
0000
0000
0000
0000
0000
0000
0110
0000
0100
0000
0010
0100
0010
0000
1000
0000
0100
0000
0010
0001
0010
0000
0011
0000
0100
0000
0001
1000
0001
0000
,  // measure 14
0100
0000
0010
0000
1000
0010
1000
0000
1010
0000
0001
0000
1000
0001
1000
0000
0100
0000
0010
0000
0001
0010
0001
0000
0101
0000
0001
0000
1000
0010
1000
0000
,  // measure 15
0001
0000
0100
0000
0010
0100
0010
0000
1000
0000
0010
0000
1000
0000
0010
0000
1000
0000
0010
0000
1000
0000
0010
0000
0100
0000
0001
0000
0100
0000
0001
0000
,  // measure 16
0100
0001
0100
0001
0010
0100
0010
0100
0010
0100
0010
0100
1000
0100
1000
0100
,  // measure 17
1000
0100
1000
0100
0010
0000
0010
0000
0010
0000
0010
0000
0001
0000
0001
0000
,  // measure 18
0001
1000
0010
1000
0001
0000
0000
0010
0100
0000
0100
0000
1010
0000
0000
0000
,  // measure 19
1000
0000
0100
0000
0101
0000
0001
0000
1000
0000
0010
0000
1010
0000
0000
1000
,  // measure 20
0000
0000
0001
1000
0001
0000
0000
0001
0000
0000
0001
0000
0101
0000
0100
0000
,  // measure 21
0010
0000
1000
0000
1100
0000
1000
0000
0001
0000
0100
0000
0110
0000
0000
0010
,  // measure 22
0000
0000
0010
0000
1010
0000
1000
0010
0000
0000
1000
0000
1001
0000
0000
0000
,  // measure 23
0001
0000
0100
0000
1100
0000
1000
0000
0100
0000
0010
0000
0011
0000
0000
0001
,  // measure 24
0000
0000
1000
0001
1000
0000
0000
0100
0020
0000
0000
0000
0031
0010
0001
0010
,  // measure 25
0001
0010
0001
0010
0100
1000
0100
1000
0100
1000
0100
1000
0001
0000
0000
1000
,  // measure 26
0010
0000
0100
0000
0001
1000
0001
0000
1000
0000
1000
0000
1001
0000
0000
0000
,  // measure 27
0001
0100
0100
1000
MMMM
0100
0100
0001
,  // measure 28
MMMM
0000
1000
0001
1000
0000
0000
0100
0010
0000
0001
0000
0100
0001
0000
0000
,  // measure 29
0001
0010
1000
0010
0100
1000
0100
0001
,  // measure 30
0100
0000
0000
0000
0000
0000
0010
0000
0000
0000
0000
0000
0001
0000
0000
0010
0000
0000
0000
0000
0000
0010
0000
0000
0100
0000
0000
0000
1000
0000
0000
0000
0001
0000
0000
0000
1001
0000
0000
0000
0000
0000
0000
0000
0000
0000
0000
0000
,  // measure 31
1000
0010
0010
0001
MMMM
0010
0010
1000
,  // measure 32
MMMM
0000
0001
1000
0001
0000
0000
0010
0200
0000
0000
0000
1300
0100
1000
0100
,  // measure 33
1000
0100
1000
0100
0010
0001
0010
0001
0010
0001
0010
0001
0200
0000
0000
0000
,  // measure 34
0302
0000
1003
1000
1001
0000
0000
0001
0100
0000
0001
0000
1000
0000
0010
0000
,  // measure 35
0100
0000
0000
0000
0001
0000
0000
0010
0001
0000
1000
0000
0010
0000
0100
0000
,  // measure 36
0010
0000
0000
0000
1000
0000
0000
0100
0010
0000
0100
0000
1000
0000
0001
0000
,  // measure 37
0100
0000
0000
0000
0001
0000
0000
0010
0100
0000
0010
0000
0001
0000
1000
0000
,  // measure 38
0010
0000
0000
0000
1010
0000
0000
1000
0001
0000
0100
0000
0010
0000
1000
0000
,  // measure 39
0001
0000
0000
0000
0010
0000
0000
0100
1000
0000
0001
0000
0010
0000
0001
0000
,  // measure 40
0100
0000
0000
0000
0010
0000
0000
0100
0001
0000
1000
0000
0100
0000
0010
0000
,  // measure 41
0001
0000
0000
0000
0000
0000
0011
0000
0000
0000
0000
0000
1001
0000
0000
1000
0010
0100
0001
0000
0000
0010
0100
1000
,  // measure 42
1100
0000
0000
0100
1000
0001
0100
0000
0000
0010
0100
0001
0011
0000
0000
0010
0100
1000
0001
0000
0000
0100
0010
1000
,  // measure 43
1001
0000
0000
0001
0010
0100
1000
0000
0000
0010
1000
0001
1000
0000
0001
0000
0100
0000
0010
0000
1000
0000
0100
0000
,  // measure 44
0001
0100
0010
0001
0100
0010
0100
0001
0010
0100
1000
0010
,  // measure 45
0100
0010
0001
0010
1000
0001
1001
0000
0110
0000
1100
0000
,  // measure 46
0101
0000
0011
0000
1000
0001
1001
0000
1000
0100
0000
0100
,  // measure 47
0001
MMMM
0110
0100
,  // measure 48
1010
0000
1000
0000
1000
0000
1001
0000
0000
0440
0000
0330
,  // measure 49
1001
0000
1000
0001
1000
0001
0101
0000
0000
0010
0000
0000
,  // measure 50
1010
0000
1000
0000
1000
0000
0001
0000
0020
0030
0020
0030
,  // measure 51
1010
MMMM
0011
1000
,  // measure 52
1001
0000
0001
0000
0001
0000
0101
0000
0000
0440
0000
0330
,  // measure 53
1001
1000
0010
0100
0001
1000
0001
0010
0100
0010
0001
1000
,  // measure 54
0010
0000
0000
0000
0000
0000
0000
0000
0000
0100
0000
0000
0000
0000
0000
0000
0000
0000
0001
0000
0000
0000
0000
0000
1000
0000
0000
0000
0010
0000
0000
0000
1000
0000
0000
0000
0010
0000
0000
0000
0000
0000
0010
0000
0000
0000
0000
0000
,  // measure 55
1010
0000
0000
MMMM
0000
0000
0001
0000
0000
0001
0000
0100
,  // measure 56
0001
0000
0000
0001
0000
0000
0010
0000
0100
1000
0001
0100
,  // measure 57
0010
0000
1000
0001
1000
0100
1100
0000
0000
1000
0000
0100
,  // measure 58
0010
0000
0000
0010
0000
0001
0011
0000
0020
0030
0020
0030
,  // measure 59
1010
0000
0000
MMMM
0000
0000
0011
0000
0000
0001
0000
1000
,  // measure 60
0001
0000
0000
0004
0000
0003
1001
0000
0000
0400
0000
0300
,  // measure 61
0110
0100
0010
0100
0001
1000
0100
0010
0001
1000
0001
0100
,  // measure 62
0001
0000
0000
0000
0000
0000
0000
0000
0000
0010
0000
0000
0000
0000
0000
0000
0000
0000
0100
0000
0000
0000
0000
0000
1000
0000
0000
0000
0100
0000
0000
0000
0010
0000
0000
0000
0001
0000
0000
0000
0000
0000
0001
0000
0000
0000
0000
0000
,  // measure 63
0011
0000
0000
0000
;
