#TITLE:Beyond the Seven;
#SUBTITLE:;
#ARTIST:Nhato;
#TITLETRANSLIT:;
#SUBTITLETRANSLIT:;
#ARTISTTRANSLIT:;
#GENRE:Trance;
#CREDIT:;
#BANNER:bts-bn.png;
#BACKGROUND:bts-bg.png;
#LYRICSPATH:;
#CDTITLE:cdtitle.png;
#MUSIC:beyond the seven.ogg;
#OFFSET:0.225000;
#SAMPLESTART:81.343994;
#SAMPLELENGTH:13.500000;
#SELECTABLE:YES;
#BPMS:0.000000=142.000000
,33.000000=71.000000
,41.000000=142.000000
,53.000000=71.000000
,55.000000=142.000000
,119.000000=71.000000
,135.000000=142.000000
;
#STOPS:
;
#BGCHANGES:0.500=bts.mp4=1.000=1=0=1===CrossFade==,
99999=-nosongbg-=1.000=0=0=0 // don't automatically add -songbackground-
;
#KEYSOUNDS:;
#ATTACKS:;

//---------------dance-single - ----------------
#NOTES:
     dance-single:
     :
     Easy:
     4:
     0.264957,0.361123,0.233926,0.167090,0.008354,222.000000,194.000000,28.000000,20.000000,0.000000,0.000000,0.264957,0.361123,0.233926,0.167090,0.008354,222.000000,194.000000,28.000000,20.000000,0.000000,0.000000:
// measure 0
0000
0000
0100
0000
,  // measure 1
0001
0000
0010
0000
,  // measure 2
1000
0000
0100
0000
,  // measure 3
0001
0000
0000
0000
0000
0000
0000
0000
0010
0000
0000
0000
0100
0000
0000
0010
,  // measure 4
0000
0100
0010
0000
0000
0000
0001
0000
,  // measure 5
0000
0010
0000
1000
,  // measure 6
0000
0100
0001
0010
,  // measure 7
0100
0020
0000
0130
,  // measure 8
0100
0000
0101
0100
0000
0001
0000
0100
,  // measure 9
0000
0010
0000
1000
0000
0100
0000
0010
,  // measure 10
0000
0001
0101
0000
0000
0000
0001
0000
,  // measure 11
0000
1000
0000
0100
,  // measure 12
0000
0020
0000
0200
,  // measure 13
0000
0000
0330
0000
0000
0100
0110
0000
,  // measure 14
0000
0000
0001
0100
1000
0000
1000
0000
,  // measure 15
0000
0000
1000
0010
0001
0000
0001
0000
,  // measure 16
0000
0000
0010
0100
0010
0000
0010
0000
,  // measure 17
0000
0020
0000
0031
,  // measure 18
0000
0000
1000
0010
1000
0000
0001
0000
,  // measure 19
0000
0000
0100
0010
0100
0000
0001
0000
,  // measure 20
0000
0000
0001
0010
0100
0000
0010
0000
,  // measure 21
0000
0020
0000
0130
,  // measure 22
1000
0100
0010
0001
,  // measure 23
0010
0000
0000
0000
0002
0000
0000
0003
0200
0000
0000
0300
0101
0000
0000
0000
,  // measure 24
0100
0001
0010
0100
,  // measure 25
0010
0000
0000
0000
0001
0000
0000
0000
0020
0000
0000
0030
0011
0000
0000
0000
,  // measure 26
0010
0001
1000
0100
,  // measure 27
1000
0000
0000
0000
0020
0000
0000
0030
2000
0000
0000
3000
1010
0000
0000
0000
,  // measure 28
0100
1000
0010
1000
,  // measure 29
0000
0000
0110
1001
,  // measure 30
0020
0000
0000
0000
0000
0030
1000
0000
0100
0000
0010
0000
0002
0000
0000
0000
,  // measure 31
0000
0003
0100
0000
0020
0000
0000
0030
0010
0000
0000
0000
0000
0000
0100
0000
,  // measure 32
0000
0001
0000
1000
0000
0010
0000
0100
,  // measure 33
0000
0000
0001
0000
0000
0000
0100
0000
0000
0000
0001
1000
0001
0000
0000
0000
,  // measure 34
0101
0000
1010
0000
,  // measure 35
1001
0000
0101
0000
,  // measure 36
1001
0000
1100
0000
,  // measure 37
1010
0000
0001
0010
,  // measure 38
0100
1000
0100
0010
,  // measure 39
0001
0010
0100
0010
,  // measure 40
0001
1000
0100
1010
,  // measure 41
1010
0000
0000
0000
1010
0000
0000
0000
2020
0000
0000
3030
1010
0000
0000
0000
,  // measure 42
0100
0000
0010
0000
,  // measure 43
1000
0000
0001
0000
,  // measure 44
0100
0000
0010
0000
,  // measure 45
1000
0000
0010
1010
,  // measure 46
1000
0000
0010
0000
,  // measure 47
0100
0000
0001
0000
,  // measure 48
1000
0000
0001
1001
,  // measure 49
1010
1002
0203
0301
,  // measure 50
0100
0000
0001
0000
,  // measure 51
1000
0000
0001
0000
,  // measure 52
0100
0000
0001
0000
,  // measure 53
1000
0000
0100
1100
,  // measure 54
1000
0000
0001
0000
,  // measure 55
0100
0000
0010
0000
,  // measure 56
1000
0000
0001
1001
,  // measure 57
0101
0000
0000
0000
2001
0000
0000
0000
0020
0000
0000
0030
3010
0000
0000
0000
,  // measure 58
0100
0010
0100
0001
,  // measure 59
0010
0001
1000
0100
,  // measure 60
0010
0001
0010
0100
,  // measure 61
0010
0002
0010
0003
;

//---------------dance-single - ----------------
#NOTES:
     dance-single:
     :
     Hard:
     10:
     0.559751,0.593274,0.242280,0.075190,0.363421,469.000000,440.000000,29.000000,9.000000,0.000000,0.000000,0.559751,0.593274,0.242280,0.075190,0.363421,469.000000,440.000000,29.000000,9.000000,0.000000,0.000000:
// measure 0
0000
1001
0100
0010
,  // measure 1
0001
0010
0100
0010
,  // measure 2
0001
1000
1010
1000
0001
0000
0010
1000
,  // measure 3
0100
0000
0000
0000
0010
0000
1000
0000
0001
0000
0000
0000
1100
0000
0000
0110
,  // measure 4
0000
0011
0001
0010
0001
0000
0001
0100
,  // measure 5
1000
0000
1000
0100
0001
0000
0010
0100
,  // measure 6
1000
0000
0100
0010
0001
0010
0100
0010
,  // measure 7
1000
0100
0004
0000
1000
0000
0103
0000
,  // measure 8
0010
0000
1001
0100
0010
0001
0010
0100
,  // measure 9
0010
0000
0000
0000
1000
0000
0000
0000
0100
0000
0000
0000
0010
0100
0000
1000
0000
0000
0000
0001
0100
0000
0000
0001
0000
0000
0000
1000
0010
0000
0000
1000
,  // measure 10
0000
0000
0000
0004
0000
0000
0003
0000
1001
0000
0000
0000
0000
0000
0100
0000
0010
0000
0000
0000
1000
0000
0000
0000
0100
0000
0000
0000
0000
0000
1000
0000
,  // measure 11
0010
0000
1000
0000
0001
0000
0000
0010
0001
0000
0100
0000
0001
0000
0000
0010
,  // measure 12
0100
0010
0001
0010
0100
1000
4004
0000
,  // measure 13
0000
0000
0000
0000
0000
0000
0000
0000
3003
0000
0000
0000
1000
0010
0000
0000
0001
0000
0000
0000
0010
0100
0000
0000
0110
0000
0000
0000
0000
0000
0000
0000
,  // measure 14
0010
0000
1000
0100
1000
0000
1000
0001
,  // measure 15
0100
0001
0000
0000
1000
0000
0001
1000
0000
0010
0000
0000
0010
0000
0100
0000
,  // measure 16
0010
0000
1000
0100
1000
0000
1000
0001
,  // measure 17
0100
0001
0000
0000
0004
0000
0000
0000
0400
0000
0000
0303
0101
0000
0000
0000
,  // measure 18
0100
0000
0001
0010
0001
0000
1000
0010
,  // measure 19
0100
0010
0000
0000
0010
0000
0100
0010
0000
1000
0000
0000
1010
0000
1000
0000
,  // measure 20
0001
0000
0000
0000
1000
0000
0010
0000
0100
0001
0000
0000
0101
0000
0000
0010
,  // measure 21
0100
0000
0010
1000
0010
0000
0100
0000
0010
0000
0100
0000
0110
0000
0000
0000
,  // measure 22
0100
0010
0001
0010
0100
1000
0100
0010
,  // measure 23
0100
0000
0000
0000
0004
0000
0000
0000
0203
0000
0000
0300
0101
0000
0100
0000
,  // measure 24
0001
0000
0001
1000
0010
0000
0100
0000
,  // measure 25
0010
1000
0004
0103
,  // measure 26
0001
1000
0001
0100
0010
0100
1000
0100
,  // measure 27
0010
0000
0000
0000
0040
0000
0000
0000
2030
0000
0000
3000
1010
0000
0010
0000
,  // measure 28
0100
1000
0100
0001
0010
0100
1000
0010
,  // measure 29
0100
0010
0000
0000
0010
0000
0000
0100
0000
0000
0010
0000
0101
0000
0010
1000
,  // measure 30
0020
0000
0000
0000
0000
0030
1000
0000
0100
0000
0010
0100
2000
0000
0000
0000
,  // measure 31
0000
0000
3000
0000
0001
0100
0001
0100
0002
0000
0000
0000
0000
0000
0003
0000
0001
0000
0000
0100
0000
0000
0010
0000
1000
0000
0000
0000
0100
0000
0000
0000
,  // measure 32
0010
0000
0001
0000
0010
0000
0001
0000
0100
0000
1000
0100
0001
0000
0010
0000
,  // measure 33
0100
0000
0000
1000
0000
0000
0100
1000
0001
0000
0000
0000
0100
0000
0001
0010
0001
0000
0000
0000
1000
0000
0001
0000
1000
0000
0000
0000
0000
0000
0010
0000
,  // measure 34
0000
0000
1000
0000
0001
0000
0000
0100
0000
0000
0001
0000
0100
0000
0000
0010
,  // measure 35
0000
0000
1000
0000
0010
0000
0000
0100
0000
0000
0001
0000
0010
0000
0000
0100
,  // measure 36
0000
0000
1000
0100
1000
0000
0000
0010
0000
0000
0100
0010
0100
0000
0000
0001
,  // measure 37
0000
0000
0010
0001
0010
0000
0000
0000
0011
0000
0001
0000
1000
0000
0001
0000
,  // measure 38
0010
0100
0010
0001
0010
0100
1000
0100
,  // measure 39
0010
0001
0010
0100
1000
0100
4000
0000
,  // measure 40
0100
0000
0010
0000
0001
3000
1001
0000
,  // measure 41
1010
0000
0000
0000
0110
0000
0000
0000
0202
0000
0000
0303
0101
0000
0000
0000
,  // measure 42
0001
0000
0010
0100
0010
0000
0001
1000
0001
1000
0000
0000
1000
0000
0001
0000
,  // measure 43
1000
0000
0010
0000
1000
0000
0100
0000
1000
0000
0010
0000
1000
0000
0000
0010
,  // measure 44
0100
0000
0010
0100
0010
0000
0000
0100
0001
0000
0010
0000
0100
0000
0000
0000
,  // measure 45
1000
0000
0001
0100
0001
0000
0000
0000
0010
0000
0100
0000
0010
0000
0000
0001
,  // measure 46
1000
0000
0010
0100
0010
0000
0000
0010
1000
0010
0100
0000
0001
0000
0000
0001
,  // measure 47
1000
0000
0010
0000
0100
0000
0010
0000
0100
0000
0001
1000
0001
0000
0000
1000
,  // measure 48
0001
0000
0100
0000
0010
0000
0000
0010
0100
0000
0001
0000
0101
0000
0000
0000
,  // measure 49
1010
0000
0000
0000
1002
0000
0000
0000
0200
0000
0000
0303
0101
0000
0000
0100
,  // measure 50
0010
0000
0100
0000
0001
0000
0000
1000
0001
0000
0100
0000
0010
0000
0000
0010
,  // measure 51
1000
0000
0010
0000
0100
0000
0000
0001
1000
0000
0001
0000
0100
0000
0000
0100
,  // measure 52
0010
0000
1000
0000
0001
0000
0000
1000
0010
0000
0100
0000
0010
0000
0000
1000
,  // measure 53
0100
0000
1000
0000
0001
0000
0000
0001
0100
0000
0010
0000
0100
0000
0000
0001
,  // measure 54
1000
0000
0100
0000
0010
0000
0000
0001
1000
0000
0001
0100
0001
0000
0000
1000
,  // measure 55
0100
0000
1000
0010
1000
0000
0000
0001
0100
0000
0010
0000
1000
0000
0000
0010
,  // measure 56
0100
0000
0010
0000
1000
0000
0000
1000
0100
1000
0010
1000
1010
0000
0000
0000
,  // measure 57
0101
0000
0000
0000
1001
0000
0000
0000
0040
0000
0000
0000
1030
0000
0000
0010
,  // measure 58
0100
0000
0010
0000
0001
0000
0000
0010
0100
0000
0010
0000
1000
0000
0000
0100
,  // measure 59
0010
0000
0100
0000
1000
0000
0000
0100
0010
0000
0100
0000
0010
0000
0001
0000
,  // measure 60
1000
0001
0010
0100
0010
0001
0004
0000
,  // measure 61
0010
0100
1000
1003
;

//---------------dance-single - ----------------
#NOTES:
     dance-single:
     :
     Medium:
     7:
     0.390274,0.490096,0.300762,0.183799,0.041772,327.000000,291.000000,36.000000,22.000000,0.000000,0.000000,0.390274,0.490096,0.300762,0.183799,0.041772,327.000000,291.000000,36.000000,22.000000,0.000000,0.000000:
// measure 0
0000
1001
1000
0000
,  // measure 1
0001
0000
1000
0000
,  // measure 2
0100
0110
0001
0010
,  // measure 3
0100
0000
0000
0000
1000
0000
0000
0000
0010
0000
0000
0000
0110
0000
0000
0110
,  // measure 4
0000
0110
0100
0000
0010
0000
0001
0000
,  // measure 5
0010
1000
0100
1000
,  // measure 6
0010
0000
0100
0000
0001
0000
0010
0100
,  // measure 7
1000
0100
0020
0000
0000
0000
0031
0000
,  // measure 8
0100
0000
0101
0100
0010
0001
0010
0100
,  // measure 9
0010
1000
0100
1000
0001
0100
1000
0100
,  // measure 10
0001
0010
0011
0000
0010
0000
0001
0000
,  // measure 11
0010
1000
0010
0001
,  // measure 12
0100
0000
0001
1000
0001
1000
2002
0000
,  // measure 13
0000
0000
3003
0010
0100
0010
0110
0000
,  // measure 14
0010
0000
1000
0100
1000
0000
0010
0000
,  // measure 15
0100
0000
0001
0010
0001
0000
0011
0000
,  // measure 16
0001
0000
1000
0100
0010
0000
0100
0000
,  // measure 17
1000
0020
0000
1030
,  // measure 18
0100
0000
1000
0010
1000
0000
0100
0000
,  // measure 19
0010
0000
0100
1000
0001
0000
1001
0000
,  // measure 20
0100
0000
1000
0010
0100
0000
0110
0000
,  // measure 21
0000
0000
0000
0000
0010
0000
0000
0100
0000
0000
0010
0000
1010
0000
0000
0000
,  // measure 22
0100
0000
0001
0100
0010
0000
1000
0000
,  // measure 23
0001
0000
0000
0000
2000
0000
0000
3000
0200
0000
0000
0300
1010
0000
0000
0000
,  // measure 24
0100
0000
0001
0100
0010
0000
0100
0000
,  // measure 25
0010
0000
0000
0000
1000
0000
0000
0000
0002
0000
0000
0003
0101
0000
0000
0000
,  // measure 26
0010
0000
0001
0100
1000
0000
0100
0000
,  // measure 27
0001
0000
0000
0000
0020
0000
0000
0030
0002
0000
0000
0003
0101
0000
0000
0000
,  // measure 28
0010
0000
0000
0000
0100
0000
0000
0000
0010
0000
0000
0000
1000
0000
0000
0001
,  // measure 29
0000
0000
0100
0000
0010
0000
0000
0100
0000
0000
0010
0000
0101
0000
0000
0000
,  // measure 30
0020
0000
0000
0000
0000
0030
2000
0000
3002
0000
1003
0010
2000
0000
0000
0000
,  // measure 31
3000
0000
0000
0000
0100
0000
0000
0000
0020
0000
0000
0000
0000
0000
0030
0000
0001
0000
0000
0100
0000
0000
0010
0000
1000
0000
0000
0000
0100
0000
0000
0000
,  // measure 32
0000
0000
0001
0000
0000
0000
0200
0000
2300
0000
3100
1000
0020
0000
0000
0000
,  // measure 33
2030
0000
3000
0020
0000
0030
0000
0000
0010
0000
0000
0000
0100
0000
0000
0000
0010
0000
0000
0000
1000
0000
0001
0000
1000
0000
0000
0000
0000
0000
0000
0000
,  // measure 34
1001
0010
1010
0100
,  // measure 35
1001
0100
0101
0010
,  // measure 36
1001
0100
1100
1000
,  // measure 37
1010
0000
0100
0000
0001
0001
1000
0000
,  // measure 38
0100
0010
0001
0010
,  // measure 39
0100
0000
0010
0000
0001
1000
0010
1000
,  // measure 40
0100
1000
0010
1000
0001
1000
1010
0000
,  // measure 41
1001
0000
0000
0000
1010
0000
0000
0000
2200
0000
0000
3300
1100
0000
0000
0000
,  // measure 42
0100
1000
0010
0100
,  // measure 43
0010
1000
0100
0001
,  // measure 44
0100
0010
0001
0010
,  // measure 45
0100
0000
1000
0000
0010
0100
0010
0000
,  // measure 46
0100
0001
1000
0100
,  // measure 47
0010
0001
0100
0010
,  // measure 48
0001
0010
1000
1001
,  // measure 49
1010
0000
1001
0000
0100
0001
0101
0000
,  // measure 50
0010
0100
0001
0010
,  // measure 51
1000
0100
0001
0100
,  // measure 52
0010
0001
0010
0100
,  // measure 53
0010
0000
1000
0000
0100
0010
0100
0000
,  // measure 54
1000
0001
0010
0100
,  // measure 55
1000
0100
0010
0001
,  // measure 56
0100
0010
0100
1001
,  // measure 57
0101
1001
4000
3010
,  // measure 58
0100
0010
0100
0001
,  // measure 59
0010
0000
0001
0000
1000
0000
0100
1000
,  // measure 60
0010
1000
0001
1000
0010
1000
0100
1000
,  // measure 61
0010
1000
2000
0000
0001
0000
3000
0000
;
