#VERSION:0.83;
#TITLE:Before You;
#SUBTITLE:;
#ARTIST:Mark Johns;
#TITLETRANSLIT:;
#SUBTITLETRANSLIT:;
#ARTISTTRANSLIT:;
#GENRE:Indie Pop;
#ORIGIN:;
#CREDIT:;
#BANNER:b4u-bn.png;
#BACKGROUND:b4u-bg.png;
#PREVIEWVID:;
#JACKET:b4u-jacket.png;
#CDIMAGE:b4u-jacket_alt.png;
#DISCIMAGE:;
#LYRICSPATH:;
#CDTITLE:cdtitle.png;
#MUSIC:b4 u.ogg;
#OFFSET:0.000000;
#SAMPLESTART:46.701000;
#SAMPLELENGTH:12.000000;
#SELECTABLE:YES;
#BPMS:0.000=61.000;
#STOPS:;
#DELAYS:;
#WARPS:;
#TIMESIGNATURES:0.000=4=4;
#TICKCOUNTS:0.000=4;
#COMBOS:0.000=1;
#SPEEDS:0.000=1.000=0.000=0;
#SCROLLS:0.000=1.000;
#FAKES:;
#LABELS:0.000=Song Start;
#BGCHANGES:;
#KEYSOUNDS:;
#ATTACKS:
;

//---------------dance-single - ----------------
#NOTEDATA:;
#CHARTNAME:;
#STEPSTYPE:dance-single;
#DESCRIPTION:;
#CHARTSTYLE:;
#DIFFICULTY:Easy;
#METER:3;
#RADARVALUES:0.141805,0.143513,0.071757,0.227229,0.000000,83.000000,77.000000,6.000000,19.000000,0.000000,0.000000,0.000000,0.000000,0.000000,0.141805,0.143513,0.071757,0.227229,0.000000,83.000000,77.000000,6.000000,19.000000,0.000000,0.000000,0.000000,0.000000,0.000000;
#CREDIT:;
#NOTES:
0000
0000
0000
0000
,
0000
0000
0000
0000
2000
0000
0000
0000
0000
0000
0000
3000
1000
0000
0000
0000
,
0010
0000
0000
0000
0200
0000
0000
0000
0000
0000
0000
0300
0002
0000
0000
0003
,
0010
0000
0002
0000
2003
0000
0000
0000
0000
0000
0000
3000
0100
0000
0000
0000
,
1100
0000
0000
0000
2000
0000
0000
0000
0100
0000
0000
3000
1000
0000
1000
0000
,
0010
0000
0000
0000
0020
0000
0000
0000
1000
0000
0000
0030
0100
0000
0010
0000
,
0100
0000
0000
0000
0200
0000
0000
0000
0001
0000
0000
0300
0020
0000
0030
0000
,
0100
0000
0000
0000
0002
0000
0000
0000
0010
0000
0000
0003
0100
0000
0000
0000
,
0101
0000
0000
0000
0002
0000
0000
0000
0100
0000
0000
0003
0020
0000
0030
0000
,
0001
0000
0000
0000
2000
0000
0000
0000
0010
0000
0000
3000
0100
0000
0100
0000
,
0100
0000
0000
0000
0020
0000
0000
0000
0001
0000
0000
0030
0010
0000
0000
0000
,
0100
0000
0002
0000
1000
0003
0100
0000
,
1100
0100
1000
0001
,
0100
0010
0001
0010
,
0011
0010
1000
0010
,
0100
1000
0100
0010
,
0110
0100
0001
0010
,
0001
0000
1000
0000
0010
0000
1000
1000
,
2010
0100
3200
0010
,
0320
0001
0032
0010
,
0003
0000
0000
0000
;

//---------------dance-single - ----------------
#NOTEDATA:;
#CHARTNAME:;
#STEPSTYPE:dance-single;
#DESCRIPTION:;
#CHARTSTYLE:;
#DIFFICULTY:Beginner;
#METER:1;
#RADARVALUES:0.078591,0.107635,0.035878,0.263108,0.000000,46.000000,43.000000,3.000000,22.000000,0.000000,0.000000,0.000000,0.000000,0.000000,0.078591,0.107635,0.035878,0.263108,0.000000,46.000000,43.000000,3.000000,22.000000,0.000000,0.000000,0.000000,0.000000,0.000000;
#CREDIT:;
#NOTES:
0000
0000
0000
0000
,
0000
0020
0000
0030
,
1000
0000
0000
0000
2000
0000
0000
0000
0000
0000
0000
0000
3002
0000
0000
0003
,
0100
0200
0000
0300
,
0010
0020
0000
0030
,
0100
0002
0000
0003
,
0010
0000
0020
0000
0000
0000
0230
0300
,
1000
2000
0000
3000
,
0100
0000
2000
0000
0000
0000
3020
0030
,
0100
0000
0200
0000
0010
0000
0310
0010
,
0010
2000
0000
3000
,
0001
0002
0000
0003
,
0011
0000
1000
0000
,
0100
0000
0010
0000
,
0110
0000
0010
0000
,
0100
0000
1000
0000
,
1200
0000
2300
0000
,
3020
0000
0230
0000
,
0302
0000
0023
0000
,
0032
0000
0203
0000
,
0300
0000
0000
0000
;

//---------------dance-single - ----------------
#NOTEDATA:;
#CHARTNAME:;
#STEPSTYPE:dance-single;
#DESCRIPTION:;
#CHARTSTYLE:;
#DIFFICULTY:Medium;
#METER:5;
#RADARVALUES:0.290443,0.275067,0.215270,0.358783,0.239189,170.000000,152.000000,18.000000,30.000000,0.000000,0.000000,0.000000,0.000000,0.000000,0.290443,0.275067,0.215270,0.358783,0.239189,170.000000,152.000000,18.000000,30.000000,0.000000,0.000000,0.000000,0.000000,0.000000;
#CREDIT:;
#NOTES:
0000
0000
0000
0010
,
0001
0000
0200
0302
2003
3020
0130
0000
,
0010
0000
0000
0000
0020
0000
2030
0000
3002
0000
0023
0000
0230
0000
0000
0300
,
0010
0000
0002
0000
2003
0000
0010
0020
0000
0000
0030
3000
0100
0000
0000
0000
,
0110
0000
0010
0100
0020
0000
2030
0000
3200
0000
0320
0000
0130
0000
0010
0000
,
0110
0000
0010
0001
0020
0000
0230
0000
2300
0000
3200
0000
1300
0000
0010
0000
,
1010
0000
0100
0010
0200
0000
0302
0000
2003
0000
3020
0000
0230
0000
0300
0000
,
0110
0000
0100
0010
0200
0000
0302
0000
0023
0000
2030
0000
3100
0000
0000
0000
,
0110
0000
0001
1000
0010
0100
0100
0000
,
1010
0000
1000
0001
0100
0000
0010
0000
0100
0000
0001
0000
0100
0000
0100
0000
,
0110
0000
0001
1000
0001
0000
0010
0000
0100
0000
0010
0000
0001
0000
0000
0000
,
0011
0000
0010
0001
0010
0000
0100
0000
1000
0000
1000
0000
0100
0000
0100
1000
,
1100
0000
0000
0000
0000
0000
0000
0000
0110
0000
0000
0000
0000
0000
0010
0000
0100
0000
0000
1000
0000
0000
0000
0000
0001
0000
0000
0000
0000
0000
0010
0000
,
0100
0000
0000
0010
0000
0000
1000
0000
0010
0000
0000
1000
0000
0000
1000
0000
0001
0000
0000
0100
0000
0000
0010
0000
0100
0000
0000
0000
0100
0000
0010
0000
,
0110
0000
0000
0000
0000
0000
0000
0000
1010
0000
0000
0000
0000
0000
0100
0000
0001
0000
0000
0100
0000
0000
0000
0000
0010
0000
0000
0000
0000
0000
0000
0000
,
0100
0000
0000
1000
0000
0000
0100
0000
0001
0000
0000
0010
0000
0000
0001
0000
0100
0000
0000
0010
0000
0000
0100
0000
1000
0000
0000
0000
0100
0000
0001
0000
,
0101
0000
0000
0001
0000
0000
0001
0000
1001
1000
0000
0100
0100
0000
0000
0000
,
1100
0000
1000
0000
0000
0010
0000
0000
1010
0000
0000
0100
0000
0100
0001
0010
,
0001
0000
0000
0000
0000
0000
0000
0000
0100
0000
0000
0010
0000
0000
1000
0000
1010
0000
0000
0100
0000
0000
0000
0000
0001
0000
0000
0000
0000
0000
0000
0000
,
0001
0000
0000
0000
0000
0000
0000
0000
1000
0000
0000
0100
0000
0000
0010
0000
0110
0000
0000
0000
0000
0000
0000
0000
0100
0000
0000
0000
0200
0000
0000
0000
,
0300
0000
0000
0000
;

//---------------dance-single - ----------------
#NOTEDATA:;
#CHARTNAME:;
#STEPSTYPE:dance-single;
#DESCRIPTION:;
#CHARTSTYLE:;
#DIFFICULTY:Hard;
#METER:8;
#RADARVALUES:0.377576,0.358783,0.203310,0.203310,0.538175,221.000000,204.000000,17.000000,17.000000,0.000000,0.000000,0.000000,0.000000,0.000000,0.377576,0.358783,0.203310,0.203310,0.538175,221.000000,204.000000,17.000000,17.000000,0.000000,0.000000,0.000000,0.000000,0.000000;
#CREDIT:;
#NOTES:
// measure 0
0000
0000
0000
0001
,  // measure 1
0001
0000
0000
0010
0001
0010
0100
0010
0001
0000
1000
0000
0001
0000
1000
0000
,  // measure 2
0010
0000
0100
0000
0002
0000
2003
0000
3020
0000
0230
0000
2300
0000
0000
3000
,  // measure 3
0100
0000
0200
0000
0302
0000
0010
0020
0000
0000
0030
0000
0013
0000
0000
0000
,  // measure 4
1001
0000
0000
0000
0100
0000
0001
0000
0100
0000
0000
0010
0000
0000
0000
0000
1000
0000
0100
0000
0010
0000
0100
0000
1000
0000
0000
0000
0010
0000
0000
0000
,  // measure 5
0110
0000
0000
0000
0010
0000
1000
0000
0010
0000
0000
0100
0000
0000
0010
0000
0100
0000
0010
0000
0001
0000
0010
0000
1000
0000
0000
0000
1000
0000
0000
0000
,  // measure 6
1010
0000
0000
0000
0100
0000
0010
0000
1000
0000
0000
0010
0000
0000
0000
0000
1000
0000
0000
0000
0001
0000
0000
0000
0002
0000
0000
0000
0003
0000
0000
0000
,  // measure 7
0101
0000
0000
0000
0100
0000
0010
0000
0100
0000
0000
0001
0000
0000
1000
0000
0010
0000
0000
0000
0100
0000
0000
0000
0001
0000
0000
0000
1000
0000
0000
0000
,  // measure 8
1001
0000
0000
0001
0000
0000
1000
0000
0001
0000
0001
0000
1000
0000
0100
0000
2000
0000
0000
0000
3020
0000
0000
0000
0230
0000
0000
0001
0300
0000
0100
0000
,  // measure 9
0101
0000
0000
0010
0000
0000
1000
0000
0100
0000
0000
1000
0000
0000
0010
0000
0200
0000
0000
0000
0320
0000
0000
0000
1030
0000
0000
0100
0000
0000
1000
0000
,  // measure 10
0001
0000
0000
0000
0001
0000
1000
0000
0100
0000
0000
0001
0000
0000
0100
0000
0010
0000
0000
0100
0000
0000
1000
0000
0010
0000
0000
0000
0000
0000
1000
0000
,  // measure 11
1001
0001
0000
0000
0010
0100
0010
0100
0010
0000
0100
0001
1000
0000
1000
0010
,  // measure 12
1001
0000
0000
0000
0100
0000
0010
0000
0110
0000
0000
0100
0000
0000
0010
0000
1000
0000
0000
0100
0000
0000
0000
0000
1000
0000
0000
0010
0100
0000
0010
0000
,  // measure 13
0010
0000
0000
0100
0000
0000
0001
0000
0010
0000
0000
0001
0000
0000
0100
0000
0001
0000
0000
0100
0000
0000
0010
0000
0100
0000
0000
0000
0100
0000
0001
0000
,  // measure 14
0101
0000
0000
0000
0001
0000
1000
0000
1001
0000
0000
0010
0000
0000
0100
0000
0001
0000
0000
0100
0000
0000
0000
0000
0010
0000
0000
0100
0010
0000
0100
0000
,  // measure 15
0010
0000
0000
1000
0000
0000
0100
0000
1000
0000
0000
0010
0000
0000
0100
0000
0001
0000
0000
0010
0000
0000
0100
0000
1000
0000
0000
0000
0100
0000
1000
0000
,  // measure 16
1100
0000
0000
0000
1000
0000
0001
0000
0100
0000
0010
0000
1000
0000
0000
0000
1010
0000
0100
0000
0000
0000
0010
0000
0100
0000
0000
0010
0000
0000
1000
0000
,  // measure 17
1001
0100
0001
0000
1000
0001
0000
0100
0101
0000
0010
0100
0010
1000
0001
1000
,  // measure 18
0001
0000
0000
0010
0000
0000
1000
0000
0100
0000
0000
0010
0000
0000
0100
0000
0110
0000
0000
0001
0000
0000
0010
0000
0001
0000
0000
0200
0000
0000
0000
0000
,  // measure 19
0301
0000
0000
0010
0000
0000
0100
0000
0010
0000
0000
0100
0000
0000
0010
0000
2100
0000
0000
0000
0000
0000
0000
0000
0001
0000
0000
0000
0002
0000
0000
0000
,  // measure 20
3003
0000
0000
0000
;
