#TITLE:Because of You;
#SUBTITLE:;
#ARTIST:Ne-Yo;
#TITLETRANSLIT:;
#SUBTITLETRANSLIT:;
#ARTISTTRANSLIT:;
#GENRE:R&B;
#CREDIT:;
#BANNER:Because of You-bn.png;
#BACKGROUND:Because of You-bg.png;
#LYRICSPATH:;
#CDTITLE:cdtitle.png;
#MUSIC:Because of You.ogg;
#OFFSET:-0.004000;
#SAMPLESTART:55.095001;
#SAMPLELENGTH:17.455000;
#SELECTABLE:YES;
#BPMS:0.000000=110.000000
;
#STOPS:
;
#BGCHANGES:
;
#KEYSOUNDS:;
#ATTACKS:;

//---------------dance-single - ----------------
#NOTES:
     dance-single:
     X-Scale 10:
     Hard:
     7:
     0.405014,0.405536,0.038970,0.340991,0.043842,291.000000,287.000000,4.000000,35.000000,0.000000,0.000000,0.405014,0.405536,0.038970,0.340991,0.043842,291.000000,287.000000,4.000000,35.000000,0.000000,0.000000:
// measure 0
0000
0000
0000
0000
,  // measure 1
0000
0000
0000
0000
,  // measure 2
1001
1000
0001
0100
0010
0100
0001
0010
,  // measure 3
0100
1000
0001
1000
0010
0100
0001
1000
,  // measure 4
0100
0010
0100
2000
0000
3002
1000
0000
,  // measure 5
0013
0001
1000
0200
0000
0310
0100
1000
,  // measure 6
1100
1000
0001
0100
1000
0100
0001
1000
,  // measure 7
0001
0100
0010
1000
0001
0010
0100
1000
,  // measure 8
0002
0000
0010
0000
0023
0000
0130
0200
,  // measure 9
1000
0000
0010
0310
0100
1000
0001
1000
,  // measure 10
1010
0001
1000
0100
0010
0100
1000
0001
,  // measure 11
0000
0100
0001
1000
0010
0100
0002
0000
,  // measure 12
0013
0001
1000
0100
0010
0100
1000
0001
,  // measure 13
0100
0010
0100
0001
1000
0100
2000
0000
,  // measure 14
3001
1000
0010
0100
0010
1000
0001
0010
,  // measure 15
0000
0100
0010
0001
1000
0001
0200
0000
,  // measure 16
0310
0100
1000
0100
0010
1000
0001
0010
,  // measure 17
0100
0000
0010
0100
1000
0001
2000
0000
,  // measure 18
3001
0000
1000
0100
0001
0100
0010
0001
,  // measure 19
1000
0000
0001
0100
1000
0001
0010
1000
,  // measure 20
0001
0000
0100
0020
0000
2030
0001
3000
,  // measure 21
1000
0000
0010
1000
0001
0010
1000
0010
,  // measure 22
0002
0000
1003
0001
0100
0010
0100
0001
,  // measure 23
1000
0000
0010
0100
1000
0100
0010
0100
,  // measure 24
0002
0000
0010
0000
2003
0000
0100
0010
,  // measure 25
3020
1000
0001
0130
,  // measure 26
0110
0000
0100
0000
0001
0010
0100
0010
,  // measure 27
0001
0000
1000
0010
0100
0010
1000
0002
,  // measure 28
0000
0000
1003
0200
0000
0310
0020
0000
,  // measure 29
0031
0000
0010
0100
1000
0001
1000
0100
,  // measure 30
0200
0300
0010
0100
1000
0001
1000
0020
,  // measure 31
0001
0000
1030
0010
0100
0001
0010
0200
,  // measure 32
0000
0000
0320
0000
0000
0030
0002
0000
0003
0000
1000
0000
0100
0000
0001
0000
,  // measure 33
0020
0000
0230
0000
0302
0000
1003
2000
,  // measure 34
0100
0000
3100
0000
1000
0000
0001
0000
1000
0000
0000
0100
0010
0000
0100
0000
,  // measure 35
1000
0000
0001
0000
0100
0000
0010
0000
0100
0000
0000
0001
0010
0000
0001
0000
,  // measure 36
1000
0000
0100
0000
0010
0000
0100
0000
1000
0000
0000
0001
1000
0000
0100
0000
,  // measure 37
0001
0000
0100
0000
1000
0000
0001
0000
0100
0000
0000
0010
0100
0000
0010
0000
,  // measure 38
1000
0000
0001
0000
0100
0000
0010
0000
1000
0000
0000
0100
0010
0000
0100
0000
,  // measure 39
1000
0000
0010
2000
0001
0000
3100
1000
,  // measure 40
0002
0000
0000
0000
0100
0000
0000
0000
1003
0000
0000
0100
0010
0000
0100
0000
,  // measure 41
1000
0010
0001
0100
2000
0000
3100
0010
,  // measure 42
0002
0000
0000
0000
0010
0000
0000
0000
1003
0000
0000
0001
0100
0000
0001
0000
,  // measure 43
1000
0000
0010
0000
0001
0000
0010
0000
1000
0000
0000
0100
0010
0000
0100
0000
,  // measure 44
2000
0000
0000
0000
0000
0000
3000
0002
0000
0000
0000
0000
0000
0000
0000
0000
,  // measure 45
0000
0003
0020
0000
0000
0000
0000
0000
0000
0000
0000
0000
0000
0000
0000
0000
,  // measure 46
0000
0030
0000
0000
;

//---------------dance-single - ----------------
#NOTES:
     dance-single:
     X-Scale 7:
     Medium:
     5:
     0.322898,0.337946,0.048713,0.477387,0.004871,232.000000,227.000000,5.000000,49.000000,0.000000,1.000000,0.322898,0.337946,0.048713,0.477387,0.004871,232.000000,227.000000,5.000000,49.000000,0.000000,1.000000:
0000
0000
0000
0000
,
0000
0000
0000
0000
,
0011
0000
0010
0000
0001
0000
1000
0020
,
0130
0020
0001
0000
0100
0030
0010
1000
,
2000
0000
3100
0010
0000
0001
0000
0000
,
1000
0000
0001
0100
0000
0010
0100
0010
,
1000
0000
0001
0000
1000
0100
0010
0002
,
1000
0000
0013
0200
0010
0000
1000
0300
,
1100
0000
0000
0000
1001
0000
0000
0011
,
0000
0000
0001
0010
0100
1000
0010
0100
,
0001
0000
1000
0000
0100
1000
0001
1000
,
0100
0000
0010
0000
0100
1000
0002
0000
,
0103
0000
0010
1000
0000
0001
0100
0000
,
0010
0000
1000
0000
0001
0010
0002
0000
,
0103
0000
0010
0000
1000
0100
0010
0100
,
1000
0000
0001
0000
0100
0001
2000
0000
,
3010
0000
1000
0001
0000
0100
0010
0000
,
1000
0000
0001
0010
1000
0010
0002
0000
,
0203
1000
0001
1000
,
0310
0100
0001
0000
0010
0100
1000
0001
,
1000
0000
0100
0010
0000
0001
1000
0000
,
0010
0000
0100
0000
0001
0010
1000
0010
,
0002
0000
0103
0000
0010
0100
0001
0100
,
0010
0000
1000
0000
0100
0010
0001
0010
,
0200
0000
1000
0000
2300
0000
0001
3002
,
0010
0000
1000
0000
0100
0003
0001
0000
,
1001
0000
1000
0000
0100
0010
0000
0100
,
1000
0000
0001
0000
0010
0100
1000
0002
,
0100
0000
0103
0001
0000
1000
2000
0000
,
3010
0000
1000
0010
0100
0001
0010
0100
,
1000
0000
0100
0010
0001
1000
0001
0100
,
0100
0000
0010
0100
0001
0010
0100
1000
,
0000
0001
0000
1000
0000
0100
0010
0001
,
2000
0000
3002
0000
0023
0000
0230
2300
,
0002
3000
0203
0000
0320
0000
0130
0002
,
2000
0000
3023
0000
0031
0010
1000
0001
,
0020
0000
0230
0000
2300
0000
3010
0200
,
0002
0300
2003
0000
3200
0000
0310
0200
,
2000
0300
3002
0000
0203
0000
0310
0100
,
0002
0000
0013
0200
0000
0000
1300
0001
,
0020
0000
0100
0030
0200
0000
0300
1000
,
0001
0010
1000
0010
0002
0000
1000
0000
,
0023
0000
0100
0030
0002
0000
0003
2000
,
0001
0000
0010
0000
0001
0000
3100
0010
,
0002
0000
0000
0000
0000
0000
0003
0020
0000
0000
0000
0000
0000
0000
0000
0000
,
0030
0200
0000
0000
0000
0000
0000
0000
,
0000
0300
0000
0000
;

//---------------dance-single - ----------------
#NOTES:
     dance-single:
     X-Scale 5:
     Easy:
     3:
     0.264442,0.315417,0.029228,0.340991,0.004871,190.000000,187.000000,3.000000,35.000000,0.000000,0.000000,0.264442,0.315417,0.029228,0.340991,0.004871,190.000000,187.000000,3.000000,35.000000,0.000000,0.000000:
0000
0000
0000
0000
,
0000
0000
0000
0000
,
1100
1000
0001
1000
,
0010
1000
0001
0010
,
0100
0000
1000
0001
0000
0020
0100
0000
,
0031
0000
1000
0100
0000
2000
0001
0000
,
3010
1000
0001
1000
,
0100
0010
0100
1000
,
0002
0000
0000
0003
2000
0000
3000
0020
,
0000
0000
0000
0000
1030
0010
0100
0010
,
1000
0000
0100
0000
0010
0100
1000
0100
,
0010
0000
0001
0000
1000
0001
0100
0001
,
1000
0000
0010
0100
0000
0002
1000
0000
,
0013
1000
0001
1000
,
1010
0000
0100
0000
1000
0001
0010
0001
,
1000
0000
0100
0000
0010
0100
1000
0001
,
1000
0000
0010
0100
0000
0020
1000
0000
,
0230
0000
0301
1000
,
2000
0010
0000
0010
,
3001
0000
1000
0000
0100
0010
0100
1000
,
0200
0010
0000
0010
,
1300
0000
0001
0000
1000
0001
0100
0010
,
0200
0000
0001
0000
0310
0100
0001
0000
,
0010
0000
0100
0000
1000
0001
0010
0001
,
1000
0000
0100
0000
0010
0000
0001
1000
,
0001
0010
0100
0010
,
0102
0000
1000
0000
0000
0000
1003
0100
,
0200
0000
0010
0000
0000
0000
0310
0002
,
0000
0003
1000
0020
0030
0200
0001
0000
,
0300
0000
0001
0000
1000
0100
0010
0100
,
2000
0000
0001
0000
0000
0000
3001
0010
,
0200
0000
1000
0000
0000
0000
1300
0020
,
0030
2000
3000
0002
0003
0010
0100
1000
,
0002
0000
2003
0000
3200
0000
0310
0002
,
0000
0003
0010
0000
0100
0000
0010
0100
,
1000
0000
0001
0000
1000
0000
0100
0020
,
0000
0000
0031
0000
0010
0000
0100
0010
,
0001
0000
1000
0000
0010
0000
1000
0002
,
0000
0000
0103
0000
0010
0000
0100
0010
,
1000
0000
0100
0020
0000
0000
0001
0000
,
0230
0000
0000
0300
2000
0000
3000
0002
,
0000
0000
0100
0000
0003
0000
0100
0001
,
0020
0000
0000
0030
0200
0000
0300
2000
,
0000
0010
0000
3010
,
1000
0000
0000
0000
0000
0000
0100
0000
0000
0000
0000
2000
,
0000
0000
0000
0000
,
0000
3000
0000
0000
;

//---------------dance-single - ----------------
#NOTES:
     dance-single:
     X-Scale 1:
     Beginner:
     1:
     0.112736,0.128602,0.009743,0.000000,0.000000,81.000000,80.000000,1.000000,0.000000,0.000000,0.000000,0.112736,0.128602,0.009743,0.000000,0.000000,81.000000,80.000000,1.000000,0.000000,0.000000,0.000000:
0000
0000
0000
0000
,
0000
0000
0000
0000
,
0001
0000
0000
0000
,
0010
0000
0000
0000
,
0100
0000
0000
0000
,
1000
0000
0000
0000
,
0001
0000
0000
0000
,
0010
0000
0000
0000
,
0100
0000
0000
0000
,
1000
0000
0000
0000
,
0001
0000
0100
0000
,
0001
0000
0100
0000
,
0010
0000
0100
0000
,
0010
0000
0100
0000
,
0001
0000
1000
0000
,
0001
0000
1000
0000
,
0100
0000
0010
0000
,
0100
0000
0010
0000
,
0001
0000
0010
0000
,
0100
0000
1000
0000
,
0001
0000
0100
0000
,
0010
0000
1000
0000
,
0010
0000
1000
0000
,
0100
0000
0010
0000
,
0001
0000
1000
0000
,
0001
0000
1000
0000
,
1001
0000
0001
0000
,
1000
0000
0100
0000
,
0010
0000
0100
0000
,
1000
0000
0001
0000
,
0100
0000
0010
0000
,
0100
0000
0001
0000
,
0010
0000
0100
0000
,
0010
0000
0001
0000
,
0100
0010
0100
0000
,
0001
0000
1000
0000
,
0001
0100
0001
0000
,
0010
0000
0100
0000
,
1000
0100
1000
0000
,
0001
0000
1000
0000
,
0100
0000
0010
0000
,
0001
0000
1000
0000
,
0001
0000
0010
0000
,
0100
0000
1000
0000
,
0001
0000
0000
0000
;

//---------------dance-single - DANCERUSH Special----------------
#NOTES:
     dance-single:
     X-Scale 11:
     Challenge:
     8:
     0.350734,0.383006,0.165624,0.438417,0.009743,252.000000,235.000000,17.000000,45.000000,12.000000,0.000000,0.350734,0.383006,0.165624,0.438417,0.009743,252.000000,235.000000,17.000000,45.000000,12.000000,0.000000:
// measure 0
0000
0000
0000
0000
,  // measure 1
0000
0000
0000
0000
,  // measure 2
1000
0001
0100
0001
,  // measure 3
1000
0100
0010
0100
,  // measure 4
1000
0000
0001
0200
0000
0320
0001
0000
,  // measure 5
1030
0000
0001
1000
0100
0001
0010
2000
,  // measure 6
0100
0000
3001
1000
0100
0001
0010
2000
,  // measure 7
0100
0000
3001
0002
0100
0000
0013
0000
,  // measure 8
00LL
0000
MMMM
0000
L0L0
0000
MMMM
0020
,  // measure 9
1000
0000
0001
0000
0130
0010
1000
0001
,  // measure 10
1001
0000
0100
0000
1000
0010
0100
0001
,  // measure 11
0101
0000
0100
0000
0010
0100
1000
0100
,  // measure 12
0101
0000
0001
2000
0000
3200
0001
0000
,  // measure 13
1300
0100
0001
0100
0010
0001
2000
0000
,  // measure 14
3010
0000
1000
0000
0001
0010
0100
1000
,  // measure 15
1100
0000
1000
0000
0001
0100
0010
0100
,  // measure 16
0101
0000
0001
2000
0000
3200
0001
0000
,  // measure 17
1300
0000
0001
0000
1000
0010
0100
0000
,  // measure 18
0120
0001
1000
0001
,  // measure 19
0130
0010
1000
0001
0010
0100
0010
0001
,  // measure 20
0200
1000
0010
1000
,  // measure 21
0301
0100
0010
0100
0001
0010
1000
0010
,  // measure 22
0002
0000
0010
0000
0103
0001
1000
0100
,  // measure 23
0010
0000
0110
0000
0100
1000
0001
0010
,  // measure 24
0200
0000
0001
0000
2300
0000
0010
0001
,  // measure 25
3002
0000
0010
0000
1000
0003
L00L
0000
,  // measure 26
1001
1000
0010
0100
0001
1000
0010
0200
,  // measure 27
1000
0000
0301
0100
0010
0100
0001
0020
,  // measure 28
1000
0000
0031
0010
1000
0100
0001
0000
,  // measure 29
2000
0100
3002
0100
,  // measure 30
1003
0001
0010
0100
1000
0001
0010
0200
,  // measure 31
0001
0000
1300
MMMM
1000
0001
0100
0020
,  // measure 32
0001
0230
1000
0302
0013
0001
1000
0100
,  // measure 33
0010
0011
0001
1001
,  // measure 34
2000
0000
3200
0000
0320
0000
0031
0200
,  // measure 35
1000
0000
0010
0000
0001
0000
0310
0100
,  // measure 36
0002
0000
0023
0000
0230
0000
1300
0020
,  // measure 37
0001
0000
0100
0000
1000
0000
0130
0010
,  // measure 38
2000
0000
3200
0000
0320
0000
0031
0200
,  // measure 39
1000
0000
0010
0000
0001
0000
0310
0100
,  // measure 40
0002
0000
0100
0000
2003
0000
0010
3002
,  // measure 41
1000
0000
0100
0000
0010
0003
00LL
0000
,  // measure 42
0002
0000
0010
0000
2003
0000
0100
3002
,  // measure 43
1000
0000
0010
0000
0100
0003
0L0L
0000
,  // measure 44
1000
0000
0000
0000
0000
0000
0000
0000
0000
0000
0000
0000
0000
0001
0000
0000
0000
0000
0000
0000
0000
0000
0000
2002
,  // measure 45
0000
0000
0000
0000
,  // measure 46
0000
0000
0000
3003
L00L
0000
0000
0000
0000
0000
0000
0000
0000
0000
0000
0000
;
