#TITLE:Baller;
#SUBTITLE:;
#ARTIST:Abor & Tynna;
#TITLETRANSLIT:;
#SUBTITLETRANSLIT:;
#ARTISTTRANSLIT:;
#GENRE:Dance Pop;
#CREDIT:;
#BANNER:Baller-bn.png;
#BACKGROUND:Baller-bg.png;
#LYRICSPATH:;
#CDTITLE:cdtitle.png;
#MUSIC:Baller.ogg;
#OFFSET:0.105000;
#SAMPLESTART:0.085000;
#SAMPLELENGTH:13.940000;
#SELECTABLE:YES;
#DISPLAYBPM:138.000000;
#BPMS:0.000000=138.000000
,1.000000=276.000000
,3.000000=138.000000
,33.000000=276.000000
,35.000000=138.000000
,141.000000=276.000000
,143.000000=138.000000
,165.000000=276.000000
,167.000000=138.000000
,229.000000=276.000000
,231.000000=138.000000
;
#STOPS:1.000000=0.109000,
1.500000=0.109000,
2.000000=0.109000,
2.500000=0.109000,
33.000000=0.109000,
33.500000=0.109000,
34.000000=0.109000,
34.500000=0.109000,
141.000000=0.109000,
141.500000=0.109000,
142.000000=0.109000,
142.500000=0.109000,
165.000000=0.109000,
165.500000=0.109000,
166.000000=0.109000,
166.500000=0.109000,
229.000000=0.108696,
229.500000=0.108696,
230.000000=0.108696,
230.500000=0.108696
;
#BGCHANGES:0.500=Baller.avi=1.000=0=0=0=StretchNoLoop====,
99999=-nosongbg-=1.000=0=0=0 // don't automatically add -songbackground-
;
#KEYSOUNDS:;
#ATTACKS:;

//---------------dance-single - ----------------
#NOTES:
     dance-single:
     X-Scale 2:
     Beginner:
     1:
     0.129419,0.140936,0.000000,0.000000,0.000000,92.000000,92.000000,0.000000,0.000000,0.000000,0.000000,0.129419,0.140936,0.000000,0.000000,0.000000,92.000000,92.000000,0.000000,0.000000,0.000000,0.000000:
// measure 0
0000
0000
0000
0001
,  // measure 1
0000
1000
0000
0001
,  // measure 2
0000
1000
0000
0100
,  // measure 3
0000
0010
0000
0100
,  // measure 4
0000
0010
0000
0001
,  // measure 5
0000
0100
0000
0001
,  // measure 6
0000
0100
0000
0001
,  // measure 7
0000
1000
0000
0001
,  // measure 8
0000
0000
0000
1000
,  // measure 9
0000
0100
0000
1000
,  // measure 10
0000
0100
0000
0010
,  // measure 11
0000
0001
0000
0010
,  // measure 12
0000
0001
0000
1000
,  // measure 13
0000
0010
0000
1000
,  // measure 14
0000
0010
0000
0100
,  // measure 15
0000
0001
0000
0100
,  // measure 16
0000
0001
0000
1000
,  // measure 17
0000
0000
0000
0001
,  // measure 18
0000
0000
0000
0100
,  // measure 19
0000
0000
0000
0001
,  // measure 20
0000
0000
0000
1000
,  // measure 21
0000
0000
0000
0010
,  // measure 22
0000
0000
0000
1000
,  // measure 23
0000
0000
0000
0001
,  // measure 24
0000
0000
0000
1000
,  // measure 25
0000
0000
0000
0100
,  // measure 26
0000
0000
0000
0010
,  // measure 27
0000
0000
0000
0100
,  // measure 28
0000
0000
0000
1000
,  // measure 29
0000
0000
0000
0001
,  // measure 30
0000
0000
0000
1000
,  // measure 31
0000
0000
0000
0100
,  // measure 32
0000
0000
0000
0000
,  // measure 33
0000
0000
0000
1000
,  // measure 34
0000
0000
0000
0001
,  // measure 35
0000
0000
0000
1000
,  // measure 36
0000
0001
0000
0100
,  // measure 37
0000
0001
0000
1000
,  // measure 38
0000
0001
0000
0100
,  // measure 39
0000
0001
0000
1000
,  // measure 40
0000
0001
0000
0010
,  // measure 41
0000
0000
0000
0001
,  // measure 42
0000
1000
0000
0100
,  // measure 43
0000
1000
0000
0001
,  // measure 44
0000
0100
0000
0001
,  // measure 45
0000
1000
0000
0010
,  // measure 46
0000
1000
0000
0001
,  // measure 47
0000
0010
0000
0001
,  // measure 48
0000
1000
0000
0010
,  // measure 49
0000
1000
0000
0001
,  // measure 50
0000
0010
0000
0001
,  // measure 51
0000
1000
0000
0001
,  // measure 52
0000
0100
0000
0001
,  // measure 53
0000
1000
0000
0100
,  // measure 54
0000
0010
0000
0001
,  // measure 55
0000
0010
0000
0100
,  // measure 56
0000
1000
0000
0001
,  // measure 57
0000
1000
0000
0000
;

//---------------dance-single - ----------------
#NOTES:
     dance-single:
     X-Scale 6:
     Easy:
     4:
     0.303853,0.341201,0.049235,0.019694,0.000000,216.000000,211.000000,5.000000,2.000000,0.000000,0.000000,0.303853,0.341201,0.049235,0.019694,0.000000,216.000000,211.000000,5.000000,2.000000,0.000000,0.000000:
// measure 0
0000
0000
0000
1000
,  // measure 1
0001
1000
0001
0100
,  // measure 2
0010
0100
0010
1000
,  // measure 3
0001
1000
0001
0010
,  // measure 4
0100
0010
0100
1000
,  // measure 5
0010
1000
0010
0100
,  // measure 6
0001
0100
0001
0010
,  // measure 7
0100
0010
0100
1000
,  // measure 8
0100
0000
0000
0001
,  // measure 9
1000
0001
0100
0001
,  // measure 10
1000
0000
0100
0000
0010
0100
1000
0000
,  // measure 11
0001
0100
0010
0100
,  // measure 12
0001
0000
0010
0000
0001
0010
0100
0000
,  // measure 13
0010
0001
0000
1000
0010
0000
1000
0000
,  // measure 14
0001
0010
0000
0001
1000
0000
0100
0010
,  // measure 15
0000
0100
1000
0000
0001
0100
0001
0000
,  // measure 16
1000
0100
1000
0001
,  // measure 17
0000
0010
0000
0100
,  // measure 18
1000
0100
0000
1000
,  // measure 19
0000
0001
0000
0100
,  // measure 20
0001
0100
0000
0001
,  // measure 21
0000
1000
0000
0010
,  // measure 22
0100
0010
0000
1000
,  // measure 23
0000
0100
0000
1000
,  // measure 24
0000
0000
0000
0001
,  // measure 25
0100
0000
0001
0000
0100
0010
0000
1000
,  // measure 26
0001
0000
0010
0000
0100
1000
0000
0001
,  // measure 27
0100
0000
0001
0000
1000
0100
0000
1000
,  // measure 28
0010
0000
1000
0000
0001
0100
0000
0001
,  // measure 29
1000
0000
0001
0000
0100
0010
0000
1000
,  // measure 30
0100
0000
1000
0000
0001
0010
0000
0001
,  // measure 31
0000
1000
0010
0000
1000
0001
0000
0000
,  // measure 32
0010
0100
1000
0000
,  // measure 33
0000
0000
0000
1001
,  // measure 34
0000
0000
0000
0110
,  // measure 35
0000
0000
0000
1001
,  // measure 36
0000
1000
0001
1000
,  // measure 37
0000
0010
0100
0010
,  // measure 38
0000
1000
0001
1000
,  // measure 39
0000
0100
0010
0001
,  // measure 40
0000
1000
0001
0100
,  // measure 41
0000
0101
0000
1100
,  // measure 42
0000
0100
1000
0001
,  // measure 43
0000
0100
0000
0010
,  // measure 44
0000
1000
0001
0100
,  // measure 45
0000
0001
0010
0100
,  // measure 46
0010
0001
0000
0010
0100
0000
1000
0000
,  // measure 47
0001
0100
0000
0010
1000
0000
0001
1000
,  // measure 48
0000
0100
0010
0000
0100
1000
0001
0000
,  // measure 49
0100
0001
1000
0001
,  // measure 50
0001
0100
0000
0100
0000
0010
1000
0000
,  // measure 51
1000
0001
0000
0001
0000
0100
0010
0000
,  // measure 52
0010
0000
0100
0000
0001
1000
0001
0000
,  // measure 53
0100
0010
0100
0001
,  // measure 54
1000
0100
0000
0100
0000
0010
0100
0000
,  // measure 55
0100
1000
0000
1000
0000
0001
0100
0000
,  // measure 56
0100
0000
0010
0000
1000
0010
2000
0000
,  // measure 57
0010
0002
0000
3003
;

//---------------dance-single - ----------------
#NOTES:
     dance-single:
     X-Scale 8:
     Medium:
     6:
     0.399510,0.396345,0.108318,0.118165,0.024618,284.000000,273.000000,11.000000,12.000000,0.000000,0.000000,0.399510,0.396345,0.108318,0.118165,0.024618,284.000000,273.000000,11.000000,12.000000,0.000000,0.000000:
// measure 0
0000
0000
0000
1001
,  // measure 1
0001
0000
0000
0000
1000
0000
0000
0010
0000
0000
1000
0000
0001
0000
0000
0000
,  // measure 2
0010
0000
0100
0000
0010
0100
1000
0000
,  // measure 3
0001
0000
0100
0000
1000
0100
0001
0000
,  // measure 4
1000
0000
0010
0000
0100
0010
1000
0000
,  // measure 5
0100
0010
0000
0010
0001
0000
1000
0000
,  // measure 6
0001
0100
0000
0100
0010
0000
1000
0000
,  // measure 7
0100
0010
0001
0000
1000
0010
0100
0000
,  // measure 8
0001
0010
0100
0000
0000
0000
1001
0000
,  // measure 9
0001
0000
0000
0000
0100
0000
0000
0001
0000
0000
1000
0000
0100
0000
0000
0000
,  // measure 10
0010
0000
0100
0000
1000
0100
0010
0000
,  // measure 11
0001
0000
1000
0000
0100
1000
0010
0000
,  // measure 12
0100
0000
0001
0000
0100
0001
1000
0000
,  // measure 13
0100
0010
0000
0010
0001
0000
1000
0000
,  // measure 14
0010
0100
0000
0100
0001
0000
0100
0001
,  // measure 15
1000
0000
0001
0100
1000
0100
0001
0000
,  // measure 16
0010
0100
1000
0100
,  // measure 17
1000
0000
0001
0000
1000
0000
0010
0100
,  // measure 18
0020
0000
1030
0000
0100
0000
0010
0100
,  // measure 19
2000
0000
3002
0000
1003
0000
0100
1000
,  // measure 20
0020
0000
0130
0000
0010
0100
0001
0000
,  // measure 21
1000
0000
0100
0000
0001
0000
1000
0010
,  // measure 22
0001
1000
0010
1000
,  // measure 23
0100
0000
0010
0001
0010
0001
0011
0000
,  // measure 24
0000
0000
0000
1001
,  // measure 25
0100
0000
1000
0000
0001
0010
0001
0000
,  // measure 26
0100
0000
0010
0000
1000
0010
1000
0000
,  // measure 27
0100
0000
0010
0000
0001
0010
0001
0000
,  // measure 28
1000
0000
0001
0000
0100
0010
0100
0000
,  // measure 29
0001
0000
1000
0000
0010
1000
0010
0000
,  // measure 30
0100
0000
0001
0000
1000
0010
1000
0001
,  // measure 31
0000
0010
0100
0000
1000
0100
0000
0000
,  // measure 32
1000
0000
0001
0000
0200
0020
0000
0330
,  // measure 33
0000
0000
0000
2002
,  // measure 34
0000
0000
3003
0220
,  // measure 35
0000
0330
0000
1001
,  // measure 36
1000
0010
1000
0000
0001
0010
0001
0000
,  // measure 37
0100
0010
0100
0000
0001
0010
0200
0000
,  // measure 38
0301
0100
1000
0000
0001
1000
0200
0000
,  // measure 39
0301
0100
0010
0000
0001
1000
0010
0000
,  // measure 40
0100
0000
0001
0000
0010
0100
1000
0000
,  // measure 41
0001
1001
0000
0110
,  // measure 42
0010
0000
0000
0000
0100
0000
0000
0001
0000
0000
0010
0000
0100
0000
0000
0000
,  // measure 43
0010
0000
0001
0000
1000
0001
0100
0000
,  // measure 44
0001
0000
1000
0000
0100
0010
0001
0000
,  // measure 45
1000
0000
0001
0000
0100
0010
1000
0000
,  // measure 46
0001
0010
0100
0000
0010
0000
0001
0000
,  // measure 47
1000
0100
0010
0000
0100
0000
1000
0001
,  // measure 48
0100
0000
0001
0000
0100
0010
1000
0000
,  // measure 49
0001
0000
0100
0010
0100
0010
0100
0000
,  // measure 50
0001
1000
0000
0010
0000
1000
0001
0000
,  // measure 51
0010
0001
0000
1000
0000
0010
1000
0000
,  // measure 52
0001
0000
0001
0000
0010
0100
1000
0000
,  // measure 53
0001
0000
0100
0000
0010
0000
0000
0010
0000
0000
0010
0000
1000
0000
0000
0000
,  // measure 54
0001
0100
0000
0001
0000
1000
0100
0000
,  // measure 55
0010
0100
0000
1000
0000
0001
0100
0000
,  // measure 56
0001
0000
0000
0000
1000
0000
0000
1000
0000
0000
1000
0000
0001
0000
0000
0000
,  // measure 57
0001
0011
1010
0000
;

//---------------dance-single - ----------------
#NOTES:
     dance-single:
     X-Scale 11:
     Hard:
     8:
     0.565503,0.567438,0.108318,0.364342,0.221559,402.000000,391.000000,11.000000,37.000000,0.000000,0.000000,0.565503,0.567438,0.108318,0.364342,0.221559,402.000000,391.000000,11.000000,37.000000,0.000000,0.000000:
// measure 0
0000
0000
0000
0000
0000
0000
0000
0000
0000
0000
0000
0000
1100
0000
0000
0100
,  // measure 1
1000
0000
0001
0000
0100
0000
0000
0001
0000
0000
1000
0000
0100
0000
0001
0000
,  // measure 2
0100
1000
0001
0100
0100
0100
0100
0010
,  // measure 3
1000
0000
0001
0000
0010
0000
0000
0010
0100
0000
1000
0000
0010
0000
0000
0010
,  // measure 4
0100
0001
0100
1000
0100
0001
2000
0000
,  // measure 5
3100
0010
1000
0010
0001
0100
0020
0000
,  // measure 6
0031
0000
0010
0000
1000
0000
0001
0000
0100
0000
0001
0000
1000
0000
0000
0100
,  // measure 7
0010
0000
0001
0000
1000
0000
0000
0010
0100
0000
0001
0000
0010
0000
1000
0000
,  // measure 8
0010
0000
0001
0000
0000
0000
0000
0000
0000
0000
0000
0000
1001
0000
1000
0001
,  // measure 9
1000
0000
0010
0000
1000
0000
0000
0100
0010
0000
0100
0000
1000
0000
0001
0100
,  // measure 10
0001
0000
1000
0000
0001
0000
0000
0100
0010
0000
0100
0000
0001
0000
0010
1000
,  // measure 11
0010
0000
0001
0000
1000
0000
0000
0100
1000
0000
0001
0000
0100
0000
1000
0100
,  // measure 12
0001
1000
0010
0001
1000
0100
0002
0000
,  // measure 13
1003
0001
0100
1000
0001
0010
2000
0000
,  // measure 14
3100
0000
0001
0000
1000
0000
0010
0000
0100
0000
1000
0000
0010
0000
0000
0010
,  // measure 15
0100
0000
0001
0000
1000
0000
0001
0100
0001
0000
0010
0000
0100
0000
0000
0100
,  // measure 16
1000
0000
0001
0000
0100
0000
0000
0100
0010
0000
1000
0000
0100
0000
0000
0000
,  // measure 17
1000
0000
0001
0000
1000
0000
0100
0010
,  // measure 18
0002
0000
1003
0000
0010
0000
0100
0010
,  // measure 19
2000
3000
0002
0000
1003
0100
0010
0100
,  // measure 20
2000
0000
3001
0000
0100
0000
0001
0100
,  // measure 21
1000
0000
0001
0010
1000
0000
0100
0010
,  // measure 22
0002
0000
0103
0000
0010
1000
0001
0010
,  // measure 23
0200
0000
0301
0100
0100
0100
0100
1000
,  // measure 24
0001
1000
0200
0000
0300
0000
1002
0000
,  // measure 25
0100
0000
1003
0000
0001
0020
0100
0000
,  // measure 26
0031
0000
1000
0100
0001
0100
2000
0000
,  // measure 27
0001
0000
3100
1000
0001
0200
1000
0000
,  // measure 28
0301
0000
1000
0010
0100
0001
0020
0000
,  // measure 29
1000
0000
0031
0000
1000
0200
0010
0000
,  // measure 30
1300
0000
0100
1000
0001
2000
3000
0020
,  // measure 31
0030
0100
0002
0003
0010
0200
0000
0300
,  // measure 32
1100
0000
1000
0001
0100
0020
0000
0030
,  // measure 33
0000
0000
0000
0000
0000
0000
1002
2000
,  // measure 34
0000
0000
0000
3003
0000
0001
0200
0020
,  // measure 35
0000
0000
0330
0000
1000
0000
0001
0000
0001
0000
0001
0000
1001
0000
0100
0001
,  // measure 36
1000
0000
0001
0000
1000
0000
0000
0100
0010
0000
0100
0000
1000
0000
0001
0100
,  // measure 37
0001
0000
0010
0000
0100
0000
0000
1000
0100
0000
1000
0000
0001
0000
0100
0010
,  // measure 38
1000
0000
0001
0000
0100
0000
0000
1000
0100
0000
0001
0000
1000
0000
0100
0010
,  // measure 39
0100
0000
1000
0000
0001
0000
0000
0100
0001
0000
1000
0000
0100
0000
0010
0100
,  // measure 40
1000
0000
0001
0000
0100
0000
1000
0000
0001
0000
0010
0000
1000
0000
0000
0010
,  // measure 41
1000
0000
0001
0000
1001
0000
0000
0000
0000
0000
0000
0000
1100
0000
0000
0100
,  // measure 42
1000
0000
0001
0000
1000
0000
0000
0100
0001
0000
0100
0000
0010
0000
0001
0100
,  // measure 43
0001
0000
1000
0000
0010
0000
0100
0010
0100
0000
0001
0000
0100
0000
0000
0100
,  // measure 44
0001
0000
1000
0000
0010
0000
0000
0100
0010
0000
1000
0000
0001
0000
0000
0010
,  // measure 45
0100
0000
0010
0000
0001
0000
1000
0000
0100
0000
0001
0000
0100
0000
0000
0100
,  // measure 46
0010
0000
0001
0000
1000
0000
0001
0000
0010
0000
0100
0000
1000
0000
0000
1000
,  // measure 47
0001
0000
0100
0000
0001
0000
0010
0100
0010
0000
0001
0000
1000
0000
0100
1000
,  // measure 48
0001
0000
0100
0000
1000
0000
0100
0000
0001
0000
1000
0000
0100
0000
0000
0100
,  // measure 49
0010
0001
1000
0100
0100
0100
1100
0000
,  // measure 50
0100
2000
0000
3002
0000
0103
0200
0000
,  // measure 51
0301
0000
0020
0000
0000
0000
0032
0000
0000
0000
1003
0000
1000
0000
0000
1000
,  // measure 52
0001
0000
1000
0000
0010
0000
0000
0010
0100
0000
0001
0000
1000
0000
0000
1000
,  // measure 53
0100
0010
0001
0100
0100
0100
0200
0000
,  // measure 54
1300
0200
0000
0302
0000
1003
2000
0000
,  // measure 55
3100
0000
0020
0000
0000
0000
2030
0000
0000
0000
3010
0000
0010
0000
0000
0100
,  // measure 56
0010
0000
0001
0000
1000
0000
0000
0010
1000
0000
0001
0000
0100
0000
0000
0100
,  // measure 57
0001
1000
1001
0001
1001
1000
0000
0000
;
