#VERSION:0.83;
#TITLE:BagBak;
#SUBTITLE:;
#ARTIST:Vince Staples;
#TITLETRANSLIT:;
#SUBTITLETRANSLIT:;
#ARTISTTRANSLIT:;
#GENRE:Alternative Hip-Hop;
#ORIGIN:;
#CREDIT:;
#BANNER:BagBak-bn.png;
#BACKGROUND:BagBak-bg.png;
#PREVIEWVID:;
#JACKET:BagBak-jacket.png;
#CDIMAGE:;
#DISCIMAGE:;
#LYRICSPATH:;
#CDTITLE:cdtitle.png;
#MUSIC:BagBak.ogg;
#OFFSET:-0.050000;
#SAMPLESTART:46.879002;
#SAMPLELENGTH:16.000000;
#SELECTABLE:YES;
#BPMS:0.000=164.000;
#STOPS:;
#DELAYS:;
#WARPS:;
#TIMESIGNATURES:0.000=4=4;
#TICKCOUNTS:0.000=4;
#COMBOS:0.000=1;
#SPEEDS:0.000=1.000=0.000=0;
#SCROLLS:0.000=1.000;
#FAKES:;
#LABELS:0.000=Song Start;
#BGCHANGES:;
#KEYSOUNDS:;
#ATTACKS:
;

//---------------dance-single - ----------------
#NOTEDATA:;
#CHARTNAME:;
#STEPSTYPE:dance-single;
#DESCRIPTION:;
#CHARTSTYLE:;
#DIFFICULTY:Hard;
#METER:9;
#RADARVALUES:0.633466,0.669089,0.256772,0.088883,0.113572,449.000000,423.000000,26.000000,9.000000,32.000000,0.000000,3.000000,0.000000,0.000000,0.633466,0.669089,0.256772,0.088883,0.113572,449.000000,423.000000,26.000000,9.000000,32.000000,0.000000,3.000000,0.000000,0.000000;
#CREDIT:;
#NOTES:
// measure 0
0000
0000
0000
0000
,  // measure 1
0000
0000
0000
0000
,  // measure 2
0000
0000
0000
0000
,  // measure 3
0000
0000
0000
0000
,  // measure 4
1100
0000
0000
0000
1000
0100
1000
0000
0001
0000
0010
0000
0100
0000
0010
0000
,  // measure 5
0001
0000
0000
0000
0010
0100
0010
0000
0100
0000
1000
0000
0001
0000
1000
0000
,  // measure 6
0010
0000
0000
0000
0100
0001
0100
0000
0001
0000
1000
0000
0100
0000
0010
0000
,  // measure 7
0100
0000
0000
0000
1000
0010
1000
0000
0001
0000
0010
0000
0100
0000
0000
0000
,  // measure 8
0110
0010
0100
0010
0001
0010
0001
1000
,  // measure 9
0001
0100
0010
1000
0100
1000
0010
1000
,  // measure 10
0200
0000
1300
0100
0001
0100
1000
0010
,  // measure 11
0100
0010
0001
0010
0100
0001
1000
1000
,  // measure 12
2000
0000
3001
1000
0010
0100
0010
0001
,  // measure 13
0010
1000
0100
1000
0001
0010
0001
1000
,  // measure 14
0200
0000
0310
0100
1000
0001
0100
0010
,  // measure 15
0100
0100
0402
0300
1003
1000
0100
0100
,  // measure 16
1100
1000
0001
0010
0100
0010
0001
1000
,  // measure 17
0100
1000
0010
0001
0010
1000
0100
1000
,  // measure 18
0100
0010
0200
0000
1300
0100
1000
0001
,  // measure 19
0100
0010
1000
0002
0100
0000
0010
0000
,  // measure 20
0103
0000
0001
0000
0100
0001
0100
0000
0010
0000
0100
0000
0001
0000
0010
0000
,  // measure 21
0001
0000
0010
0000
0001
0000
1000
0000
0100
0000
1000
0000
0010
0000
0100
0010
,  // measure 22
0100
0010
0001
0010
1000
0100
1000
0001
,  // measure 23
0100
0000
0010
0000
1000
0000
0010
1000
0020
0000
1000
0000
0000
0000
0030
0000
,  // measure 24
1010
0000
0101
0000
1000
0010
0100
0001
,  // measure 25
0101
0000
1010
0000
0001
0100
0010
1000
,  // measure 26
1100
0000
0011
0000
1000
0100
0010
0001
,  // measure 27
0011
0000
1100
0000
0001
0010
0100
1000
,  // measure 28
1001
0000
1100
0000
1000
0001
0100
0001
,  // measure 29
1001
0000
0011
0000
0001
1000
0100
1000
,  // measure 30
1100
0000
0110
0000
1000
0001
0010
0100
,  // measure 31
0110
0000
0011
0000
0010
0001
0010
0000
,  // measure 32
0110
0000
0000
0000
0100
0010
0100
0000
1000
0000
0000
0000
0001
0000
1000
0000
,  // measure 33
0010
0000
1000
0000
0010
0100
0010
0000
0100
0000
1000
0000
0100
0000
0001
0000
,  // measure 34
0100
0000
0000
0000
0001
1000
0001
0000
1000
0000
0000
0000
0010
0000
0100
0000
,  // measure 35
0001
0000
0100
0000
0010
0100
0010
0000
1000
0000
0001
0000
0100
0000
0010
0000
,  // measure 36
1000
0000
0000
0000
0001
0010
0001
0000
1000
0000
0000
0000
0001
0000
0010
0000
,  // measure 37
0100
0000
0010
0000
0100
1000
0100
0000
1000
0000
0400
0000
0300
0000
4000
0000
,  // measure 38
3010
0000
0000
0000
0010
0100
0010
0000
0100
0000
0000
0000
0001
0000
1000
0000
,  // measure 39
0010
0000
1000
0000
0100
0010
0100
0000
2000
0000
0000
0000
0000
0000
0000
3000
,  // measure 40
M010
00M0
M000
00M0
M000
00M0
M000
00M0
,  // measure 41
0M00
00M0
0M00
00M0
0M00
00M0
0M00
00M0
,  // measure 42
000M
0M00
000M
0M00
000M
0M00
000M
0M00
,  // measure 43
00M0
M000
00M0
M000
00M0
0M00
00M0
0M00
,  // measure 44
0110
0000
1001
0000
0110
0000
0100
0001
,  // measure 45
0100
1000
0100
0010
0100
0000
0100
0000
,  // measure 46
0001
0100
0010
1000
0100
0010
0100
1000
,  // measure 47
0001
0100
0010
0100
0001
0000
0001
0000
,  // measure 48
1000
0010
0001
0010
1000
0100
0010
0100
,  // measure 49
1000
0001
0100
0010
0100
0000
0100
0000
,  // measure 50
0001
0100
0010
1000
0100
0010
0001
1000
,  // measure 51
0010
0100
0001
1000
0010
0000
0010
0000
,  // measure 52
1010
0000
1000
0000
0010
0100
0010
0000
0100
0000
0000
0000
0100
0000
0000
0000
,  // measure 53
0001
0000
1000
0000
0010
1000
0010
0000
0100
0000
0000
0000
0100
0000
0001
0100
,  // measure 54
0001
0100
1000
0100
0010
1000
0100
0010
,  // measure 55
0001
1000
0010
0100
0002
0000
1000
0000
,  // measure 56
1003
0001
0010
0001
0100
0010
1000
0001
,  // measure 57
0010
0100
0010
0001
1000
0000
1000
0000
,  // measure 58
0001
0100
0001
1000
0100
1000
0010
0100
,  // measure 59
0001
0000
1000
0000
0010
0100
0010
0100
0010
0000
1000
0000
0001
0000
0010
0000
,  // measure 60
0011
0000
0001
1000
0100
0000
0100
0000
,  // measure 61
1000
0000
0000
0000
0010
0000
0100
0000
0001
0000
0000
0000
0001
0000
1000
0001
,  // measure 62
1000
0000
0010
0100
0010
0000
0010
0000
,  // measure 63
1000
0000
0000
0000
0100
0000
0010
0000
0100
0000
0000
0000
0100
0000
0010
0100
,  // measure 64
0010
0000
0001
1000
0010
0000
0010
0000
,  // measure 65
1000
0000
0000
0000
0001
0000
1000
0000
0100
0000
0000
0000
0100
0000
1000
0100
,  // measure 66
1000
0000
0001
0100
0010
0000
0010
0000
,  // measure 67
0100
0000
0010
1000
0100
0010
0100
0000
;

//---------------dance-single - ----------------
#NOTEDATA:;
#CHARTNAME:;
#STEPSTYPE:dance-single;
#DESCRIPTION:;
#CHARTSTYLE:;
#DIFFICULTY:Medium;
#METER:7;
#RADARVALUES:0.502258,0.535272,0.108634,0.009876,0.019752,356.000000,345.000000,11.000000,1.000000,15.000000,0.000000,0.000000,0.000000,0.000000,0.502258,0.535272,0.108634,0.009876,0.019752,356.000000,345.000000,11.000000,1.000000,15.000000,0.000000,0.000000,0.000000,0.000000;
#CREDIT:;
#NOTES:
0000
0000
0000
0000
,
0000
0000
0000
0000
,
0000
0000
0000
0000
,
0000
0000
0000
0000
,
0011
0000
0001
1000
0001
0010
0100
0010
,
0001
0000
1000
0010
1000
0100
0010
0100
,
1000
0000
0001
0100
1000
0100
0001
0100
,
0010
0000
0010
0001
0100
1000
0100
0000
,
1100
0000
1000
0000
0010
0100
0001
0010
,
0000
0010
0001
0000
0001
0100
0010
1000
,
0010
0000
0010
0100
0001
0000
1000
0010
,
0000
0010
1000
0001
0100
0010
1000
0100
,
0010
0000
0100
1000
0001
0000
0001
0100
,
0000
0100
0010
0000
1000
0010
0100
0010
,
1000
0000
0010
0100
0001
1000
0100
0000
,
1000
0010
0100
0000
0100
0000
0010
0000
,
0110
0000
0010
0001
0010
0100
0010
1000
,
0000
1000
0010
0000
1000
0001
0100
0010
,
0100
1000
0100
0010
0100
0001
0000
0001
,
1000
0010
1000
0001
,
1001
0000
1000
0000
0010
1000
0100
1000
,
0000
1000
0001
0000
0100
1000
0100
0010
,
0100
0000
0001
0000
1000
0100
1000
0001
,
0000
0001
0010
0000
0002
0000
0000
0000
,
0013
0000
0001
0000
1000
0010
0001
0010
,
1000
0000
0000
0000
0010
0100
0010
0000
0010
0000
0001
0000
0010
0000
1000
0000
,
0010
0000
1000
0000
0100
1000
0010
0100
,
0001
0000
0000
0000
0010
0001
0010
0000
0001
0000
1000
0000
0010
0000
0100
0000
,
0001
0000
1000
0000
0010
0100
0001
1000
,
0100
0000
0000
0000
0010
0100
0010
0000
0010
0000
1000
0000
0010
0000
0001
0000
,
0010
0000
0001
0000
0100
0010
1000
0100
,
1000
0000
0000
0000
0001
1000
0001
0000
0001
0000
0010
0000
0001
0000
0000
0000
,
0011
0000
0001
0100
0001
0000
0010
1000
,
0000
1000
0010
0000
0001
0100
0010
0100
,
0001
0000
1000
0100
1000
0000
0010
0100
,
0000
0100
0010
0000
1000
0001
0100
0010
,
1000
0000
0001
0100
0010
0000
1000
0010
,
0000
0010
1000
0000
0100
0010
0100
1000
,
0100
0000
0100
1000
0001
0000
0001
0010
,
0000
0010
0100
0000
0010
0000
0001
0000
,
0011
000M
M000
000M
,
M000
000M
0M00
00M0
,
0M00
00M0
M000
0M00
,
000M
00M0
M000
00M0
,
0110
0110
0110
0100
,
0001
0000
0001
0010
0001
0000
1000
0000
,
0001
0100
0010
0100
,
1000
0000
0001
0100
0010
0000
0010
0000
,
0010
0001
1000
0010
,
0100
1000
0100
0010
0100
0000
0100
0000
,
0001
0000
1000
0000
0001
0010
0001
1000
,
0010
0000
1000
0100
1000
0000
1000
0000
,
1100
0000
1000
0010
0100
0000
0100
0010
,
0000
0010
1000
0001
0100
0000
0100
0000
,
0001
0000
1000
0000
0010
1000
0010
1000
,
0010
0000
0100
0001
0010
0000
0010
0000
,
0001
0000
0010
0001
0100
0000
0001
1000
,
0000
1000
0010
0100
0010
0000
0010
0000
,
1000
0000
0100
0010
0100
0000
1000
0100
,
0010
0000
0010
0100
1000
0000
1000
0000
,
1100
0000
0100
0010
0100
0000
0100
0000
,
1000
0000
0010
0100
0001
0000
0001
0000
,
0100
0000
0010
0100
0010
0000
0010
0000
,
1000
0000
0100
0010
0100
0000
0100
0000
,
0010
0000
0001
1000
0010
0000
0010
0000
,
1000
0000
0100
0010
0100
0000
0100
0000
,
1000
0000
0001
0100
0010
0000
0010
0000
,
0100
0000
0001
0010
0100
0000
0100
0000
;

//---------------dance-single - ----------------
#NOTEDATA:;
#CHARTNAME:;
#STEPSTYPE:dance-single;
#DESCRIPTION:;
#CHARTSTYLE:;
#DIFFICULTY:Easy;
#METER:4;
#RADARVALUES:0.438770,0.468363,0.118510,0.049379,0.000000,311.000000,299.000000,12.000000,5.000000,0.000000,0.000000,0.000000,0.000000,0.000000,0.438770,0.468363,0.118510,0.049379,0.000000,311.000000,299.000000,12.000000,5.000000,0.000000,0.000000,0.000000,0.000000,0.000000;
#CREDIT:;
#NOTES:
0000
0000
0000
0000
,
0000
0000
0000
0000
,
0000
0000
0000
0000
,
0000
0000
0000
0000
,
0110
0000
0010
0000
1000
0010
1000
0010
,
1000
0000
0100
0000
0010
0100
0010
0100
,
0010
0000
0001
0000
1000
0001
1000
0001
,
1000
0000
0010
0000
0100
0010
0100
0000
,
0110
0000
0010
0000
0100
0000
0001
0010
,
0000
0010
0001
0000
1000
0000
0010
0000
,
0100
0000
0001
0000
0010
0000
0100
0010
,
0000
0010
0100
0000
1000
0000
0010
0100
,
0001
0000
0010
0100
1000
0000
0100
1000
,
0000
1000
0001
0000
0001
0010
0100
0010
,
0001
0000
1000
0010
1000
0000
0010
0100
,
0000
0100
0001
0000
0020
0000
0000
0000
,
0031
0000
0010
0001
0010
0000
0001
1000
,
0000
1000
0010
0000
1000
0100
0010
0100
,
1000
0000
0001
0010
0001
0000
0001
1000
,
0000
1000
0010
0000
0020
0000
0000
0000
,
1030
0000
0010
0100
0010
0000
1000
0100
,
0000
0100
0010
0000
0001
1000
0001
0010
,
0100
0000
0010
0001
1000
0000
0010
0100
,
0000
0100
0001
0000
0100
0000
0000
0000
,
0110
0000
0010
0000
0100
0010
0001
0010
,
1000
0000
0010
0000
0100
0001
0010
0001
,
0100
0000
0010
0000
1000
0010
0100
0001
,
0010
0000
0001
0000
1000
0001
0010
0100
,
1000
0000
1000
0000
0010
0100
0001
1000
,
0100
0000
0010
0000
0010
0100
0010
0001
,
0010
0000
0001
0000
0100
0010
1000
0100
,
1000
0000
0010
0000
0100
0010
0100
0000
,
0110
0010
1000
0010
,
1000
0000
0010
0100
1000
0100
0010
0100
,
0001
1000
0001
1000
,
0001
0000
1000
0010
0001
0010
0100
0010
,
1000
0100
1000
0100
,
1000
0000
0100
0010
0100
0010
0000
0000
,
0110
0010
0001
0100
,
0001
0000
0010
0001
2000
0000
0000
0000
,
3002
0000
0000
0000
,
0000
0000
0000
0000
,
0000
0000
0000
0000
,
0000
0000
0000
0000
,
1003
0100
1100
0100
,
1000
0001
0100
0010
,
1000
0010
0001
0100
,
1000
0000
0100
0010
0100
0000
0100
0000
,
1000
0100
1000
1000
,
0001
0100
0010
1000
,
0001
0100
0010
1000
,
0010
0000
0100
0001
0100
0000
0100
0000
,
0101
0000
0001
0010
0100
0000
0010
0000
,
0001
0000
1000
0001
1000
0000
1000
0000
,
0001
1000
0010
0010
,
0100
0000
0001
0010
0002
0000
0000
0000
,
1003
0001
0101
0001
,
1000
0000
0100
1000
1100
0000
1000
0000
,
0001
0100
0110
0010
,
1000
0000
0100
0010
0110
0000
0010
0000
,
0110
0000
0100
1000
0100
0000
0100
0000
,
0010
0001
1000
0001
,
1000
0000
0010
0100
0001
0000
0001
0000
,
0010
0100
0010
0001
,
1000
0000
0001
0100
0010
0000
0010
0000
,
1000
0100
0010
0100
,
1000
0000
0001
1000
0100
0000
0100
0000
,
1000
0000
0010
0100
0001
0000
0100
0000
;

//---------------dance-single - ----------------
#NOTEDATA:;
#CHARTNAME:;
#STEPSTYPE:dance-single;
#DESCRIPTION:;
#CHARTSTYLE:;
#DIFFICULTY:Beginner;
#METER:3;
#RADARVALUES:0.262416,0.334545,0.039503,0.069131,0.000000,186.000000,182.000000,4.000000,7.000000,0.000000,0.000000,0.000000,0.000000,0.000000,0.262416,0.334545,0.039503,0.069131,0.000000,186.000000,182.000000,4.000000,7.000000,0.000000,0.000000,0.000000,0.000000,0.000000;
#CREDIT:;
#NOTES:
0000
0000
0000
0000
,
0000
0000
0000
0000
,
0000
0000
0000
0000
,
0000
0000
0000
0000
,
1001
0000
1000
0100
,
0010
0000
0001
0010
,
0100
0000
0010
0001
,
1000
0000
0100
1000
,
1100
0000
0000
0000
0100
0000
0000
1000
,
0000
0100
1000
0000
,
0001
0000
0000
0000
0100
0000
0000
0010
,
0000
0000
0100
0000
0001
0000
0000
0001
,
1000
0000
0000
0000
0010
0000
0000
1000
,
0000
0001
0100
0000
,
0001
0000
0000
0000
1000
0000
0000
0100
,
0000
0010
0200
0000
,
1300
0000
0100
0000
0010
0000
0000
0001
,
0000
0100
0001
0010
,
0100
0000
0000
0010
0100
0000
0000
1000
,
0000
2000
0000
0000
,
3100
0000
1000
0000
0010
0000
0000
0100
,
0000
0001
1000
0001
,
0100
0000
0000
0100
0010
0000
0000
0100
,
0000
0100
0002
0000
,
0103
0000
0001
0010
,
0001
0000
1000
0010
,
1000
0000
0010
0100
,
0010
0000
1000
0100
,
1000
0000
0001
0100
,
0001
0000
0010
0100
,
0010
0000
0001
1000
,
0001
0000
1000
0100
,
1100
1000
1000
1000
,
1000
0001
1000
0100
,
0010
0010
0010
0010
,
0010
0001
1000
0010
,
0100
0100
0100
0100
,
0100
0010
0100
0000
,
0010
0010
0010
0010
,
0010
1000
0200
0000
,
1300
0000
0000
0000
,
0000
0000
0000
0000
,
0000
0000
0000
0000
,
0000
0000
0000
0000
,
0010
0010
0010
0000
,
0001
0001
0001
0010
,
0100
0100
0100
0000
,
0010
0010
0010
0001
,
1000
1000
1000
0000
,
0001
0001
0001
1000
,
0100
0100
0100
0000
,
0010
0010
0010
0100
,
0110
0000
0100
0010
,
0000
0000
0000
0001
1000
0000
0001
0000
,
1000
0000
0000
1000
0010
0000
0000
0100
,
0000
0001
2000
0000
,
3100
0000
0000
1000
0100
0000
0000
1000
,
0000
0001
0020
0000
,
0031
0000
0000
0001
1000
0000
0000
0010
,
0000
0100
0020
0000
,
0130
0000
0010
0010
,
0000
0000
1000
1000
,
0000
0000
0001
0001
,
0000
0000
0010
0010
,
0000
0000
0100
0100
,
0000
0000
0010
0010
,
0000
0000
0001
0001
,
0000
0000
1000
1000
;
