#TITLE:Backyard Animals;
#SUBTITLE:;
#ARTIST:Max Elto;
#TITLETRANSLIT:;
#SUBTITLETRANSLIT:;
#ARTISTTRANSLIT:;
#GENRE:Deep House;
#CREDIT:;
#BANNER:ba-bn.png;
#BACKGROUND:ba-bg.png;
#LYRICSPATH:;
#CDTITLE:cdtitle.png;
#MUSIC:backyard animals.ogg;
#OFFSET:0.000000;
#SAMPLESTART:76.984001;
#SAMPLELENGTH:16.000000;
#SELECTABLE:YES;
#BPMS:0.000000=124.000000
;
#STOPS:28.000000=1.500000
;
#BGCHANGES:;
#KEYSOUNDS:;
#ATTACKS:;

//---------------dance-single - ----------------
#NOTES:
     dance-single:
     :
     Easy:
     3:
     0.204876,0.254882,0.054375,0.197109,0.000000,211.000000,203.000000,8.000000,29.000000,0.000000,0.000000,0.204876,0.254882,0.054375,0.197109,0.000000,211.000000,203.000000,8.000000,29.000000,0.000000,0.000000:
// measure 0
0000
0000
0000
0000
,  // measure 1
0000
0000
0000
0000
,  // measure 2
0000
0000
0000
0000
,  // measure 3
0000
0000
0000
0000
,  // measure 4
1001
0000
0010
0000
,  // measure 5
1000
0000
0010
0000
,  // measure 6
0100
0000
0001
0000
,  // measure 7
0000
1000
0000
0100
,  // measure 8
0000
0000
0010
0000
0000
0010
0000
0010
,  // measure 9
0100
0010
0000
0001
,  // measure 10
0000
0010
0001
0010
,  // measure 11
0100
1000
0000
0010
,  // measure 12
0000
0000
0100
0000
0000
0100
0000
0100
,  // measure 13
0001
0000
0001
0000
,  // measure 14
0001
0000
1000
0000
,  // measure 15
1000
0002
0000
0000
,  // measure 16
0000
0000
0203
0000
0000
0300
0010
0200
,  // measure 17
0000
0300
0002
0000
0000
0000
0000
0000
,  // measure 18
0000
0000
0203
0000
0000
0300
0020
0000
,  // measure 19
0000
0030
2000
0000
0000
0000
0000
0000
,  // measure 20
0000
0000
3002
0000
0000
0003
0200
0000
,  // measure 21
0000
0300
0022
0000
0000
0030
0020
0000
,  // measure 22
0000
0033
1001
0000
0000
0000
0000
0000
,  // measure 23
0000
1000
0000
0001
,  // measure 24
0000
0100
0000
0001
,  // measure 25
0000
0010
0000
0100
,  // measure 26
0000
1000
0000
0100
,  // measure 27
0000
0010
0100
0010
,  // measure 28
0000
0001
1000
0001
,  // measure 29
0000
0100
0010
1000
,  // measure 30
0000
0000
0001
0000
,  // measure 31
0001
1000
0001
0000
0000
0000
0100
0000
,  // measure 32
0010
0000
0100
0000
0000
0001
0000
0001
,  // measure 33
1000
0001
0010
0001
,  // measure 34
0000
1000
0100
0010
,  // measure 35
0001
1000
0001
0000
0001
0000
0000
0000
,  // measure 36
1000
0000
0010
0000
,  // measure 37
0001
0000
0010
0000
,  // measure 38
1000
0000
0001
0000
,  // measure 39
0010
0200
0000
0000
,  // measure 40
0000
0000
0010
0000
0000
0300
0002
0000
,  // measure 41
0010
0003
2000
0000
0001
0000
0010
0000
,  // measure 42
0000
3000
0002
0000
1000
0000
0100
0000
,  // measure 43
0000
0003
2000
0000
0001
3000
0002
0000
,  // measure 44
0100
0000
0000
0000
0100
0003
0020
0030
,  // measure 45
0200
0300
2000
0000
0100
3000
0200
0000
,  // measure 46
0010
0300
0120
0000
0001
0000
0100
0000
,  // measure 47
0030
0110
0010
0001
,  // measure 48
1000
0001
0010
0100
,  // measure 49
0001
0010
0001
0100
,  // measure 50
0010
1000
0001
0100
,  // measure 51
0001
0000
2000
0000
0000
3000
0200
0000
,  // measure 52
0000
0300
0020
0000
0000
0030
0002
0000
,  // measure 53
0000
0003
0200
0000
0000
0300
0020
0000
,  // measure 54
0000
0030
0100
0000
0100
0000
0100
0000
,  // measure 55
0000
0101
0001
0100
,  // measure 56
0000
0001
0010
0001
,  // measure 57
0000
1000
0100
0010
,  // measure 58
0000
0001
0010
0001
,  // measure 59
0000
0001
0100
0010
,  // measure 60
0000
0010
1000
0100
,  // measure 61
0000
0100
0010
0001
,  // measure 62
0000
0001
1000
0001
,  // measure 63
0000
0100
0001
0010
,  // measure 64
0001
1000
0010
0100
,  // measure 65
0001
0100
0010
1000
,  // measure 66
0100
0001
0100
1000
,  // measure 67
0001
0010
0100
0010
,  // measure 68
0001
0010
0100
1000
,  // measure 69
0010
1000
0001
0100
,  // measure 70
1000
0100
0001
0100
,  // measure 71
0010
0110
0100
0010
,  // measure 72
0100
0000
0001
0100
,  // measure 73
0001
0000
1000
0010
,  // measure 74
0100
0000
0010
0100
,  // measure 75
0110
0000
0000
0000
;

//---------------dance-single - ----------------
#NOTES:
     dance-single:
     :
     Beginner:
     1:
     0.129140,0.254882,0.095156,0.265077,0.000000,133.000000,119.000000,14.000000,39.000000,0.000000,0.000000,0.129140,0.254882,0.095156,0.265077,0.000000,133.000000,119.000000,14.000000,39.000000,0.000000,0.000000:
// measure 0
0000
0000
0000
0000
,  // measure 1
0000
0000
0000
0000
,  // measure 2
0000
0000
0000
0000
,  // measure 3
0000
0000
0000
0000
,  // measure 4
1001
0000
0000
0000
,  // measure 5
1010
0000
0000
0000
,  // measure 6
0011
0000
0000
0000
,  // measure 7
0000
1000
0000
0100
,  // measure 8
0000
1000
0000
0001
,  // measure 9
0000
0010
0000
0100
,  // measure 10
0000
0010
0000
0001
,  // measure 11
0000
1000
0000
0001
,  // measure 12
0000
0100
0000
0010
,  // measure 13
0000
0001
0000
0010
,  // measure 14
0000
0000
1000
0000
,  // measure 15
0001
2000
0000
0000
,  // measure 16
0000
0000
0000
0000
,  // measure 17
0000
3000
0002
0000
0000
0000
0000
0000
,  // measure 18
0000
0000
0000
0000
,  // measure 19
0000
0003
0020
0000
0000
0000
0000
0000
,  // measure 20
0000
0000
0000
0000
,  // measure 21
0000
0030
0200
0000
0000
0000
0000
0000
,  // measure 22
0000
0300
0110
0000
0000
0000
0000
0000
,  // measure 23
0000
1000
0000
0000
,  // measure 24
0000
0001
0000
0000
,  // measure 25
0000
0100
0000
0000
,  // measure 26
0000
0010
0000
0000
,  // measure 27
0000
0110
0000
0000
,  // measure 28
0010
0000
0000
0000
,  // measure 29
1000
0000
0000
0001
,  // measure 30
0000
0000
0100
0000
,  // measure 31
0100
0110
0000
0100
,  // measure 32
0000
0001
0000
1000
,  // measure 33
0000
0001
0000
0010
,  // measure 34
0000
0100
0000
1000
,  // measure 35
0000
0010
0000
0000
,  // measure 36
1000
0000
0001
0000
,  // measure 37
0100
0000
0010
0000
,  // measure 38
0100
0000
0001
0000
,  // measure 39
0000
0200
0000
0000
,  // measure 40
0000
0000
0000
0000
0000
0300
0020
0000
,  // measure 41
0000
0030
2000
0000
0000
0000
0000
0000
,  // measure 42
0000
3000
0002
0000
0000
0000
0000
0000
,  // measure 43
0000
0003
2000
0000
0000
3000
0200
0000
,  // measure 44
0000
0000
0000
0000
0000
0300
0020
0030
,  // measure 45
0020
0030
0200
0000
0000
0300
0020
0000
,  // measure 46
0000
0030
0002
0000
0000
0000
0000
0000
,  // measure 47
0003
0010
0000
0001
,  // measure 48
0000
1000
0000
0001
,  // measure 49
0000
0010
0000
0100
,  // measure 50
0000
0010
0000
0001
,  // measure 51
0000
0000
2000
0000
0000
3000
0002
0000
,  // measure 52
0000
0003
0200
0000
0000
0300
0020
0000
,  // measure 53
0000
0030
2000
0000
0000
3000
0200
0000
,  // measure 54
0000
0300
0010
0000
0100
0000
0010
0000
,  // measure 55
0000
0000
0002
0000
0000
0003
0020
0000
,  // measure 56
0000
0030
0200
0000
0000
0300
0020
0000
,  // measure 57
0000
0030
0002
0000
0000
0003
0020
0000
,  // measure 58
0000
0030
0200
0000
0000
0000
0000
0300
,  // measure 59
2000
3000
2000
0000
0000
3000
0200
0000
,  // measure 60
0000
0300
0020
0000
0000
0030
0002
0000
,  // measure 61
0000
0003
0200
0000
0000
0300
0002
0000
,  // measure 62
0000
0003
0200
0300
0200
0300
0020
0030
,  // measure 63
0020
0030
0100
0000
0000
0000
0010
0000
,  // measure 64
0000
1000
0000
0100
,  // measure 65
0000
0010
0000
0001
,  // measure 66
0000
1000
0000
0001
,  // measure 67
0000
0010
0000
0100
,  // measure 68
0000
0010
0000
0001
,  // measure 69
0000
0010
0000
0100
,  // measure 70
0000
1000
0000
0100
,  // measure 71
0000
1001
0000
1010
,  // measure 72
0000
0101
0000
0110
,  // measure 73
0000
1001
0000
1010
,  // measure 74
0000
0000
0110
0000
,  // measure 75
0110
0000
0000
0000
;

//---------------dance-single - ----------------
#NOTES:
     dance-single:
     :
     Medium:
     4:
     0.284497,0.356835,0.163124,0.122343,0.000000,293.000000,269.000000,24.000000,18.000000,0.000000,0.000000,0.284497,0.356835,0.163124,0.122343,0.000000,293.000000,269.000000,24.000000,18.000000,0.000000,0.000000:
0000
0000
0000
0000
,
0000
0000
0000
0000
,
0000
0000
0000
0000
,
0000
0000
0000
0000
,
1001
0001
0010
0001
,
1000
0100
1000
0010
,
0100
0010
1000
0001
,
0000
1000
0001
0100
,
0010
1000
0001
0100
,
0010
1000
0001
0100
,
0010
0100
0001
1000
,
0010
0100
0001
0010
,
0100
1000
0100
0010
,
0100
0001
0010
0100
,
0010
0000
1000
0000
,
1000
0002
0000
0010
,
1000
0000
0203
0000
0000
0300
0001
0002
,
0000
0003
2000
0000
0000
0000
0001
0000
,
0100
0000
3200
0000
0000
0300
0020
0000
,
0000
0030
0002
0000
0000
0000
0100
0000
,
0010
0000
2003
0000
0000
3000
0200
0000
,
0000
0300
0022
0000
0000
0030
0020
0000
,
0000
0033
1001
0000
0000
0000
0100
0000
,
0000
1000
1000
0001
,
0001
0100
0100
0010
,
0010
1000
1000
0001
,
0001
0010
0010
0100
,
0100
0010
0110
0001
,
0101
0100
1010
1000
,
0101
0100
1010
0001
,
1001
0000
0100
0000
,
0100
0001
0011
0000
0001
0000
0100
0000
,
0010
0001
0010
1000
,
0100
0001
0010
0001
,
0010
0100
0001
1000
,
0100
1000
0011
0000
0001
0000
0000
0000
,
1000
0000
0010
0000
,
0001
0000
0010
0000
,
0100
0000
0001
0000
,
0010
0100
0010
0001
,
0010
0100
1000
0100
,
0010
0100
0100
0100
,
0000
0010
0010
0010
,
0100
0110
0100
0001
,
0010
0001
0100
0010
,
0001
1010
0100
0100
,
0100
0000
0010
0010
,
0010
1000
0001
0000
0100
0000
0010
0000
,
0001
1000
0010
0100
,
0001
0010
0001
0100
,
1000
0001
0010
0100
,
0001
0000
2100
0000
0000
3000
0102
0000
,
0000
0003
0210
0000
0000
0300
0102
0000
,
0000
0003
2001
0000
0000
3000
0210
0000
,
0000
0300
0001
0000
0100
0000
0001
0000
,
1000
0010
1100
0000
1000
0001
0100
0010
,
1000
0001
0010
0000
0100
0000
0010
0000
,
0001
0000
1000
0000
1000
0100
0010
0001
,
0010
0100
0001
0000
0100
0000
0010
0000
,
1000
0000
0100
0000
0010
0001
0010
0100
,
1000
0100
0010
0000
0010
0000
0100
0000
,
0010
0001
1000
0001
,
0010
0100
1000
0001
,
0010
0100
0010
1000
,
0001
1000
0010
0100
,
0001
0100
0010
1000
,
0100
1000
0010
0100
,
0001
0010
0100
0010
,
1000
0010
0100
0001
,
0010
0100
1000
0010
,
0100
0001
1000
0010
,
0100
0000
1001
0000
0100
0000
0010
0100
,
0001
0000
1010
0000
0001
0000
0100
0010
,
1000
0000
1010
0000
0100
0000
1000
0001
,
0100
0000
0000
0000
0010
0000
0100
0100
,
0110
0000
0000
0000
;

//---------------dance-single - ----------------
#NOTES:
     dance-single:
     :
     Hard:
     6:
     0.386449,0.458787,0.265077,0.190312,0.020391,398.000000,359.000000,39.000000,28.000000,0.000000,0.000000,0.386449,0.458787,0.265077,0.190312,0.020391,398.000000,359.000000,39.000000,28.000000,0.000000,0.000000:
0000
0000
0000
0000
,
0000
0000
0000
0000
,
0000
0000
0000
0000
,
0000
0000
0000
0000
,
1001
0001
0010
0001
,
1010
0100
1000
0010
,
0101
0010
1000
0001
,
0000
0000
1010
0100
0001
1000
0100
1000
,
0020
0000
1030
0010
0100
0001
0000
0200
,
0010
0300
0001
0100
0000
0010
1000
0000
,
1000
0000
0010
0100
1000
0200
0001
0300
,
0010
0000
0011
1000
0001
0100
0010
0100
,
0002
0000
0003
0010
0100
1000
0000
0200
,
1000
0300
0001
1000
0000
0001
0010
0000
,
0100
0000
1000
0010
1000
0200
0000
0300
,
1000
0001
0100
0010
,
1000
0000
0200
0000
0000
0300
0010
0002
,
0000
0003
1000
0000
0001
0000
0010
0000
,
0100
0000
0200
0000
1000
0300
0020
0000
,
0100
0030
1000
0000
0001
0000
0100
0000
,
0010
0000
2000
0000
0001
3000
0200
0000
,
1000
0300
0020
0000
0100
0030
0002
0000
,
1000
0003
2001
0000
0000
3000
0200
0000
,
0000
0300
1000
0001
1000
0000
0001
1000
,
0001
0000
0100
0010
0100
0000
0010
0100
,
0010
0000
1000
0001
0100
0000
0001
1000
,
0010
0000
1000
0100
0010
0000
0001
0010
,
0100
0000
0010
0001
0011
0000
0100
0010
,
0110
0000
0010
0100
1010
0000
0100
0010
,
0101
0000
1000
0001
1001
0000
0001
0100
,
1010
0000
1000
0100
0010
0100
1000
0100
,
0010
0001
0010
1000
0001
0010
0100
0010
,
0020
0000
0130
1000
0010
0100
0000
0002
,
0100
0003
0001
1000
0000
0100
0010
0000
,
0100
0000
1000
0001
0100
0002
1000
0003
,
0100
1000
0010
0100
0001
0100
0010
0001
,
2000
0000
3000
0100
0010
0001
0000
0020
,
0001
0030
0000
0100
0000
0010
0001
0000
,
0100
0000
0010
0100
0001
2000
0000
3000
,
1000
0000
0000
0001
0100
0000
0000
0000
0010
0000
0000
0000
1000
0000
0000
0000
,
0001
0000
0000
0000
0100
0000
0000
0000
0010
0000
0000
1000
0100
0000
0000
0000
,
0010
0000
0000
0001
0100
0000
0000
0000
0100
0000
0000
0000
0100
0000
0000
0000
,
0000
0010
0010
0010
,
0001
0000
0000
1000
1001
0000
0000
0000
0100
0000
0000
0000
0101
0000
0000
0000
,
0010
1001
0100
0011
,
0001
1010
0100
0011
,
0100
1010
0100
0011
,
0100
0000
0001
0000
0010
0010
0000
0000
0101
0000
0000
0000
0010
0000
1000
0000
,
0001
0000
1000
0000
0010
0000
0100
1000
,
0001
0000
0010
0000
0001
0000
0100
0001
,
1000
0000
0001
0000
0010
0000
0100
0010
,
0001
0000
2100
0000
0001
3000
1002
0000
,
0100
0003
0201
0000
0010
0300
0120
0000
,
1000
0030
2010
0000
0001
3000
0210
0000
,
0010
0300
1001
0000
0100
0000
0011
0000
,
1000
0000
0000
0001
1100
0000
0000
0000
1000
0000
0001
0000
0100
0000
0010
0000
,
1000
0001
0010
0000
0100
0000
1000
0001
,
0100
0000
0001
0000
1000
0010
0100
0001
,
0010
0100
0010
0000
0001
0000
1000
0000
,
0001
0000
0100
0000
0010
1000
0100
0010
,
0001
1000
0010
0000
0100
0000
0010
0000
,
1000
0001
0010
0100
,
0010
0101
1000
0011
,
0010
0000
0100
1000
0001
0000
0010
0000
,
0001
0000
1000
0001
0010
0000
0100
0000
,
0001
0000
0100
1000
0010
0000
0100
0000
,
0010
0000
1000
0100
0010
0000
0001
0000
,
0100
0000
0010
1000
0100
0000
0010
0000
,
0001
0000
0010
0100
1000
0000
0001
0000
,
0100
0000
0010
1000
0100
0000
0010
0000
,
0001
0000
1000
0010
0100
0000
0001
0000
,
1000
0000
1001
0000
0100
0000
1010
0100
,
0001
0000
1010
0000
0001
0000
0110
1000
,
0010
0000
1001
0000
0001
0000
1010
0001
,
0100
0000
0001
0000
1000
0000
0100
0010
,
0110
0000
0000
0000
;

//---------------dance-single - ----------------
#NOTES:
     dance-single:
     :
     Challenge:
     8:
     0.470925,0.509764,0.292265,0.176718,0.040781,485.000000,442.000000,43.000000,26.000000,0.000000,0.000000,0.470925,0.509764,0.292265,0.176718,0.040781,485.000000,442.000000,43.000000,26.000000,0.000000,0.000000:
0000
0000
0000
0000
,
0000
0000
0000
0000
,
0000
0000
0000
0000
,
0000
0000
0000
0000
,
1001
0001
0010
0100
1000
0100
0010
0001
,
1000
0010
0100
0001
1000
0100
0010
0001
,
0010
0100
0010
0100
1000
0010
0100
0001
,
1001
0000
1010
0100
0001
0100
0010
1000
,
0020
0000
1030
0100
0010
0100
1000
0200
,
0010
0300
0001
0100
0010
1000
0100
0010
,
0001
0010
0100
0010
1000
0200
0000
0300
,
0001
0100
1001
1000
0100
0010
0100
0001
,
2000
0000
3001
0010
0100
1000
0010
0200
,
0010
0300
0001
1000
0100
0010
0001
0100
,
0010
0100
0001
0010
0001
2000
0000
3000
,
1000
0010
0100
0001
0010
1000
0010
0001
,
0100
0010
0200
0000
0000
0300
0010
0002
,
0000
0003
0001
1000
0010
0100
0001
1000
,
0100
0010
0200
0000
0000
0300
0020
0000
,
0000
0030
0001
0010
0100
1000
0100
1000
,
0010
0100
0002
0000
1000
0003
0200
0000
,
0001
0300
2020
0000
0000
0030
0020
0000
,
0000
3030
1001
0010
0001
0010
0100
0010
,
0001
0010
0100
1000
0001
0000
1000
0001
,
1000
0000
0100
0010
0100
0000
0010
0100
,
0010
0000
1000
0100
0010
0000
0100
0010
,
0001
0000
0010
0100
1000
0000
0001
0010
,
0100
0000
1000
0001
0101
0010
0001
1000
,
1010
0000
0100
0010
0101
0001
0010
0100
,
1010
0000
1000
0001
0101
1000
0001
1000
,
1010
0000
1000
0100
0010
0001
0010
0100
,
1000
0000
0000
0100
0010
0000
1000
0000
0001
0000
0100
0000
0100
0000
0010
0000
,
0020
0000
1030
1000
0010
0100
1000
0002
,
0100
0003
0001
1000
0010
0100
0001
0000
,
0010
0000
0100
1000
0001
0002
1000
0003
,
0100
0000
0000
0001
0010
0000
0100
0000
0001
0000
0100
0000
0010
0000
0001
0000
,
2000
0000
3000
0100
0010
0001
0000
0020
,
0001
0030
0010
0100
0010
0100
0001
0000
,
0100
0000
1000
0010
0001
0020
0000
0030
,
0010
0000
0000
1000
0100
0000
0000
0000
0010
0000
0000
0000
0100
0000
0000
0000
,
0001
0000
0000
1000
0100
0000
0000
0000
1000
0000
0000
0010
0100
0000
0000
0000
,
0010
0000
0000
0001
0100
0000
0000
0000
0010
0000
0000
0000
0100
0000
0000
0000
,
0010
0001
1000
0001
,
0010
0000
0000
0100
1010
0000
0000
0000
0100
0000
0000
0000
0101
0000
0000
0000
,
0010
0000
0000
1000
1001
0000
0000
0000
0100
0000
0000
0001
0011
0000
0000
0000
,
0001
0000
0000
0010
1010
0000
0000
0000
0100
0000
0000
0000
0011
0000
0000
0000
,
0001
0010
0100
1000
,
0001
0000
0100
0000
0010
1000
0000
0000
0101
0000
1000
0000
0010
0000
1000
0000
,
0001
0000
1000
0001
0010
0100
0100
1000
,
0001
0000
0010
0100
0001
1000
0100
0001
,
1000
0000
0001
0100
0010
0010
0100
0010
,
0001
0000
0110
0001
1000
0010
0102
1000
,
0100
0003
0210
0000
0000
0300
0120
0000
,
0000
0030
2001
0000
0000
3000
1002
0000
,
0000
0003
0110
0000
0101
0000
1010
0000
,
1000
0000
0000
0001
1010
0000
0000
0000
1000
0000
0001
0000
0100
0000
0010
0000
,
0001
1000
0010
0000
0100
0000
0001
0100
,
0000
0000
0101
0000
1000
0100
0010
0001
,
0100
0010
1000
0000
0010
0000
1000
0000
,
0001
0000
1100
0000
0010
1000
0100
0010
,
0001
0100
0010
0000
0100
0000
0001
1000
,
0010
0000
1000
0001
0100
0000
0001
1000
,
0010
0101
0110
1010
,
1001
0000
1100
1000
0001
0010
0100
0010
,
0001
1000
0100
0010
0100
1000
0001
0010
,
0100
0010
0100
1000
0010
0100
0010
1000
,
0100
0010
0001
0010
0100
1000
0100
0010
,
0001
1000
0010
1000
0100
0010
0001
0100
,
0001
0010
0100
1000
0100
0010
0100
1000
,
0010
0100
0001
0010
0100
1000
0100
0010
,
0001
1000
0010
0100
0010
1000
0001
1000
,
0010
0010
1001
0000
0100
0000
1010
0100
,
0001
0000
1010
0000
0001
0000
0110
1000
,
0010
0000
1001
0000
0001
0000
1010
0001
,
0100
0000
1000
0100
0010
0001
0010
0100
,
0110
0000
0000
0000
;
