#TITLE:Back to You;
#SUBTITLE:;
#ARTIST:Fabio XB & Liuck feat. Christina Novelli;
#TITLETRANSLIT:;
#SUBTITLETRANSLIT:;
#ARTISTTRANSLIT:;
#GENRE:Trance;
#CREDIT:;
#BANNER:Back to You-bn.png;
#BACKGROUND:Back to You-bg.png;
#LYRICSPATH:;
#CDTITLE:cdtitle.png;
#MUSIC:Back to You.ogg;
#OFFSET:-0.002000;
#SAMPLESTART:116.365997;
#SAMPLELENGTH:14.545000;
#SELECTABLE:YES;
#BPMS:0.000000=132.000000
,160.000000=66.000000
,208.000000=132.000000
;
#STOPS:
;
#BGCHANGES:
;
#KEYSOUNDS:;
#ATTACKS:;

//---------------dance-single - ----------------
#NOTES:
     dance-single:
     X-Scale 14:
     Challenge:
     10:
     0.606231,0.994122,0.073263,0.309959,0.597375,753.000000,740.000000,13.000000,55.000000,21.000000,0.000000,0.606231,0.994122,0.073263,0.309959,0.597375,753.000000,740.000000,13.000000,55.000000,21.000000,0.000000:
0000
0000
0000
0000
,
0000
0000
0000
0000
,
0000
0000
0000
0000
,
0000
0000
0000
0000
,
1100
0000
1000
0000
0001
0100
0000
0100
0001
0000
1000
0100
2000
0000
0000
0000
,
3001
0000
0100
0000
0010
1000
0000
1000
0010
0000
0100
0010
0200
0000
0000
0000
,
0301
0000
0010
0000
0100
1000
0000
1000
0001
0000
0100
0001
0100
0000
0000
0000
,
0010
0000
1000
0000
0100
0010
0000
0010
0001
0000
1000
0000
0001
0000
0000
0000
,
0010
0000
0100
0000
1000
0100
00M0
0100
0001
0000
1000
0000
0100
0000
0001
0000
,
0100
0000
0010
0000
0001
0100
00M0
0100
1000
0000
0010
1000
0001
0000
0100
0000
,
0001
0000
0010
0000
0100
1000
0000
1000
0001
0000
0010
0100
1000
0000
0001
0000
,
1000
0000
0100
0000
1000
0010
0M00
0010
0001
0000
0100
0000
0001
0000
1000
0100
,
1000
0000
1000
0000
0001
0010
0M00
0010
1000
0000
0100
0000
0020
0000
0000
0000
,
1030
0000
0010
0000
0001
0100
00M0
0100
1000
0000
0010
1000
0001
0000
0010
0000
,
0100
0000
1000
0000
0010
0100
0000
0100
0001
0000
1000
0010
1000
0000
0100
0000
,
0010
0000
0100
0000
1000
0010
0M00
0010
0001
0000
0100
0000
0010
0000
0000
0000
,
1000
0000
0100
0000
1000
0010
0M00
0010
0001
0000
0100
0000
0020
0000
0000
0000
,
1030
0100
0020
0000
0032
0000
1003
0010
,
1000
0000
0100
0000
1000
0010
0M00
0010
0002
0000
0000
0000
0103
0000
0001
0000
,
1000
0000
0001
0000
0010
0100
0000
0100
0000
1000
0100
0000
1000
0000
0100
0010
,
0001
0000
0001
0000
0200
0000
0000
0000
0310
0000
0100
0000
0001
0100
0000
0000
,
0010
0000
1000
0000
0002
0000
0000
0000
0103
0000
0001
0000
1000
0000
0001
1000
,
0001
0000
0010
0000
0200
0000
0000
0000
1300
0000
0100
0000
1000
0001
0000
0000
,
0010
0000
0100
0000
0020
0001
0000
0000
0031
0000
1000
0000
1001
0000
0001
0100
,
0001
0000
0100
0000
0010
0000
1000
0000
0100
0000
1000
0100
2000
0000
0000
0000
,
3001
0100
0010
0001
0010
1000
0002
0000
,
0103
0000
0001
0000
1000
0010
0000
0010
0100
0000
0001
0100
0001
0000
1000
0000
,
0100
0000
0010
0000
0001
0100
0000
0100
0010
0000
0100
0000
1000
0000
0100
0000
,
0001
0010
0100
0010
0001
1000
0200
0000
,
0301
0000
0100
0000
1000
0010
0000
0010
0200
0000
0300
0002
0000
0003
0200
0000
,
0010
0000
0310
0000
0100
0010
0000
0010
1000
0000
0001
1000
0001
0000
0010
0000
,
0100
0000
1000
0000
0010
1000
0000
1000
0001
0000
0010
0000
0100
0000
0010
0100
,
0010
0001
1000
0100
0010
0001
2000
0000
,
3010
1000
0001
0010
1000
0010
0100
2000
,
0010
3000
1000
0002
0010
0003
0001
0200
,
0010
0000
0310
0000
0010
0100
0000
0100
0001
0000
1000
0000
0100
0000
1000
0000
,
0010
0100
1000
0100
0001
0010
0200
0000
,
1300
0001
0200
0000
0320
0000
1030
0002
,
0013
0000
0001
0000
1000
0010
0M00
0010
0001
0000
1000
0001
1000
0000
0000
0000
,
0001
0000
0100
0000
0010
0100
000M
0100
2000
0000
0000
0000
3100
0000
0020
0000
,
0031
0010
1000
0100
1000
0010
0001
0100
,
0010
0001
0010
0100
0010
1000
0100
0010
,
0001
0100
0010
1000
0001
1000
0100
0010
,
0001
0000
1000
0000
0010
0000
0100
0000
0001
0000
0100
0000
0010
0100
0001
0002
,
0010
0000
1000
0000
0010
0000
0103
0200
0010
0300
0100
0000
1000
0000
0100
0000
,
0001
0000
0010
0000
0100
0000
1000
0000
0020
0000
0030
2000
0000
3000
0002
0000
1000
0000
0003
0000
0001
0000
0000
0000
0100
0000
0010
0000
1000
0000
0002
0000
,
0010
0000
1000
0000
0010
0000
0103
0200
0001
0300
0100
0000
1000
0000
0100
0000
,
0001
0000
0010
0000
0100
0000
1000
0000
0002
0000
0003
0200
0000
0300
0020
0000
0100
0000
0030
0000
0010
0000
0000
0000
1000
0000
0100
0000
0010
0000
0002
0000
,
1003
0002
0013
0000
0100
1000
0001
0020
1030
0020
0031
0000
0100
0000
0010
0000
,
1000
0000
0100
2000
3000
0002
0003
0020
0031
0010
0100
1000
0020
0230
0302
0003
,
0101
0100
0001
1000
0010
0100
0001
1000
0100
0010
0001
1000
0100
0010
0001
1000
,
0100
0010
0001
0010
0100
0010
0001
0010
0100
1000
0001
1000
0100
1000
0001
1000
0100
0000
1000
0000
0001
0000
1000
0000
0100
0000
0000
0010
0000
0000
0001
0000
,
1001
0000
1000
0100
0000
00M0
0100
0001
1000
0000
0010
0100
0000
0000
0001
1000
,
0100
0000
1000
0010
0M00
0000
0010
0001
1000
0000
0010
1000
0000
0000
0001
0010
,
0100
0000
1000
0100
00M0
0000
0100
0001
1000
0000
0001
0010
0000
0000
0100
0010
,
0001
0000
1000
0010
0M00
0000
0010
0001
1000
0000
0010
0100
0000
0000
0001
0010
,
0100
0000
1000
0100
00M0
0000
0100
0001
1000
0000
0001
1000
0000
0000
0001
0010
,
0100
0000
1000
0010
0M00
0000
0010
0001
0100
0000
0001
0100
0000
0000
0001
0010
,
0100
0000
1000
0100
00M0
0000
0100
0001
1000
0000
0010
1000
0000
0000
0001
1000
,
0010
0000
1000
0100
00M0
0000
0100
0001
0010
0000
0001
1000
0000
0001
1000
0001
,
1000
0000
0010
0100
0000
0000
0001
0010
0100
0000
0010
0100
0000
1000
0001
0100
,
0010
0000
1000
0100
0000
1000
0001
1000
0000
0000
0001
0010
0000
0001
0100
0010
,
1000
0000
0010
1000
0000
0001
0010
0100
0000
0000
0010
0001
0000
1000
0001
0100
,
0010
0000
1000
0100
0000
0010
0100
1000
0000
0000
0010
1000
0000
0001
0010
0100
,
1000
0000
0001
0100
0000
0000
0001
0010
0100
0000
0010
0100
0000
0010
0001
1000
,
0001
0000
0100
0010
0000
0000
1000
0001
0100
0000
0010
0100
0000
0001
0100
0001
,
1000
0000
0100
0010
0000
0000
0100
1000
0001
0000
0100
0001
0000
1000
0010
1000
,
0001
0000
0110
0000
1000
0100
0010
0001
,
1001
0000
1000
0000
0100
0000
00M0
0100
0001
0000
0010
0000
0100
0000
0000
0000
,
1000
0000
0001
0000
0010
0M00
0000
0010
1000
0000
0001
0000
1000
0000
0010
0100
,
0010
0000
0100
0000
0001
0000
0010
0000
0200
0000
0300
2000
0010
3000
0020
0000
,
1000
0000
1030
0000
0010
0000
0100
0010
0100
0000
0001
0000
1000
0000
0100
0000
,
0001
0000
0100
0000
1000
0000
0000
0001
0100
0000
0001
0000
1000
0000
0000
0000
,
0001
0000
0100
0000
0010
0M00
0000
0010
0001
0000
1000
0000
0100
0000
0010
0100
,
0010
0000
0001
0000
1000
0000
0001
0000
0200
0000
0300
0020
1000
0030
2000
0000
,
0001
0000
3001
0000
1000
0000
0010
1000
0010
0000
1000
0000
0001
0000
1000
0010
,
1000
0000
0100
0000
0010
0000
0000
0001
0100
0000
0010
0000
0101
0000
0001
0000
,
0010
0000
0100
0000
1000
0000
0000
1000
0010
0000
0010
0000
1010
0000
1000
0100
,
1000
0000
0001
0000
0100
0000
0000
0010
0100
0000
0100
0000
1010
0000
1000
0000
,
0010
0000
0100
0000
0010
0000
0000
1000
0010
0000
0010
0000
0110
0000
0100
0010
,
0100
0000
0001
0000
1000
0000
0000
0100
1000
0000
1000
0000
1100
0000
0000
0000
,
0001
0000
0100
0000
0010
0000
0000
1000
0001
0000
0001
0000
1001
0000
1000
0000
,
0100
0000
0010
0000
0001
0000
1000
0001
2000
0000
0001
3000
1001
0000
0001
0000
,
0100
0000
0001
0000
1000
0000
0010
1000
0001
0000
1000
0000
0200
0000
0000
0000
,
0300
0000
0000
0000
;

//---------------dance-single - ----------------
#NOTES:
     dance-single:
     X-Scale 12:
     Hard:
     8:
     0.517671,0.733757,0.045085,0.417035,0.411400,643.000000,635.000000,8.000000,74.000000,0.000000,0.000000,0.517671,0.733757,0.045085,0.417035,0.411400,643.000000,635.000000,8.000000,74.000000,0.000000,0.000000:
// measure 0
0000
0000
0000
0000
,  // measure 1
0000
0000
0000
0000
,  // measure 2
0000
0000
0000
0000
,  // measure 3
0000
0000
0000
0000
,  // measure 4
1001
0001
1000
0000
1000
0100
0020
0000
,  // measure 5
0031
1000
0001
0000
0001
0010
0200
0000
,  // measure 6
1300
0000
0100
0000
1000
0000
0000
0001
0000
0000
0100
0001
0100
0000
0000
0000
,  // measure 7
0010
0000
0100
0000
0001
0000
0000
1000
0000
0000
0100
0000
1000
0000
0000
0000
,  // measure 8
0001
0000
0100
0000
0001
0000
0000
0000
2000
0000
3000
0200
0000
0300
0020
0000
,  // measure 9
1000
0000
0000
0030
0002
0000
0203
0000
0320
0000
0030
2000
0000
3000
0002
0000
,  // measure 10
0010
0000
0000
0003
0100
0001
0000
0100
0001
0000
1000
0001
1000
0000
0001
0000
,  // measure 11
0100
0000
0010
0000
0100
0000
0000
0001
0000
0000
1000
0000
0001
0000
1000
0001
,  // measure 12
1000
0100
0010
0100
1000
0001
0200
0000
,  // measure 13
0310
0000
0100
0000
0001
0000
0000
1000
0000
0000
0001
0000
0010
0000
0200
0000
,  // measure 14
1000
0000
0310
0020
0001
0000
0130
0200
,  // measure 15
1000
0000
0300
0000
0100
1000
0000
0100
1000
0000
0001
0000
1000
0000
0000
0000
,  // measure 16
0001
0010
1000
0010
0001
0100
0020
0000
,  // measure 17
1030
0001
0020
0000
0230
0000
0320
0032
,  // measure 18
1003
0000
0001
0000
1000
0000
0000
0100
0000
0000
0010
0100
0010
0000
0000
0000
,  // measure 19
0001
0000
1000
0000
0010
1000
0000
0010
0000
0100
0010
0000
1000
0000
0001
1000
,  // measure 20
0001
0000
1000
0000
0200
0000
0000
0000
0310
0000
0100
0000
0000
0010
0000
0000
,  // measure 21
0001
1000
0020
0000
0130
0010
0110
0000
,  // measure 22
1000
0000
0001
0000
0200
0000
0000
0000
0310
0000
0100
0000
0000
0010
0000
0000
,  // measure 23
1000
0000
0100
0000
0020
0000
0000
0000
0031
0000
1000
0000
0001
0000
1000
0001
,  // measure 24
1000
0001
0010
1000
0010
0001
0020
0000
,  // measure 25
1030
0010
0001
1000
0001
0010
0200
0000
,  // measure 26
1300
0000
0001
0000
1000
0001
0000
0100
0000
0000
0010
0100
0010
0000
0000
0000
,  // measure 27
1000
0000
0001
0000
0100
0001
0000
1000
0000
0000
0010
0000
0100
0000
0000
0000
,  // measure 28
0001
0010
0100
0010
0001
1000
0020
0000
,  // measure 29
0031
0000
0010
0000
0100
0000
0010
0000
2000
0000
3000
0002
0000
0003
2000
0000
,  // measure 30
0010
0000
3000
0000
1000
0001
0000
0100
0000
0000
0001
0100
0001
0000
0200
0000
,  // measure 31
0010
0000
0300
0000
0100
0001
0000
1000
0000
0000
0001
0000
0010
0000
0010
0100
,  // measure 32
0010
0001
1000
0010
0001
0010
0200
0000
,  // measure 33
0301
1000
0100
0010
0100
1000
0001
0200
,  // measure 34
0010
0300
0100
0020
1000
0030
0010
2000
,  // measure 35
0001
0000
3000
0000
1000
0001
0000
0010
0000
0000
0001
0000
1000
0000
0000
0000
,  // measure 36
0100
0010
0001
1000
0010
0100
0002
0000
,  // measure 37
0013
0100
2000
0000
3020
0000
0230
0320
,  // measure 38
1030
0000
0100
0000
0010
0001
0000
0010
0002
0000
0000
0000
2003
0000
3002
0000
,  // measure 39
0013
0000
0100
0000
0000
0010
0000
0000
0200
0000
0000
0000
2300
0000
3200
0000
,  // measure 40
0310
0001
1000
0001
0010
0001
1000
0001
,  // measure 41
0010
0100
0010
0001
0010
0100
0010
0001
,  // measure 42
1000
0010
0001
0010
1000
0010
0001
0010
,  // measure 43
1000
0000
0100
0000
0001
0000
0100
0000
1000
0000
0100
0000
0001
0100
0010
0100
,  // measure 44
1000
0000
0010
0000
0100
0000
0010
2000
3001
0000
0010
0000
1000
0000
0010
0000
,  // measure 45
0001
0000
0010
0000
0100
0000
0010
0000
0001
0000
0000
1000
0000
0000
0001
0000
1000
0000
0000
0000
0100
0000
0000
0000
0010
0000
0100
0000
1000
0000
0001
0000
,  // measure 46
0100
0000
1000
0000
0100
0000
0010
0200
0301
0000
0010
0000
0100
0000
1000
0000
,  // measure 47
0010
0000
0100
0000
1000
0000
0100
0000
0001
0000
0000
1000
0000
0000
0001
0000
0100
0000
0000
0000
0010
0000
0000
0000
1000
0000
0010
0000
0100
0000
0020
0000
,  // measure 48
0000
0030
0200
0000
0000
0300
0000
0000
0001
0000
0010
0000
0100
0000
2000
0000
0000
3000
0002
0000
0000
0003
0000
0000
0101
0000
0000
0000
1100
0000
0000
0000
,  // measure 49
0101
0000
0000
0000
0001
0000
0020
0000
0000
0030
0002
0000
0000
0003
2000
0000
0000
3000
0000
0000
0010
0000
1000
0000
0001
0000
1000
0000
0200
0000
0000
0000
,  // measure 50
0310
0100
0010
0100
1000
0010
1000
0010
0100
0001
0100
0001
0010
0100
0010
0100
,  // measure 51
1000
0000
0100
0000
0001
0000
0100
0000
2000
0000
0000
0000
3000
0000
0001
0000
0100
0000
1000
0000
0001
0000
0010
0000
1000
0000
0000
0001
0000
0000
1000
0000
,  // measure 52
1001
0000
0000
1000
0010
0000
0100
0001
0000
0000
0010
0100
0000
0000
1000
0010
,  // measure 53
1000
0000
0000
0100
0010
0000
0001
1000
0000
0000
0100
1000
0000
0000
0001
1000
,  // measure 54
0001
0000
0000
0010
0100
0000
0010
0001
0000
0000
1000
0010
0000
0000
1000
0001
,  // measure 55
1000
0000
0000
0010
1000
0000
0001
0010
0000
0000
0100
0010
0000
0000
0001
1000
,  // measure 56
0001
0000
0000
0100
0001
0000
1000
0001
0000
0000
1000
0100
0000
0000
0100
1000
,  // measure 57
0001
0000
0000
0100
0001
0000
0010
0100
0000
0000
0010
0001
0000
0000
1000
0010
,  // measure 58
1000
0000
0000
0100
0010
0000
0001
1000
0000
0000
0100
1000
0000
0000
0001
1000
,  // measure 59
0001
0000
0000
0100
0010
0000
1000
0001
0000
0000
0100
0001
0000
1000
0100
1000
,  // measure 60
0001
0000
0000
0010
0001
0000
1000
0001
1000
0000
0100
0000
1000
0000
0001
0100
,  // measure 61
0001
0000
0000
0010
0100
0000
0010
0100
1000
0000
0001
0000
0100
0000
0010
0100
,  // measure 62
0001
0000
0000
1000
0010
0000
1000
0001
0010
0000
0100
0000
0010
0000
0001
0010
,  // measure 63
0100
0000
0000
1000
0010
0000
1000
0001
0010
0000
0001
0000
1000
0000
0010
1000
,  // measure 64
0001
0000
0000
0010
0100
0000
1000
0010
1000
0000
0001
0000
0100
0000
1000
0100
,  // measure 65
0001
0000
0000
0010
0001
0000
1000
0010
0100
0000
0010
0000
0001
0000
0010
0100
,  // measure 66
0010
0000
0000
1000
0001
0000
0010
0100
1000
0000
0001
0000
0100
0000
0010
0100
,  // measure 67
0010
0000
0000
1000
0010
0000
0100
0000
0001
0000
0010
0000
1000
0000
0020
0000
,  // measure 68
0001
0000
0100
0000
0001
0100
0031
2000
,  // measure 69
0010
3000
1000
0000
0001
0100
0001
0000
,  // measure 70
0010
0000
0100
0000
1000
0000
0001
0000
2000
0000
3000
0200
0000
0300
0020
0000
,  // measure 71
0001
0030
0100
0000
0010
0100
1000
0020
,  // measure 72
0001
0000
0100
0000
1000
0100
1030
0002
,  // measure 73
0010
0003
0001
0000
1000
0010
1000
0000
,  // measure 74
0100
0000
0010
0000
0001
0000
1000
0000
0020
0000
0030
2000
0000
3000
0002
0000
,  // measure 75
0100
0000
0003
0000
0001
0000
0000
0000
0010
0000
0100
0000
1000
0000
0001
1000
,  // measure 76
0001
0000
0010
0000
0100
0000
0000
1000
0100
0000
1000
0000
0001
0000
0100
0000
,  // measure 77
0010
0000
0100
0000
0001
0000
0000
0010
0100
0000
0010
0000
0001
0000
1000
0001
,  // measure 78
1000
0000
0100
0000
0010
0000
0000
0100
0010
0000
0001
0000
1000
0000
0010
1000
,  // measure 79
0010
0000
0100
0000
0010
0000
0000
1000
0001
0000
0010
0000
0200
0000
0000
0000
,  // measure 80
2300
0000
0000
0000
3000
0000
0002
0100
0000
0000
0103
0000
0201
0000
0000
0000
,  // measure 81
0310
0000
0100
0000
0001
0000
0000
1000
0010
0000
1000
0000
1001
0000
0001
0000
,  // measure 82
0010
1000
0010
0100
2000
0000
3001
1000
,  // measure 83
0100
0000
0001
0000
0100
0000
0010
0000
0002
0000
0003
2000
0000
3000
0002
0000
,  // measure 84
0003
0000
0000
0000
;

//---------------dance-single - ----------------
#NOTES:
     dance-single:
     X-Scale 9:
     Medium:
     6:
     0.388857,0.544400,0.056356,0.445213,0.078899,483.000000,473.000000,10.000000,79.000000,0.000000,0.000000,0.388857,0.544400,0.056356,0.445213,0.078899,483.000000,473.000000,10.000000,79.000000,0.000000,0.000000:
// measure 0
0000
0000
0000
0000
,  // measure 1
0000
0000
0000
0000
,  // measure 2
0000
0000
0000
0000
,  // measure 3
0000
0000
0000
0000
,  // measure 4
0101
0100
0010
0000
0100
0010
1000
0000
,  // measure 5
0001
0010
0100
0000
0010
0100
1000
0000
,  // measure 6
0001
0100
0010
0000
0100
0010
1000
0000
,  // measure 7
0001
0010
0100
0000
0010
0100
1000
0000
,  // measure 8
0001
1000
0100
0000
0010
0001
1000
0000
,  // measure 9
0010
0100
0001
0000
1000
0010
0100
0000
,  // measure 10
0001
1000
0100
0000
0010
0001
1000
0000
,  // measure 11
0010
0100
0001
0000
1000
0010
0100
0000
,  // measure 12
0001
0010
0100
0000
0010
0100
1000
0000
,  // measure 13
0001
0100
0010
0000
0100
0010
1000
0200
,  // measure 14
0010
0000
0310
0002
1000
0000
1003
0020
,  // measure 15
0100
0000
0130
0000
0010
1000
0001
0000
,  // measure 16
1000
0100
0010
0000
0100
0010
0001
0000
,  // measure 17
1000
0001
0100
0000
0020
0000
0130
0001
,  // measure 18
1000
0000
0001
0000
0020
0000
0130
0010
,  // measure 19
0001
0000
0011
0000
1000
0100
1010
0000
,  // measure 20
1001
0001
2000
0000
3010
1000
0001
0000
,  // measure 21
0010
0100
2000
0000
3010
1000
0001
0000
,  // measure 22
0010
0100
2000
0000
3010
1000
0001
0000
,  // measure 23
0010
0100
2000
0000
3010
1000
0001
0000
,  // measure 24
0021
0030
0020
0030
0001
0010
0200
0000
,  // measure 25
2300
3000
2000
3000
0010
0100
0002
0000
,  // measure 26
1003
0000
0001
0000
0010
0100
1000
0000
,  // measure 27
0010
1000
0001
0000
1000
0100
0010
0000
,  // measure 28
0001
0200
0300
0200
0301
1000
0020
0000
,  // measure 29
0130
0000
0020
0000
0031
0000
0010
0000
2000
0000
3000
0002
0000
0003
2000
0000
,  // measure 30
3100
0020
0030
0020
0030
0020
0031
2000
,  // measure 31
0100
3000
1000
0000
0001
1000
0100
0000
,  // measure 32
0010
0200
0300
0200
1300
0001
0200
0000
,  // measure 33
0310
2000
3000
2000
3000
0100
0010
0002
,  // measure 34
0000
0003
1000
0020
0000
0030
0100
0002
,  // measure 35
1000
0003
0001
0000
0010
0100
1000
0000
,  // measure 36
0001
0200
0300
0200
0310
1000
0002
0000
,  // measure 37
0013
0100
2000
0000
3020
0000
0130
0010
,  // measure 38
1000
0000
0100
0000
0000
1000
0000
0000
0002
0000
0000
0000
0103
0000
0010
0000
,  // measure 39
1000
0000
0001
0000
0000
1000
0000
0000
0200
0000
0000
0000
0310
0000
0001
0000
,  // measure 40
1000
0000
0000
0000
0200
0300
1000
0100
1000
0000
0000
0000
0002
0003
0100
0001
,  // measure 41
0100
0000
0000
0000
0020
0030
0100
0010
0100
0000
0000
0000
0002
0003
1000
0001
,  // measure 42
1000
0000
0000
0000
0200
0300
0010
0100
0010
0000
0000
0000
0002
0003
0100
0001
,  // measure 43
0100
0000
0000
0000
0020
0030
1000
0010
1000
0000
0000
0000
0100
0000
0000
0000
,  // measure 44
1000
0100
0010
0001
1000
0100
0010
0001
,  // measure 45
1000
0010
0100
0001
1000
0010
0100
0001
,  // measure 46
1000
0100
0010
0001
1000
0100
0010
0001
,  // measure 47
1000
0010
0100
0001
1000
0010
0100
0001
,  // measure 48
1000
0010
1000
0001
0010
0100
0010
0001
,  // measure 49
1000
0100
0001
0100
1000
0010
0100
0001
,  // measure 50
0201
0000
0300
0020
0000
0030
2000
0000
3001
0000
1000
0000
0001
0000
1000
0100
,  // measure 51
0001
1000
0010
0001
2000
0000
3000
0001
0010
1000
0001
0100
1000
0000
0001
0000
,  // measure 52
1001
0000
1000
0000
0100
0010
0001
0000
,  // measure 53
1000
0000
0001
0000
0100
0010
1000
0000
,  // measure 54
0001
0000
1000
0000
0100
0010
0001
0000
,  // measure 55
1000
0000
0001
0000
0100
0010
1000
0000
,  // measure 56
0001
0000
1000
0000
0100
0010
0001
0000
,  // measure 57
1000
0000
0001
0000
0100
0010
1000
0000
,  // measure 58
0001
0000
1000
0000
0100
0010
0001
0000
,  // measure 59
1000
0000
0001
0000
0100
0010
1000
0000
,  // measure 60
1001
0000
0001
0000
0100
0001
1000
0000
,  // measure 61
0010
0000
0000
0100
0000
0000
0010
0000
0100
0000
0000
0001
0000
0000
1000
0000
,  // measure 62
0001
0000
0000
0010
0000
0000
0001
0000
0010
0000
0000
0100
0000
0000
0010
0000
,  // measure 63
0001
0000
0000
1000
0000
0000
0010
0000
1000
0000
0000
0001
0000
0000
0010
0000
,  // measure 64
0001
0000
1000
0000
0010
0100
0001
0000
,  // measure 65
1000
0000
0001
0000
0010
0100
1000
0000
,  // measure 66
0001
0000
1000
0000
0010
0100
0001
0000
,  // measure 67
1000
0000
1100
0000
0100
0000
1010
2000
,  // measure 68
0001
0000
0010
0000
0000
0000
3010
0200
,  // measure 69
0001
0300
0100
0000
0001
0000
1000
0000
,  // measure 70
0010
0000
0100
0000
1000
0000
0100
0000
0002
0000
0003
0200
0000
0300
0002
0000
,  // measure 71
0013
0000
0100
0000
0010
0001
1000
0020
,  // measure 72
0001
0000
0100
0000
0000
0000
0130
0002
,  // measure 73
1003
0001
0010
0001
,  // measure 74
1000
0000
0100
0000
0001
0000
0100
0000
2000
0000
3000
0020
0000
0030
2000
0000
,  // measure 75
3001
0000
0010
0000
1000
0010
0100
2000
,  // measure 76
3000
0002
0103
0000
0001
0100
0010
2000
,  // measure 77
3000
0000
0002
0000
1003
0000
0000
0100
0000
0000
1000
0000
0001
0000
0000
0000
,  // measure 78
0020
0000
0130
0020
0030
0002
0003
2000
,  // measure 79
3010
0000
1000
0100
0010
0001
2000
0000
,  // measure 80
3200
0000
0300
0002
0000
0003
0020
0000
,  // measure 81
1030
0000
0000
0000
0001
0000
0000
0100
0000
0000
0001
0000
1000
0000
0100
0000
,  // measure 82
0001
1000
0010
0001
2000
0000
3010
0000
,  // measure 83
2000
0000
0000
0000
0001
0000
0000
0000
0020
0000
0030
0002
0000
0003
0200
0000
,  // measure 84
3300
0000
0000
0000
;

//---------------dance-single - ----------------
#NOTES:
     dance-single:
     X-Scale 6:
     Easy:
     3:
     0.256823,0.426052,0.028178,0.118348,0.000000,319.000000,314.000000,5.000000,21.000000,0.000000,0.000000,0.256823,0.426052,0.028178,0.118348,0.000000,319.000000,314.000000,5.000000,21.000000,0.000000,0.000000:
// measure 0
0000
0000
0000
0000
,  // measure 1
0000
0000
0000
0000
,  // measure 2
0000
0000
0000
0000
,  // measure 3
0000
0000
0000
0000
,  // measure 4
1001
0000
1000
0001
,  // measure 5
1000
0000
0010
0100
,  // measure 6
0010
0000
1000
0001
,  // measure 7
1000
0000
0100
0010
,  // measure 8
0100
0000
1000
0001
,  // measure 9
1000
0000
0010
0100
,  // measure 10
0010
0000
1000
0001
,  // measure 11
1000
0000
0100
0010
,  // measure 12
0100
0000
0001
0100
,  // measure 13
0001
0000
0000
0000
1000
0010
0100
0020
,  // measure 14
0000
0000
0030
2000
0000
0000
3000
0002
,  // measure 15
0100
0003
1000
0010
,  // measure 16
1000
0000
0001
0010
,  // measure 17
0001
0000
1000
0000
0200
0000
1300
0002
,  // measure 18
0000
0003
0001
0000
0020
0000
0130
2000
,  // measure 19
0000
3000
0001
0000
0000
0000
0001
0000
,  // measure 20
1001
2000
3100
1000
,  // measure 21
0001
0200
0310
0100
,  // measure 22
0001
2000
3010
1000
,  // measure 23
0001
0200
0310
0100
,  // measure 24
0001
0000
1000
0001
,  // measure 25
1000
0000
0010
0100
,  // measure 26
0010
0000
1000
0001
,  // measure 27
1000
0000
0100
0010
,  // measure 28
0100
0000
1000
0001
,  // measure 29
1000
0000
0010
0100
,  // measure 30
0010
0000
1000
0001
,  // measure 31
1000
0000
0100
0010
,  // measure 32
0100
0000
1000
0010
,  // measure 33
1000
0000
0000
0000
0001
0100
0010
0200
,  // measure 34
0000
0000
0300
0002
0000
0000
0003
2000
,  // measure 35
0010
3000
1000
0001
,  // measure 36
1000
0000
0001
0010
,  // measure 37
0001
0000
0000
0000
2000
0000
3001
0200
,  // measure 38
0010
0300
0000
0000
0200
0000
0301
2000
,  // measure 39
0000
3000
0000
0000
1000
0000
0100
0020
,  // measure 40
0001
0030
0000
0000
0010
0000
0000
0000
0100
0000
0000
0000
1000
0000
0000
0000
,  // measure 41
0001
0010
0100
1000
,  // measure 42
0001
0010
0100
1000
,  // measure 43
0001
0010
0100
1000
,  // measure 44
0001
0100
0010
1000
,  // measure 45
0001
0100
0010
1000
,  // measure 46
0001
0100
0010
1000
,  // measure 47
0001
0100
0010
1000
,  // measure 48
0001
0100
0001
0100
0010
0100
0010
0100
,  // measure 49
0001
1000
0001
1000
0100
1000
0100
1000
,  // measure 50
0010
0100
0010
0100
0001
0100
0001
0100
,  // measure 51
0010
1000
0001
0100
0020
1000
0100
1030
,  // measure 52
1010
1000
0100
0010
,  // measure 53
0001
1000
0100
0010
,  // measure 54
0001
1000
0010
0100
,  // measure 55
0001
1000
0010
0100
,  // measure 56
0001
0010
0100
1000
,  // measure 57
0001
0010
0100
1000
,  // measure 58
0001
0100
0010
1000
,  // measure 59
0001
0000
0100
0000
0010
0000
1000
0001
,  // measure 60
1000
0100
0010
0001
,  // measure 61
1000
0100
0010
0001
,  // measure 62
1000
0010
0100
0001
,  // measure 63
1000
0010
0100
0001
,  // measure 64
1000
0001
0100
0010
,  // measure 65
1000
0001
0100
0010
,  // measure 66
1000
0001
0010
0100
,  // measure 67
0000
1001
0000
1100
,  // measure 68
1000
0100
0010
0001
,  // measure 69
1000
0100
0010
0001
,  // measure 70
1000
0000
0010
0000
0100
0010
0100
0000
,  // measure 71
0001
0000
0010
0000
0100
0010
0100
0000
,  // measure 72
1000
0100
0010
0001
,  // measure 73
1000
0100
0010
0001
,  // measure 74
1000
0000
0010
0000
0100
0010
0100
0000
,  // measure 75
0001
0000
0010
0000
0100
0010
0100
0000
,  // measure 76
1000
0001
0100
0010
,  // measure 77
1000
0000
0001
0000
0100
0001
0100
0000
,  // measure 78
0001
1000
0010
1000
,  // measure 79
0100
0000
0010
0000
0001
1000
0001
0000
,  // measure 80
0100
0010
1000
0001
,  // measure 81
0010
0000
0100
0000
1000
0100
1000
0000
,  // measure 82
0001
0000
1000
0000
0001
0010
0100
0000
,  // measure 83
2000
0000
0000
0000
,  // measure 84
3000
0000
0000
0000
;

//---------------dance-single - ----------------
#NOTES:
     dance-single:
     X-Scale 2:
     Beginner:
     1:
     0.106272,0.213026,0.011271,0.000000,0.000000,132.000000,130.000000,2.000000,0.000000,0.000000,0.000000,0.106272,0.213026,0.011271,0.000000,0.000000,132.000000,130.000000,2.000000,0.000000,0.000000,0.000000:
// measure 0
0000
0000
0000
0000
,  // measure 1
0000
0000
0000
0000
,  // measure 2
0000
0000
0000
0000
,  // measure 3
0000
0000
0000
0000
,  // measure 4
1000
0000
0000
0000
,  // measure 5
0100
0000
0000
0000
,  // measure 6
1000
0000
0000
0000
,  // measure 7
0100
0000
0000
0000
,  // measure 8
0010
0000
0000
0000
,  // measure 9
0001
0000
0000
0000
,  // measure 10
0010
0000
0000
0000
,  // measure 11
0001
0000
0000
0000
,  // measure 12
1000
0000
0000
0000
,  // measure 13
0010
0000
0000
0000
,  // measure 14
1000
0000
0000
0000
,  // measure 15
0010
0000
0000
0000
,  // measure 16
0100
0000
0000
0000
,  // measure 17
0001
0000
0000
0000
,  // measure 18
0100
0000
0000
0000
,  // measure 19
0001
0000
0000
0000
,  // measure 20
0001
0000
0010
0000
,  // measure 21
0100
0000
1000
0000
,  // measure 22
0010
0000
0100
0000
,  // measure 23
0001
0000
0000
0000
,  // measure 24
1001
0000
0000
0000
,  // measure 25
1000
0000
0000
0000
,  // measure 26
0100
0000
0000
0000
,  // measure 27
1000
0000
0000
0000
,  // measure 28
0001
0000
0000
0000
,  // measure 29
0100
0000
0000
0000
,  // measure 30
0001
0000
0000
0000
,  // measure 31
0100
0000
0000
0000
,  // measure 32
0010
0000
0000
0000
,  // measure 33
0100
0000
0000
0000
,  // measure 34
0010
0000
0000
0000
,  // measure 35
0100
0000
0000
0000
,  // measure 36
0001
0000
0000
0000
,  // measure 37
0010
0000
0000
0000
,  // measure 38
0001
0000
0000
0000
,  // measure 39
0010
0000
0000
0000
,  // measure 40
0100
0000
1000
0000
,  // measure 41
0001
0000
1000
0000
,  // measure 42
0100
0000
1000
0000
,  // measure 43
0001
0000
1000
0000
,  // measure 44
0100
0000
0010
0000
,  // measure 45
0001
0000
0010
0000
,  // measure 46
0100
0000
0010
0000
,  // measure 47
0001
0000
1000
0000
,  // measure 48
0001
0000
0100
0000
,  // measure 49
0001
1000
0000
0100
,  // measure 50
0010
0100
0010
0001
,  // measure 51
1000
0001
1000
0000
,  // measure 52
1001
0000
1000
0000
,  // measure 53
0001
0000
1000
0000
,  // measure 54
0001
0000
0010
0000
,  // measure 55
0100
0000
0010
0000
,  // measure 56
0100
0000
1000
0000
,  // measure 57
0010
0000
1000
0000
,  // measure 58
0010
0000
0100
0000
,  // measure 59
0001
0000
0100
0000
,  // measure 60
0001
0000
0010
0000
,  // measure 61
0100
0000
0010
0000
,  // measure 62
0100
0000
1000
0000
,  // measure 63
0100
0000
1000
0000
,  // measure 64
0100
0000
0010
0000
,  // measure 65
0001
0000
0010
0000
,  // measure 66
0001
0000
1000
0000
,  // measure 67
0001
0000
0000
0000
,  // measure 68
1000
0000
0100
0000
,  // measure 69
1000
0000
0100
0000
,  // measure 70
0010
0000
0001
0000
,  // measure 71
0010
0000
0001
0000
,  // measure 72
0100
0000
0010
0000
,  // measure 73
0100
0000
0010
0000
,  // measure 74
1000
0000
0001
0000
,  // measure 75
1000
0000
0001
0000
,  // measure 76
0100
0000
0010
0000
,  // measure 77
0100
0000
0010
0000
,  // measure 78
1000
0000
0100
0000
,  // measure 79
1000
0000
0100
0000
,  // measure 80
0010
0000
0001
0000
,  // measure 81
0010
0000
0001
0000
,  // measure 82
1000
0000
0001
0000
,  // measure 83
1000
0000
0000
0000
,  // measure 84
1000
0000
0000
0000
;
