#VERSION:0.83;
#TITLE:Baby's on Fire;
#SUBTITLE:;
#ARTIST:Die Antwoord;
#TITLETRANSLIT:;
#SUBTITLETRANSLIT:;
#ARTISTTRANSLIT:;
#GENRE:Electro;
#ORIGIN:;
#CREDIT:;
#BANNER:Baby's on Fire-bn.png;
#BACKGROUND:Baby's on Fire-bg.png;
#PREVIEWVID:;
#JACKET:Baby's on Fire-jacket.png;
#CDIMAGE:;
#DISCIMAGE:;
#LYRICSPATH:;
#CDTITLE:cdtitle.png;
#MUSIC:Baby's on Fire.ogg;
#OFFSET:-0.000000;
#SAMPLESTART:36.919998;
#SAMPLELENGTH:14.769000;
#SELECTABLE:YES;
#BPMS:0.000=130.000;
#STOPS:;
#DELAYS:;
#WARPS:;
#TIMESIGNATURES:0.000=4=4;
#TICKCOUNTS:0.000=4;
#COMBOS:0.000=1;
#SPEEDS:0.000=1.000=0.000=0;
#SCROLLS:0.000=1.000;
#FAKES:;
#LABELS:0.000=Song Start;
#BGCHANGES:0.000=Baby's on Fire.avi=1.000=0=0=0=StretchNoLoop====,
99999=-nosongbg-=1.000=0=0=0 // don't automatically add -songbackground-
;
#KEYSOUNDS:;
#ATTACKS:
;

//---------------dance-single - ----------------
#NOTEDATA:;
#CHARTNAME:X-Scale 15;
#STEPSTYPE:dance-single;
#DESCRIPTION:;
#CHARTSTYLE:;
#DIFFICULTY:Hard;
#METER:10;
#RADARVALUES:0.682579,0.806157,0.467418,0.089032,0.560160,644.000000,581.000000,63.000000,12.000000,0.000000,0.000000,0.000000,0.000000,0.000000,0.682579,0.806157,0.467418,0.089032,0.560160,644.000000,581.000000,63.000000,12.000000,0.000000,0.000000,0.000000,0.000000,0.000000;
#CREDIT:;
#NOTES:
0000
0000
0000
0000
,
0000
0000
0000
0000
,
0000
0000
0000
0000
,
0000
0000
0000
0000
,
1100
0000
1000
0000
0001
0000
1000
0100
0010
0001
1000
0001
0200
0000
0000
0310
,
0100
0001
0100
0000
0001
0000
1000
0000
0010
0100
0001
0000
2000
0000
0000
0000
,
3001
0000
0010
0000
1000
0010
0001
0000
1000
0100
0010
0000
0002
0000
0000
1003
,
0001
1000
0010
0100
0001
0010
1000
0000
1000
0010
0001
0000
2000
0000
3100
1000
,
0001
0000
0100
0000
0001
0010
0100
1000
0001
0000
1000
0010
1000
0000
0001
0000
,
0010
0000
0001
0000
0100
0010
0001
0010
1000
0000
0010
1000
0001
0000
2000
0000
,
0100
0000
3000
1000
0001
1000
0100
1000
0001
0010
0100
1000
0001
0100
0010
1000
,
0001
0100
0001
0000
1000
0100
0010
0001
1000
0000
0010
0100
0001
0100
0010
1000
,
1010
0000
0000
0000
1001
0000
0000
1000
0100
0000
1000
0001
0000
0000
0010
0000
,
0001
0100
1000
0100
0001
0000
1000
0100
0010
0000
0001
0100
0000
0001
1000
0000
,
1100
0000
0100
0000
0010
0001
0000
1000
0001
0000
0100
0010
1000
0000
0001
0100
,
0010
0100
0001
1000
0001
0000
1000
0000
0100
0000
1000
0001
1000
0000
0000
0010
,
0100
0000
0001
0000
1000
0000
0100
0000
0010
0000
0001
0010
0001
1000
0010
0100
,
0001
0000
0100
0000
0010
0000
1000
0010
1000
0000
0001
0010
0001
0000
1000
0000
,
0010
0100
0001
0100
0010
1000
0100
0010
0001
0000
0010
0001
0010
0000
0100
1000
,
0001
1000
0010
0000
1000
0100
0010
0001
1000
0000
0010
1000
0000
0000
0000
0000
,
1001
0000
0000
0000
0110
0000
0000
0000
1001
0000
0000
1100
0000
0000
0101
0000
,
0000
0001
0010
1000
0001
0100
1000
0001
,
1001
0000
1000
0000
1100
0000
0100
0000
0101
0000
0000
1001
0000
0000
1100
0000
,
0000
0001
1000
0100
0001
0100
1000
0001
,
1001
0000
0000
0000
0110
0000
0000
0000
1001
0000
0000
0011
0000
0000
1010
0000
,
0000
1000
0100
0001
1000
0010
0001
1000
,
1001
0000
0001
0000
0011
0000
0010
0000
1010
0000
0000
1001
0000
0000
0011
0000
,
0000
1000
0001
0010
1000
0010
0001
1000
,
1001
0000
0001
0000
1000
0000
0001
0000
0010
0000
0000
0100
0010
0000
0100
0000
,
1000
0001
0000
0000
1000
0000
0000
0100
1000
0000
0001
0000
0100
0000
0010
0000
,
1000
0000
0001
0000
1000
0000
0100
0000
0010
0000
0000
0001
1000
0000
0001
0000
,
0010
0001
0000
0000
1000
0000
0000
0001
1000
0000
0100
0000
0001
0000
0100
0000
,
1000
0000
0010
0000
0100
0000
0010
0000
1000
0000
0000
0001
0010
0000
0001
0000
,
1000
0100
0000
0000
0010
0000
0000
0001
1000
0000
0001
0000
0010
0000
0001
0000
,
0100
0000
0010
0000
0001
0000
0010
0000
1000
0000
0000
0001
1000
0000
0100
0000
,
0010
0001
0000
0000
1000
0000
0000
0001
0010
0001
1000
0000
0001
0000
0000
1000
,
0100
0010
0001
0000
0100
0000
0000
0010
0100
0010
1000
0000
0001
0000
0000
1000
,
0010
1000
0001
0000
0100
0000
0000
0010
0100
0010
1000
0000
0001
0000
0000
1000
,
0010
1000
0001
0000
1000
0000
0000
0001
0100
0001
1000
0000
0001
0000
0010
0000
,
0100
0000
1000
0000
0001
0000
0010
0000
0001
0100
0010
1000
0100
0010
0001
0000
,
1100
0000
0000
0000
1000
0000
0001
0010
0100
0000
0010
0000
0001
0000
1000
0010
,
0100
0000
0001
0010
0100
0010
0001
1000
0001
0000
0010
0000
0100
0000
0000
1000
,
0100
0000
1000
0000
0001
0000
0000
1000
0100
0000
1000
0000
0001
0000
0000
1000
,
0100
0000
1000
0100
1000
0000
0100
1000
0100
0000
1000
0000
0001
0000
0000
0100
,
0001
1000
0001
0000
0100
0000
0010
0100
0001
0000
1000
0000
0001
0000
0000
0100
,
0010
0000
0100
0000
1000
0000
0100
0001
0100
0000
0010
0000
1000
0000
0000
0001
,
0100
0000
0001
0000
1000
0000
0000
0001
0100
0000
0001
0000
1000
0000
0000
0001
,
0100
0000
0001
0100
0001
0000
0100
0001
0100
0000
0001
0000
1000
0000
0001
0000
,
1001
0000
1000
0000
1010
0000
0000
0000
0011
0000
0000
0011
0000
0000
1000
0000
,
1010
0000
0000
0000
0011
0000
0000
0000
0110
0000
0000
0110
0000
0000
1000
0000
,
1100
0000
0000
0000
1001
0000
0000
0000
0101
0000
0000
0101
0000
0000
0010
0000
,
0011
0000
0000
0000
1001
0000
0000
0000
0110
0000
0000
0110
0000
0000
1000
0000
,
1010
0000
0010
0000
0110
0000
0000
0000
0101
0000
0000
0101
0000
0000
1000
0000
,
1100
0000
0100
0000
0110
0000
0010
0000
0001
0100
0001
0100
0001
0100
0001
0100
,
0002
0000
0003
0000
2000
0000
3000
0000
0020
0000
0030
0200
0000
0300
0002
0000
,
2003
0000
0000
0000
0000
0000
0000
0000
0000
0000
0000
0000
0000
0000
0000
3000
,
1100
0000
0000
0000
1001
0000
0000
0000
0101
0000
0000
0110
0000
0000
1010
0000
,
1000
0001
0010
1000
0001
0100
1000
0001
,
1000
0000
0010
0000
0100
0000
0010
0000
1000
0000
0001
0010
0000
0000
0001
0000
,
0000
1000
0100
0000
1000
0000
0001
0000
0100
0000
0010
0000
1000
0000
0001
0000
,
1001
0000
0000
0000
1100
0000
0000
0000
0101
0000
0000
1001
0000
0000
0011
0000
,
0010
1000
0001
0100
1000
0010
0100
0010
,
1000
0000
0100
0000
0001
0000
0100
0000
1000
0000
0000
0001
0000
0000
1000
0000
,
0001
0010
0001
0010
0001
0010
0001
0010
0100
1000
0100
1000
0100
1000
0100
1000
,
0001
0000
1000
0000
0100
0000
1000
0000
0010
0000
0100
0010
0000
0100
0000
0000
,
0001
0010
0000
0000
0001
0000
0000
1000
0010
0000
1000
0000
0100
0000
0010
0000
,
0001
0000
0100
0000
0010
0000
1000
0000
0001
0000
0000
1000
0001
0000
1000
0000
,
0100
0010
0000
0000
0001
0000
0000
1000
0100
0000
1000
0000
0001
0000
0100
0000
,
0010
0000
0001
0000
0010
0000
1000
0000
0001
0000
0000
0100
0001
0000
1000
0000
,
0010
1000
0000
0000
0001
0000
0000
0010
0001
0000
1000
0000
0100
0000
0010
0000
,
0011
0000
0000
0000
1010
0000
0000
0000
0011
0000
0000
0110
0000
0000
1100
0000
,
0000
0000
0000
0000
0000
0000
0000
0001
,
0100
0000
0001
1000
0100
2000
0000
3000
0000
0000
0000
0000
0000
0000
0000
0000
;

//---------------dance-single - ----------------
#NOTEDATA:;
#CHARTNAME:X-Scale 13;
#STEPSTYPE:dance-single;
#DESCRIPTION:;
#CHARTSTYLE:;
#DIFFICULTY:Medium;
#METER:9;
#RADARVALUES:0.642302,0.698669,0.868062,0.029677,0.370967,606.000000,489.000000,117.000000,4.000000,0.000000,0.000000,0.000000,0.000000,0.000000,0.642302,0.698669,0.868062,0.029677,0.370967,606.000000,489.000000,117.000000,4.000000,0.000000,0.000000,0.000000,0.000000,0.000000;
#CREDIT:;
#NOTES:
0000
0000
0000
0000
,
0000
0000
0000
0000
,
0000
0000
0000
0000
,
0000
0000
0000
0000
,
1100
0000
1000
0000
0001
0000
0000
0000
1000
0000
0000
0010
1000
0000
0001
0000
,
0100
0010
0000
0000
1000
0000
0000
0100
0010
0000
0001
0000
0010
0000
0100
0000
,
1000
0000
0001
0000
1000
0100
1000
0000
0001
0000
0000
0100
0001
0000
0010
0000
,
0100
1000
0000
0000
0001
0000
0000
1000
0010
0000
0100
0000
1000
0000
0100
0000
,
0001
0010
1000
0010
0001
0010
1000
0010
,
0001
0100
0010
0100
0001
0100
0010
0200
,
1000
0000
0301
0100
0001
0100
0010
1000
0010
1000
0100
0010
0100
0010
0001
1000
,
0001
1000
0001
0000
0010
0000
0000
0100
0010
0000
0001
0000
1000
0000
0100
0000
,
1010
0000
0000
0000
1010
0000
0000
0001
0010
0000
0010
2000
0000
3000
0001
0000
,
0010
0001
0000
0000
1000
0000
0000
0100
1000
0000
0010
0000
0100
0000
0001
0000
,
1001
0000
0000
0000
1001
0000
0000
1000
0100
0000
0100
0002
0000
0003
1000
0000
,
0100
1000
0000
0000
0001
0000
0000
0100
0001
0000
0010
0000
0100
0000
1000
0001
,
1000
0000
0010
0000
0001
0000
0010
0000
0100
0000
0010
0100
0000
0001
0010
0001
,
1000
0000
0100
0000
0001
0000
0100
0000
1000
0000
0010
1000
0010
0000
0000
0100
,
0010
0000
0100
0000
1000
0000
0100
0000
0001
0000
0000
0010
0001
0000
1000
0010
,
1000
0000
0100
0000
0010
0000
0001
0010
0001
0000
1000
0010
0000
0000
0000
0000
,
1010
0000
0000
0000
1010
0000
0000
0000
0011
0000
0000
1001
0000
0000
1010
0000
,
0000
1010
0000
0000
1010
0000
0000
1010
0000
0000
0001
0000
0010
0000
0001
0000
,
0011
0000
0000
0000
0011
0000
0000
0000
0110
0000
0000
1001
0000
0000
1100
0000
,
0000
1000
0100
0010
0001
0100
0010
1000
,
1001
0000
0000
0000
1001
0000
0000
0000
0110
0000
0000
0011
0000
0000
1010
0000
,
0000
1010
0000
0000
1010
0000
0000
1010
0000
0000
0001
0000
0100
0000
0010
0000
,
0101
0000
0000
0000
0101
0000
0000
0000
1100
0000
0000
0110
0000
0000
0011
0000
,
0000
1000
0100
0010
0001
0100
0010
1000
,
1001
0000
0001
0000
1000
0000
0001
0000
0011
0000
0000
0110
0000
0000
1100
0000
,
0000
0100
1000
0000
0001
0000
0000
0010
0001
0000
1000
0000
0010
0000
1000
0000
,
0001
0000
0010
0000
0100
0000
1000
0000
0011
0000
0000
0110
0000
0000
1100
0000
,
0000
0010
1000
0000
0001
0000
0000
0010
0001
0000
1000
0000
0010
0000
0100
0000
,
0001
0000
0010
0000
0100
0000
1000
0000
1100
0000
0000
0110
0000
0000
0011
0000
,
0000
1000
0001
0000
1000
0000
0000
0010
0100
0000
0010
0000
0001
0000
0010
0000
,
0100
0000
0001
0000
1000
0000
0001
0000
0011
0000
0000
0110
0000
0000
1100
0000
,
0000
0010
1000
0000
0001
0000
0000
0010
0000
0010
1000
0000
0001
0000
0000
0010
,
0000
0010
1000
0000
0001
0000
0000
0010
0000
0010
1000
0000
0001
0000
0000
0010
,
0000
0010
1000
0000
0001
0000
0000
0010
0000
0010
1000
0000
0001
0000
0000
0010
,
0000
0010
1000
0000
0001
0000
0010
0000
0100
0000
1000
0000
0001
0000
0010
0000
,
0100
1000
0001
0010
0100
1000
0001
1000
,
1001
0000
0000
0000
0001
0000
0000
0000
1000
0000
0000
0010
0000
0000
1000
0000
,
0000
0100
0000
0000
1000
0000
0000
0001
0000
0000
0010
0000
0001
0000
1000
0000
,
1001
0001
1001
0000
1001
1000
1001
0000
,
1001
0001
1001
1000
1001
0001
1001
0000
,
1100
0000
1000
0000
0010
0000
1000
0010
1000
0000
0001
0000
0010
0000
0000
0000
,
0100
0000
1000
0000
0001
0000
1000
0001
1000
0000
0010
0000
0100
0000
0010
0000
,
0110
0100
0110
0000
0110
0010
0110
0000
,
0110
0100
0110
0010
0110
0100
0110
0000
,
1001
0000
0000
0000
1001
0000
0000
0000
1100
0000
0000
1100
0000
0000
1100
0000
,
0101
0000
0000
0000
0101
0000
0000
0000
0011
0000
0000
0011
0000
0000
0011
0000
,
0110
0000
0000
0000
0110
0000
0000
0000
1001
0000
0000
1001
0000
0000
1001
0000
,
1010
0000
0000
0000
1010
0000
0000
0000
0110
0000
0000
0110
0000
0000
0110
0000
,
0001
0000
0010
0000
0001
0000
0000
0000
0011
0000
0000
0110
0000
0000
1100
0000
,
0001
0000
1000
0000
0001
0000
1000
0000
0001
1000
0001
1000
0001
1000
0001
1000
,
0001
0000
0000
0000
0010
0000
0000
0000
0101
0000
0000
0110
0000
0000
1010
0000
,
0000
0000
0000
0000
,
1001
0000
0000
0000
0110
0000
0000
0000
1001
0000
0000
1000
0100
0000
1000
0000
,
0000
0001
0100
0000
0001
0000
0000
1000
0100
0000
1000
0000
0010
0000
0100
0000
,
0001
0000
0010
0000
0100
0000
1000
0000
0001
0000
0000
0100
0001
0000
1000
0000
,
0000
0010
1000
0000
0010
0000
0001
0000
0010
0000
0100
0000
0010
0000
1000
0000
,
1001
0000
0000
0000
0110
0000
0000
0000
1001
0000
0000
0010
0001
0000
1000
0000
,
0000
0100
0010
0000
0100
0000
0000
1000
0001
0000
0010
0000
1000
0000
0010
0000
,
0001
0000
0100
0000
0010
0000
1000
0000
0100
0000
0000
0010
0100
0000
1000
0000
,
0001
0010
1000
0010
0001
0010
0100
1000
,
1100
0000
0100
0000
0110
0000
0010
0000
0101
0000
0000
1001
0000
0000
1100
0000
,
0000
0001
1000
0000
1001
0000
0000
0100
0010
0000
0001
0000
1000
0000
0001
0000
,
1001
0000
1000
0000
1100
0000
0100
0000
1010
0000
0000
0110
0000
0000
0101
0000
,
0000
0001
1000
0000
1001
0000
0000
0010
0100
0000
0001
0000
0010
0000
0100
0000
,
1100
0000
1000
0000
1001
0000
0001
0000
0101
0000
0000
0110
0000
0000
1001
0000
,
0000
0100
0010
0000
0101
0000
0000
0001
1000
0000
0010
0000
0100
0000
0001
0000
,
1001
0000
0000
0000
0110
0000
0000
0000
1001
0000
0000
1100
0000
0000
0101
0000
,
0000
0000
0000
0000
0000
0000
0000
1000
,
0100
0000
0010
0000
0100
0020
0000
0030
0000
0000
0000
0000
0000
0000
0000
0000
;

//---------------dance-single - ----------------
#NOTEDATA:;
#CHARTNAME:X-Scale 9;
#STEPSTYPE:dance-single;
#DESCRIPTION:;
#CHARTSTYLE:;
#DIFFICULTY:Easy;
#METER:6;
#RADARVALUES:0.356128,0.394384,0.319031,0.014839,0.000000,336.000000,293.000000,43.000000,2.000000,0.000000,0.000000,0.000000,0.000000,0.000000,0.356128,0.394384,0.319031,0.014839,0.000000,336.000000,293.000000,43.000000,2.000000,0.000000,0.000000,0.000000,0.000000,0.000000;
#CREDIT:;
#NOTES:
0000
0000
0000
0000
,
0000
0000
0000
0000
,
0000
0000
0000
0000
,
0000
0000
0000
0000
,
1001
1000
0001
1000
,
0100
0010
0100
0010
,
0001
1000
0001
0000
0010
0000
0100
0000
,
1000
0010
0100
0001
,
1000
0100
1000
0000
0001
0100
0001
0000
,
0010
0100
0010
0000
0001
1000
0001
0020
,
0100
0030
0010
0100
1000
0000
0001
0000
,
1000
0010
1000
0000
0001
0010
0100
0010
,
0001
0011
0010
0101
,
0010
1001
0100
1001
,
0010
0110
0100
1010
,
0001
1001
0100
1010
,
1000
0100
0010
0000
0100
0010
0001
0000
,
1000
0010
0100
0000
0010
0100
0001
0010
,
0100
0000
1000
0010
0100
0000
0010
0100
,
0001
0000
0000
0000
,
1001
0000
1000
0000
1100
0000
0000
0101
,
0000
0000
1100
0000
0000
0100
0010
0100
,
0110
0000
0001
0000
1001
0000
0000
0110
,
0000
0000
1100
0000
0000
0001
0010
0100
,
1100
0000
1000
0000
1001
0000
0000
0110
,
0000
0000
1001
0000
0000
0001
0100
0001
,
0101
0000
0100
0000
0110
0000
0000
1010
,
0000
0000
0000
0000
,
1001
0001
0100
0001
,
1000
0000
0001
0000
0100
0001
1000
0001
,
0100
0010
0100
0001
,
1000
0000
0001
0000
1000
0100
0010
0100
,
1000
0001
0010
0001
,
1000
0000
0100
0000
0010
0100
1000
0001
,
1000
0010
0100
0010
,
1000
0100
0010
0001
1000
0100
0010
0001
,
1000
1010
0001
0011
,
1000
1001
0001
0101
,
0100
0110
0010
1010
,
1000
1001
0001
0011
,
0100
0000
0100
0000
1000
0000
0000
0001
,
0000
0000
1000
0000
0000
0100
0010
0001
,
1000
1001
0001
1001
,
1000
1000
1000
1001
,
0001
0010
0001
1000
,
1000
0010
0001
0000
0001
0010
1000
0000
,
0001
1001
1000
1001
,
0001
0001
0001
1001
,
1000
0000
0000
0000
0100
0000
0000
1000
,
1000
0000
0000
0000
0100
0000
0000
1000
,
1000
0000
0000
0000
0001
0000
0000
1000
,
1000
0000
0000
0000
0001
0000
0000
1000
,
1000
0001
1000
0000
0010
0000
0000
1000
,
1000
0010
0100
0010
0200
0000
0000
0000
,
0301
0000
1000
0000
0001
0000
0000
1001
,
0000
0000
0000
0000
,
1100
1000
0100
1000
,
0100
0010
0001
0010
,
0001
1000
0001
1000
,
0001
0010
0100
0010
,
0100
1000
0010
1000
,
0010
0100
0001
0100
,
0001
0010
0100
0010
,
0100
1000
0001
1000
,
1001
0001
1000
0000
0100
0000
0010
0000
,
0001
0000
1000
0000
0001
0010
1000
0010
,
0001
1000
0001
0000
0100
0000
0010
0000
,
0100
0000
0001
0000
1000
0010
0001
0010
,
1000
0001
1000
0000
0100
0000
1000
0000
,
0001
0000
0100
0000
0010
0100
1000
0100
,
0010
0000
1000
0000
0001
0000
0000
1001
;

//---------------dance-single - ----------------
#NOTEDATA:;
#CHARTNAME:X-Scale 2;
#STEPSTYPE:dance-single;
#DESCRIPTION:;
#CHARTSTYLE:;
#DIFFICULTY:Beginner;
#METER:2;
#RADARVALUES:0.150506,0.236630,0.022258,0.000000,0.000000,142.000000,139.000000,3.000000,0.000000,0.000000,0.000000,0.000000,0.000000,0.000000,0.150506,0.236630,0.022258,0.000000,0.000000,142.000000,139.000000,3.000000,0.000000,0.000000,0.000000,0.000000,0.000000,0.000000;
#CREDIT:;
#NOTES:
// measure 0
0000
0000
0000
0000
,  // measure 1
0000
0000
0000
0000
,  // measure 2
0000
0000
0000
0000
,  // measure 3
0000
0000
0000
0000
,  // measure 4
0000
1000
0000
1000
,  // measure 5
0000
0001
0000
0001
,  // measure 6
0000
0100
0000
0100
,  // measure 7
0000
0010
0000
0010
,  // measure 8
0000
1000
0000
1000
,  // measure 9
0000
0001
0000
0001
,  // measure 10
0000
0010
0000
0010
,  // measure 11
0000
0100
0000
0100
,  // measure 12
1000
1000
0000
0001
,  // measure 13
0000
0010
0000
0001
,  // measure 14
1000
0001
0000
0010
,  // measure 15
0000
0001
0000
0010
,  // measure 16
0100
0010
0000
0001
,  // measure 17
0000
1000
0000
0010
,  // measure 18
1000
0010
0000
0100
,  // measure 19
0000
0000
0000
0000
,  // measure 20
0001
0000
0000
0000
1000
0000
0000
1000
,  // measure 21
0000
0000
0100
0000
,  // measure 22
0010
0000
0000
0000
0001
0000
0000
0001
,  // measure 23
0000
0000
1000
0000
,  // measure 24
0001
0000
0000
0000
0100
0000
0000
0100
,  // measure 25
0000
0010
0000
0010
,  // measure 26
1000
0000
0000
0000
0001
0000
0000
0001
,  // measure 27
0000
0000
0000
0000
,  // measure 28
1001
0000
1000
0000
,  // measure 29
0100
0000
1000
0000
,  // measure 30
0100
0000
0010
0000
,  // measure 31
0001
0000
0010
0000
,  // measure 32
0001
0000
1000
0000
,  // measure 33
0001
0000
1000
0000
,  // measure 34
0001
0000
0100
0000
,  // measure 35
0001
0000
0100
0000
,  // measure 36
0001
0000
1000
0000
,  // measure 37
0001
0000
1000
0000
,  // measure 38
0001
0010
0100
1000
,  // measure 39
0001
0010
0100
1000
,  // measure 40
0001
0000
0000
0000
,  // measure 41
1000
0000
0000
0000
,  // measure 42
0001
0000
1000
0000
,  // measure 43
0001
1000
0001
1000
,  // measure 44
0001
0000
0010
0000
,  // measure 45
0100
0000
1000
0000
,  // measure 46
0010
0000
0100
0000
,  // measure 47
0010
0100
0010
0100
,  // measure 48
0010
0000
1000
0000
,  // measure 49
0001
0000
1000
0000
,  // measure 50
0010
0000
1000
0000
,  // measure 51
0001
0000
1000
0000
,  // measure 52
0010
0000
1000
0000
,  // measure 53
0001
0000
1000
0000
,  // measure 54
0100
0000
0000
0000
,  // measure 55
0000
0000
0000
0000
,  // measure 56
1001
0000
0001
0000
,  // measure 57
1000
0000
0001
0000
,  // measure 58
1000
0000
0100
0000
,  // measure 59
0010
0000
0100
0000
,  // measure 60
0010
0000
0001
0000
,  // measure 61
0100
0000
0001
0000
,  // measure 62
0100
0000
0010
0000
,  // measure 63
1000
0000
0000
0000
,  // measure 64
1001
0000
1000
0000
,  // measure 65
0100
0000
1000
0000
,  // measure 66
0100
0000
0010
0000
,  // measure 67
0001
0000
0010
0000
,  // measure 68
0001
0000
1000
0000
,  // measure 69
0001
0000
1000
0000
,  // measure 70
0001
0000
0000
0000
1000
0000
0000
1000
;
