#VERSION:0.83;
#TITLE:BUTTS TITS MONEY;
#SUBTITLE:;
#ARTIST:KNOWER;
#TITLETRANSLIT:;
#SUBTITLETRANSLIT:;
#ARTISTTRANSLIT:;
#GENRE:Electro;
#ORIGIN:;
#CREDIT:;
#BANNER:BUTTS TITS MONEY-bn.png;
#BACKGROUND:BUTTS TITS MONEY-bg.png;
#PREVIEWVID:;
#JACKET:BUTTS TITS MONEY-jacket.png;
#CDIMAGE:;
#DISCIMAGE:;
#LYRICSPATH:;
#CDTITLE:cdtitle.png;
#MUSIC:BUTTS TITS MONEY.ogg;
#OFFSET:-0.005000;
#SAMPLESTART:52.945999;
#SAMPLELENGTH:14.118000;
#SELECTABLE:YES;
#BPMS:0.000=136.000;
#STOPS:107.000=0.221,
110.500=0.221,
114.000=0.221,
117.500=0.221,
150.000=0.882,
151.000=0.441,
152.000=0.441,
153.000=0.221,
153.500=0.110,
153.750=0.110,
154.000=0.110,
154.250=0.110,
154.500=0.110,
154.750=0.110,
155.000=0.110,
155.250=0.110,
155.500=0.110,
155.750=0.110,
156.000=0.110,
156.250=0.110,
156.500=0.110,
156.750=0.110;
#DELAYS:;
#WARPS:;
#TIMESIGNATURES:0.000=4=4;
#TICKCOUNTS:0.000=4;
#COMBOS:0.000=1;
#SPEEDS:0.000=1.000=0.000=0,
153.500=2.000=6.000=0,
157.000=1.000=1.000=0;
#SCROLLS:0.000=1.000;
#FAKES:;
#LABELS:0.000=Song Start;
#BGCHANGES:0.000=BUTTS TITS MONEY.avi=1.000=1=0=0=StretchNoLoop==CrossFade==,
99999=-nosongbg-=1.000=0=0=0 // don't automatically add -songbackground-
;
#KEYSOUNDS:;
#ATTACKS:
;

//---------------dance-single - ----------------
#NOTEDATA:;
#CHARTNAME:X-Scale 14;
#STEPSTYPE:dance-single;
#DESCRIPTION:;
#CHARTSTYLE:;
#DIFFICULTY:Hard;
#METER:9;
#RADARVALUES:0.643274,0.720172,0.058807,0.294034,0.407447,536.000000,529.000000,7.000000,35.000000,6.000000,0.000000,1.000000,0.000000,0.000000,0.643274,0.720172,0.058807,0.294034,0.407447,536.000000,529.000000,7.000000,35.000000,6.000000,0.000000,1.000000,0.000000,0.000000;
#CREDIT:;
#NOTES:
// measure 0
0000
0000
0000
0000
,  // measure 1
0000
0000
0000
0000
,  // measure 2
1000
0000
0000
0100
1000
0000
0000
0000
0001
0000
0000
0000
0100
0000
0010
0000
2000
0000
0000
0000
3200
0000
0000
0000
0320
0000
0000
0000
0030
0000
0000
0000
,  // measure 3
0002
0000
0000
0000
0003
0200
0000
0000
0300
2000
0000
0000
3000
0000
0000
0000
2000
0000
0000
3000
0000
0200
0000
0000
0300
0002
0000
0000
0003
0000
0000
1000
,  // measure 4
0001
0000
0000
0000
1000
0001
0000
0000
0010
0000
0000
0000
0100
0000
0010
0000
0002
0000
0000
0000
0023
0000
0000
0000
0230
0000
0000
0000
0300
0000
0000
0000
,  // measure 5
2000
0000
0000
0000
3000
0020
0000
0000
0030
0002
0000
0000
0003
0000
0000
0000
0002
0000
0000
0000
0003
0020
0000
0000
0030
2000
0000
0000
3000
0000
0000
0000
,  // measure 6
1100
0000
0000
1000
0001
0000
0000
0000
1000
0000
0000
0000
0010
0000
1000
0000
0001
0000
0000
0000
0010
0000
0000
0000
0100
0000
0000
0000
0010
0000
0001
0000
,  // measure 7
1000
0000
0000
0000
0001
0000
0000
0000
0100
0000
0000
0000
0010
0000
1000
0000
0010
0000
0000
0000
0100
0000
0000
0000
0001
0000
0000
0000
0010
0000
0000
0001
,  // measure 8
1000
0000
0000
0010
1000
0000
0000
0000
1000
0000
0000
0000
0010
0000
0100
0000
0001
0000
0000
0000
1000
0000
0000
0000
0001
0000
0000
0000
1000
0000
0000
0001
,  // measure 9
1000
0100
0010
0001
0010
0001
0010
0001
,  // measure 10
0011
0000
0000
0000
1000
0000
0000
0000
0001
0000
0000
0000
0010
0000
0000
0000
0100
0000
0000
0000
1000
0000
0000
0000
0010
0000
0000
0000
0000
0000
0000
0100
,  // measure 11
0010
0000
0000
0000
0100
0000
0000
0000
0001
0000
0000
0000
1000
0000
0000
0001
1000
0000
0000
0000
0100
0000
1000
0000
0001
0000
0000
0000
0010
0000
0000
0000
,  // measure 12
1000
0000
0000
0000
0010
0000
0000
0000
0100
0000
0000
0000
1000
0000
0000
0000
0001
0000
0000
0000
1000
0000
0000
0000
0010
0000
0000
0000
0M00
0000
0000
0010
,  // measure 13
0001
0000
0000
0000
1000
0000
0000
0000
0010
0000
0000
0000
0000
0000
0000
0010
0100
0000
0000
0000
0001
0000
0000
0000
1000
0000
0000
0000
0100
0000
0000
0000
,  // measure 14
0001
0000
0100
0000
0010
0000
0100
0000
1000
0000
0001
0000
0010
0000
0M00
0010
,  // measure 15
1000
0000
0000
0000
0001
0000
0000
0000
0010
0000
0000
0000
0001
0000
0000
1000
0100
0000
0000
0000
1000
0000
0000
0000
0200
0000
0000
0000
0320
0000
0000
0000
,  // measure 16
0031
0000
0000
0000
1000
0000
0000
0000
0001
0000
0000
0000
0100
0000
0000
0000
0010
0000
0000
0000
1000
0000
0000
0000
0001
0000
0000
0000
0000
0000
0000
0010
,  // measure 17
0001
0000
1000
0000
0001
0000
0001
0010
0100
0000
0010
0100
2000
0000
0000
0000
,  // measure 18
3001
0000
0000
0000
1000
0000
0000
0000
0100
0000
0000
0000
1000
0000
0000
0000
0010
0000
0000
0000
0100
0000
0000
0000
0001
0000
0000
0000
0010
0000
0000
0001
,  // measure 19
0010
0000
0000
0000
0100
0000
0000
0000
1000
0000
0000
0000
0001
0000
0000
1000
0010
0000
0000
0000
0100
0000
0000
0000
0001
0000
0100
0000
0000
0000
0001
0000
,  // measure 20
1000
0000
0000
0000
1000
0000
0000
0000
0010
0000
0000
0000
0100
0000
0000
0000
0001
0000
0000
0000
0010
0000
0000
0000
0100
0000
0000
0000
1000
0000
0000
0100
,  // measure 21
1000
0000
0000
0000
0001
0000
0000
0000
1000
0000
0000
0000
0010
0000
0000
0100
0010
0000
0000
0000
0100
0000
0000
0000
1000
0000
0000
0000
0100
0000
0000
0000
,  // measure 22
0002
2003
3001
0010
0100
1000
0001
M11M
,  // measure 23
0000
0000
0000
1000
0100
0000
0000
0000
1000
0000
0000
0000
0001
0000
0100
0000
0001
0000
0000
0000
0100
0000
0000
0000
1000
0000
0000
0000
0100
0000
0000
0000
,  // measure 24
0010
0000
0000
0000
0100
0000
0000
0000
0001
0000
0000
0000
0010
0000
0000
0000
0100
0000
0000
0000
1000
0000
0000
0000
0001
0000
0000
0000
0000
0000
0000
0010
,  // measure 25
0001
0000
0000
0000
0001
0000
0000
0000
1000
0000
0000
0000
0000
0000
0000
0010
1000
0000
0000
0000
1000
0000
0000
0000
0001
0000
0000
0000
0000
0000
0000
0000
,  // measure 26
1000
0100
0001
1000
0010
0001
1000
0001
,  // measure 27
0100
1000
0001
0010
1000
0001
1000
0100
,  // measure 28
0001
1000
0010
0001
1000
0001
0100
1000
,  // measure 29
0001
0000
0010
0000
1000
0000
0001
0000
1001
0000
0000
1000
0100
0000
1000
0000
,  // measure 30
0001
0000
0010
0000
0001
0000
1000
0010
0100
0000
000M
0100
1000
0000
0001
0000
,  // measure 31
1000
0000
0000
0000
0100
0000
0000
0000
0020
0000
0000
0000
0000
0000
0030
0001
0010
0000
0000
0000
0000
0000
0010
0000
0001
0000
0000
0000
1000
0000
0000
0000
,  // measure 32
0010
0000
0001
0000
0010
0000
0100
0010
1000
0000
0000
0001
1000
0000
0100
0000
,  // measure 33
0010
0000
0000
0000
0100
0000
0000
0000
2000
0000
0000
0000
0000
0000
3000
0001
1000
0000
0000
0000
0000
0000
0100
0000
1000
0000
0000
0000
0001
0000
0000
0000
,  // measure 34
0010
0000
0100
0000
1000
0000
0010
0100
0010
0000
M000
0010
0001
0000
0001
0000
,  // measure 35
1000
0000
0000
0000
0100
0000
0000
0000
0020
0000
0000
0000
0000
0000
0030
0001
0010
0000
0000
0000
0000
0000
0010
0000
0100
0000
0000
0000
1000
0000
0000
0000
,  // measure 36
0010
1000
0010
0000
1000
0010
1000
0000
0001
0100
0001
0100
0010
1000
0010
1000
,  // measure 37
0100
0010
0100
0010
0001
1000
0001
1000
0001
0000
0000
0000
0001
0000
0000
0000
,  // measure 38
0001
0000
0000
0000
0001
0000
1000
0001
1000
0010
0100
0010
0001
0010
1000
0010
,  // measure 39
0100
0001
1000
0100
0010
0000
0001
0000
2000
0000
0000
0000
3100
0000
0020
0000
,  // measure 40
0030
0001
0200
0000
0310
0100
1000
0100
,  // measure 41
0002
0000
1003
0000
0200
0000
1300
0020
,  // measure 42
0030
1000
0002
0000
1003
0100
0001
0100
,  // measure 43
0020
0000
0000
0000
0031
0000
0000
0000
1001
0000
0000
0000
1000
0000
0000
0100
,  // measure 44
1000
0000
0001
0000
0010
0000
0001
0000
0100
0000
1000
0000
0100
0000
0010
0100
,  // measure 45
0001
0000
1000
0000
0010
0000
1000
0000
0100
0000
0000
0000
0010
0000
0000
0001
,  // measure 46
0010
0000
0001
0000
1000
0000
0010
0000
0100
0010
0100
0010
0100
0010
0100
0010
,  // measure 47
1000
0001
1000
0001
1000
0001
1000
0001
1001
0000
0000
0100
1000
0000
0001
1000
,  // measure 48
0001
0000
0010
0000
1000
0000
0010
0000
0001
0000
0100
0000
0010
0000
1000
0001
,  // measure 49
1000
0000
0001
0000
1000
0000
0100
0010
0001
0000
1000
0000
0100
0000
0010
0100
,  // measure 50
1000
0000
0001
0000
0100
0000
0010
0000
1000
0000
0100
0000
0010
0000
0001
0100
,  // measure 51
0010
0000
1000
0000
0040
0000
0000
0000
0130
0000
0010
0000
1000
0000
0001
1000
,  // measure 52
0010
0000
1000
0000
0001
0000
0010
0000
1000
0000
0010
0000
0100
0000
1000
0100
,  // measure 53
1000
0000
0001
0000
0010
0000
0001
0000
1000
0000
0010
0000
0100
0000
0010
0100
,  // measure 54
0001
0100
0010
1000
0100
0001
0100
0010
,  // measure 55
0001
0000
1000
0001
0100
0010
1000
0000
1010
0000
0010
0000
0001
0000
0010
0000
,  // measure 56
0100
0000
0001
0000
1000
0000
0000
0000
0001
0000
0100
0000
0010
0000
1000
0010
,  // measure 57
0100
0001
1000
0001
0100
0010
0001
0010
,  // measure 58
1000
0000
0001
0000
0010
0000
0000
0000
0100
0000
1000
0000
0001
0000
1000
0001
,  // measure 59
0100
0010
1000
0010
0100
0001
1000
0001
,  // measure 60
0010
0000
0100
0000
1000
0000
0000
0000
0001
0000
0010
0000
0100
0000
1000
0100
,  // measure 61
1000
0000
0001
0000
1000
0000
1000
0010
1000
0000
0001
0000
0010
0000
0001
0000
,  // measure 62
1000
0100
0010
0000
0001
0100
0010
0100
,  // measure 63
0001
2000
3000
0000
;

//---------------dance-single - ----------------
#NOTEDATA:;
#CHARTNAME:X-Scale 11;
#STEPSTYPE:dance-single;
#DESCRIPTION:;
#CHARTSTYLE:;
#DIFFICULTY:Medium;
#METER:8;
#RADARVALUES:0.482455,0.480115,0.067208,0.369642,0.130215,402.000000,394.000000,8.000000,44.000000,0.000000,0.000000,0.000000,0.000000,0.000000,0.482455,0.480115,0.067208,0.369642,0.130215,402.000000,394.000000,8.000000,44.000000,0.000000,0.000000,0.000000,0.000000,0.000000;
#CREDIT:;
#NOTES:
0000
0000
0000
0000
,
0000
0000
0000
0000
,
1000
0000
0100
0010
0001
1000
0001
0000
,
0100
0000
0000
0000
0000
0010
0000
0000
0000
1000
0000
0000
0000
0000
0000
0000
0001
0000
0000
0000
0000
0100
0000
0000
0000
0010
0000
0000
0000
0000
0000
0000
,
1000
0000
0010
0100
0001
1000
0001
0000
,
1000
0000
0000
0000
0000
0100
0000
0000
0000
1000
0000
0000
0000
0000
0000
0000
0001
0000
0000
0000
0000
0010
0000
0000
0000
0001
0000
0000
0000
0000
0000
0000
,
0011
0000
1000
0010
0100
0001
0101
0000
,
0100
0010
1000
0000
0001
0010
0100
0000
,
1100
0000
0010
0100
0001
1000
1001
0000
,
1000
0000
0000
0000
0100
0000
0000
0000
0020
0000
0000
0000
0000
0000
0000
0000
1000
0000
0000
0000
0000
0001
0000
0000
0000
0001
0000
0000
0000
0000
0030
0000
,
0011
0010
0001
1000
0001
0000
0100
0000
,
0001
0010
1000
0200
1300
0010
0001
0000
,
1000
0100
0010
0001
1000
0000
0001
0000
,
1000
0010
0100
0000
0001
0010
0100
0000
,
1000
0010
0100
0001
1000
0000
0001
0000
,
0100
0010
1000
0000
0001
0010
0200
2300
,
3200
0302
0203
0320
0230
1300
0001
0000
,
1000
0000
0100
0000
0010
0000
0001
0100
0010
0000
1000
0010
0200
0000
0000
0000
,
0301
0000
0000
0000
0100
0000
0000
0000
0010
0000
0000
0000
0100
0000
0000
0000
0001
0000
0000
0000
1000
0000
0000
0000
0100
0000
0000
0000
0000
0000
0000
1000
,
0100
1000
0100
0010
0001
1000
0001
0010
,
0001
0000
0000
0000
0100
0000
0000
0000
1000
0000
0000
0000
0100
0000
0000
0000
0010
0000
0000
0000
1000
0000
0000
0000
0001
0000
0000
0000
0000
0000
0000
0010
,
0001
0000
0000
0000
0010
0000
0000
0000
0100
0000
0000
0000
0000
0000
0000
1000
0100
0000
0000
0000
1000
0000
0000
0000
0001
0000
0000
0000
0200
0000
0000
0000
,
0320
0032
0023
0230
0320
1030
0001
1001
,
0000
0000
0000
1000
0001
0000
0000
0000
1000
0000
0000
0000
0000
0000
0000
0010
1000
0000
0000
0000
0001
0000
0000
0000
0010
0000
0000
0000
0000
0000
0000
0000
,
0100
1000
0001
0100
0010
1000
0001
0000
,
0010
0010
0010
0000
0100
0100
0100
0000
,
1000
0100
0001
0100
0010
0001
0000
1000
,
0100
0001
0100
0010
0001
0000
1000
0100
,
0001
0100
0010
0001
0000
1000
0010
0001
,
0010
0000
0100
0000
0010
0000
0000
0000
0110
0000
0000
0100
0000
0000
0001
0000
,
1000
0000
0100
0000
1000
0000
0001
0000
1000
0000
0000
0100
0000
0000
0010
0000
,
0001
0000
1000
0000
0002
0000
0000
0000
0103
0000
0000
0001
0000
0000
1000
0000
,
0100
0000
0001
0000
0100
0000
0010
0000
0001
0000
0000
1000
0000
0000
0001
0000
,
0100
0000
0010
0000
2000
0000
0000
0000
3001
0000
0000
0010
0000
0000
0100
0000
,
1000
0000
0001
0000
1000
0000
0100
0000
1000
0000
0000
0001
0000
0000
0100
0000
,
0010
0000
1000
0000
0002
0000
0000
0000
0013
0000
0000
0001
0000
0000
1000
0000
,
0001
0010
0100
1000
0001
0100
0010
1000
,
0001
0010
0001
1000
1100
0000
0100
0000
,
1000
0000
0100
2000
0001
0000
0100
0000
,
0001
0000
0010
0000
3002
0000
0013
0002
,
0003
1000
0020
0030
0100
0010
0001
0010
,
1000
0000
0001
0000
2000
0000
3010
2000
,
3000
0001
0020
0030
0100
1000
0001
1000
,
0010
0000
0000
0000
0000
0000
0000
0000
0100
0000
0000
0000
0000
0000
0000
0000
0001
0000
0000
0000
0000
0000
0000
0000
1000
0000
0000
0000
0000
0000
0000
0100
,
1000
0000
0000
0000
0000
0100
0000
0000
0000
0000
0000
0000
0100
0000
0000
0000
0010
0000
0000
0000
0001
0000
0000
0000
1000
0000
0000
0000
0001
0000
0000
0000
,
0100
0000
0000
0000
0000
0001
0000
0000
0000
0000
0000
0000
0001
0000
0000
0000
0020
0000
0000
0000
0000
0000
0000
0000
0230
0000
0000
0000
0000
0000
0000
0000
,
2300
3002
0203
1000
,
0001
0000
1000
0000
0301
0000
1000
0100
,
0010
0001
1000
0000
0010
0100
1000
0100
,
0001
0000
1000
0100
1000
0000
0001
0010
,
1000
0010
0001
0000
1000
0010
0100
0010
,
1000
0000
0002
0000
0013
0001
1000
0001
,
0200
0320
2030
3002
,
0023
0001
0030
0001
1000
0001
0010
0100
,
2000
3002
0203
0320
,
2030
0020
3000
0000
0130
0010
0001
0010
,
1000
0010
0100
0000
0001
1000
0001
0010
,
0100
0000
0000
0000
0000
1000
0000
0000
0000
0000
0000
0000
1000
0000
0000
0000
0010
0000
0000
0000
0001
0000
0000
0000
0010
0000
0000
0000
0100
0000
0000
0000
,
0010
1000
0001
0000
1000
0010
0100
0010
,
1000
0000
0000
0000
0000
0001
0000
0000
0000
0000
0000
0000
0001
0000
0000
0000
0100
0000
0000
0000
0010
0000
0000
0000
0001
0000
0000
0000
0010
0000
0000
0000
,
1000
0010
0100
0000
0001
0010
1000
0010
,
0001
0000
0000
0000
0000
1000
0000
0000
0000
0000
0000
0000
1000
0000
0010
0000
1000
0000
0000
0000
0010
0000
0000
0000
0100
0000
0000
0000
0001
0000
0000
0000
,
0010
0001
1000
0000
0010
0100
0001
0100
,
0010
2000
3000
0000
;

//---------------dance-single - ----------------
#NOTEDATA:;
#CHARTNAME:X-Scale 7;
#STEPSTYPE:dance-single;
#DESCRIPTION:;
#CHARTSTYLE:;
#DIFFICULTY:Easy;
#METER:5;
#RADARVALUES:0.364842,0.373423,0.033604,0.176420,0.000000,304.000000,300.000000,4.000000,21.000000,0.000000,0.000000,0.000000,0.000000,0.000000,0.364842,0.373423,0.033604,0.176420,0.000000,304.000000,300.000000,4.000000,21.000000,0.000000,0.000000,0.000000,0.000000,0.000000;
#CREDIT:;
#NOTES:
0000
0000
0000
0000
,
0000
0000
0000
0000
,
0001
0000
1000
0000
0001
0010
0001
0000
,
0100
0010
1000
0100
,
1000
0000
0001
0000
0010
0100
0010
0000
,
0001
0100
0010
0100
,
0110
0000
0010
0000
1000
0100
0010
0000
,
0001
0100
0010
0000
0100
0010
1000
0000
,
0001
0000
0100
0000
0001
0010
0100
0000
,
0010
0001
1000
0000
0100
0010
0001
0000
,
1001
0000
1000
0100
1000
0000
0001
0000
,
0100
0000
0010
0100
0001
0000
1000
0000
,
0100
0000
0010
0001
0010
0000
0001
0000
,
0100
0010
1000
0001
,
0100
0000
0010
0100
0010
0000
1000
0000
,
0100
0000
1000
0000
0001
0000
0100
0001
,
0100
0000
0010
0100
0010
0000
1000
0000
,
0100
0000
0010
0001
1000
0001
0020
0000
,
0130
0000
1000
0001
1000
0000
0010
0000
,
0100
0000
0001
0010
0001
0000
1000
0000
,
0010
0000
0100
0010
0100
0000
0001
0000
,
0010
0000
0001
0000
1000
0000
0100
0010
,
0100
0000
1000
0001
1000
0000
0010
0010
,
0000
0100
0100
0000
0001
0100
0001
0000
,
1000
0000
0100
0010
0100
0000
1000
0000
,
0001
0010
0001
0000
0001
0010
0001
0000
,
1000
0000
0100
0000
0010
0000
0001
1000
,
0000
0010
0000
0100
0000
0001
1000
0000
,
0100
0000
0010
0000
0001
1000
0000
0010
,
0000
0100
0000
0001
0101
0000
0100
0000
,
0010
1000
0001
0000
1000
0000
0100
0010
,
0001
0000
2000
0000
3001
0000
1000
0010
,
0100
0000
0001
0000
0100
0000
0010
0100
,
0001
0000
2000
0000
3100
0000
1000
0001
,
0010
0000
0100
0000
1000
0000
0001
0100
,
0010
0000
0200
0000
0301
0000
1000
0100
,
0010
0001
2000
0010
,
0001
0010
3001
1000
,
0001
1000
0100
0010
,
0100
0000
0010
0000
0001
0000
1000
0001
,
0000
0001
0010
0000
0100
1000
0001
0000
,
0010
0000
0100
0000
1000
0000
0001
0010
,
0000
0010
0100
0000
1000
0100
1000
0000
,
0001
0010
0001
1000
,
0100
0000
1000
0000
0001
0010
0001
0010
,
0001
1000
0020
0230
,
0302
2003
3200
0010
,
0000
0010
0310
0100
,
1000
0001
1000
0000
0001
0000
0100
0010
,
0100
0001
0010
0001
,
1000
0100
1000
0000
0001
0000
0100
0001
,
0100
0000
0010
0000
1000
0000
0100
0010
,
0002
0203
0320
0230
,
0302
0000
1003
0000
0010
0000
0100
0010
,
2000
3002
0023
0032
,
2003
3100
1100
1000
,
0001
0100
0001
0000
1000
0000
0100
0000
,
0010
0001
0000
0001
1000
0000
0010
0000
,
0100
0010
0100
0000
0001
0000
1000
0000
,
0100
1000
0000
1000
0001
0000
0010
0000
,
0100
1000
0100
0000
1000
0000
0001
0000
,
0100
0010
0000
0010
1000
0000
0001
0000
,
0010
0100
0010
0000
0001
0000
1000
0000
,
0010
0100
0020
0000
0030
0000
0000
0000
;

//---------------dance-single - ----------------
#NOTEDATA:;
#CHARTNAME:X-Scale 2;
#STEPSTYPE:dance-single;
#DESCRIPTION:;
#CHARTSTYLE:;
#DIFFICULTY:Beginner;
#METER:2;
#RADARVALUES:0.148817,0.185241,0.016802,0.000000,0.000000,124.000000,122.000000,2.000000,0.000000,0.000000,0.000000,0.000000,0.000000,0.000000,0.148817,0.185241,0.016802,0.000000,0.000000,124.000000,122.000000,2.000000,0.000000,0.000000,0.000000,0.000000,0.000000,0.000000;
#CREDIT:;
#NOTES:
0000
0000
0000
0000
,
0000
0000
0000
0000
,
0001
0000
0000
0000
,
0000
0000
0000
0000
,
0010
0000
0000
0000
,
0000
0000
0000
0000
,
0011
0000
0000
0000
,
0001
0000
0000
0000
,
0100
0000
0000
0000
,
0010
0000
0000
0000
,
1000
0000
0100
0000
,
1000
0000
0100
0000
,
0010
0000
0001
0000
,
0010
0000
0001
0000
,
1000
0000
0010
0000
,
1000
0000
0010
0000
,
0100
0000
0001
0000
,
0100
0000
0001
0000
,
1000
0000
0001
0000
,
1000
0000
0001
0000
,
0010
0000
0100
0000
,
0010
0000
0100
0000
,
1000
0000
0010
0000
,
1000
0000
0010
0000
,
0100
0000
0001
0000
,
0100
0000
0001
0000
,
0000
0000
0000
1000
,
0000
0000
0000
0000
0000
0001
0000
0000
,
0000
0000
1000
0000
,
0000
0000
0000
0001
0001
0000
0000
0000
,
0010
0000
0001
0000
,
1000
0010
1000
0000
,
0100
0000
0010
0000
,
0001
1000
0001
0000
,
0100
0000
0010
0000
,
1000
0010
1000
0000
,
0001
0000
0010
0000
,
0100
0000
1000
0000
,
0000
0000
0000
0000
,
0000
0000
0000
1000
,
0000
0100
0000
0010
,
0000
0001
0000
1000
,
0000
0100
0000
0010
,
0000
0001
1000
0001
,
0000
0010
0000
0100
,
0000
1000
0010
1000
,
0000
0001
0000
0100
,
0000
0010
0110
0000
,
0100
0000
0001
0100
,
0001
0000
1000
0000
,
0100
0000
0010
0001
,
0010
0000
0001
0000
,
1000
0100
0010
0001
,
1000
0000
0001
0000
,
1000
0100
0010
0001
,
1000
0000
0001
0000
,
0100
0000
0001
0010
,
0100
0000
0010
0000
,
0001
0000
1000
0010
,
0100
0000
0010
0000
,
1000
0000
0001
0010
,
0100
0000
0010
0000
,
0001
0000
1000
0010
,
1000
0000
0000
0000
;
