#TITLE:BRING HER DOWN;
#SUBTITLE:;
#ARTIST:AKIRA YAMAOKA;
#TITLETRANSLIT:;
#SUBTITLETRANSLIT:;
#ARTISTTRANSLIT:;
#GENRE:Tribal Bass;
#CREDIT:;
#BANNER:BRING HER DOWN-bn.png;
#BACKGROUND:BRING HER DOWN-bg.png;
#LYRICSPATH:;
#CDTITLE:cdtitle.png;
#MUSIC:BRING HER DOWN.ogg;
#OFFSET:-0.046923;
#SAMPLESTART:14.592377;
#SAMPLELENGTH:14.545454;
#SELECTABLE:YES;
#BPMS:0.000000=132.000000
;
#STOPS:
;
#BGCHANGES:;
#KEYSOUNDS:;
#ATTACKS:;

//---------------dance-single - ----------------
#NOTES:
     dance-single:
     X-Scale 13:
     Hard:
     9:
     0.651850,0.669709,0.062506,0.526837,0.669709,511.000000,504.000000,7.000000,59.000000,6.000000,0.000000,0.651850,0.669709,0.062506,0.526837,0.669709,511.000000,504.000000,7.000000,59.000000,6.000000,0.000000:
// measure 0
0000
0000
0000
0000
,  // measure 1
0000
0000
0000
0000
,  // measure 2
0000
0000
0000
0000
,  // measure 3
0000
0000
0000
0000
,  // measure 4
0001
0000
0010
0000
0100
0000
1000
0100
0000
0000
1000
0000
0000
0000
1000
0000
,  // measure 5
0001
0000
0010
0000
0100
0000
1000
0100
0000
0000
1000
0000
0010
0000
0010
0000
,  // measure 6
1000
0000
0010
0000
0100
0000
0001
0100
0000
0000
0001
0000
0000
0000
0001
0000
,  // measure 7
4000
3040
0430
0304
,  // measure 8
0103
0000
0001
0000
1000
0000
0001
0010
000M
0000
0010
1000
0000
0000
0001
1000
,  // measure 9
0001
0000
1000
0000
0010
0000
1000
0100
M000
0000
0100
0001
0000
0000
1000
0001
,  // measure 10
1000
0001
0100
0001
2000
0000
3001
1000
,  // measure 11
0001
0010
0100
1000
0002
0203
0302
2003
,  // measure 12
3001
0000
1000
0100
0000
0100
0010
0000
0001
0100
0000
0100
0010
0000
1000
0000
,  // measure 13
0001
0000
1000
0100
0000
0100
0010
0000
0001
0100
0000
0100
0010
0000
1000
0000
,  // measure 14
0001
0000
0100
0010
0000
0010
1000
0000
0001
0010
0000
0010
0100
0000
1000
0000
,  // measure 15
0001
0000
0100
0010
0000
0010
1000
0000
0001
0010
0000
0010
0100
0000
0100
0000
,  // measure 16
2100
0000
3002
0000
0013
0010
0100
0100
,  // measure 17
1000
0100
1000
0000
0002
0000
0000
0000
0103
0000
0100
0000
0010
0000
0010
0000
,  // measure 18
2000
0000
3002
0000
0013
0010
0100
0100
,  // measure 19
1000
0000
0100
0000
4000
0000
0000
0000
3002
0000
0000
0000
4000
0000
0000
3000
1003
0000
0000
0000
0001
0000
0000
0000
0100
0000
0000
0000
0001
0000
0000
0000
,  // measure 20
0200
0000
0320
0000
1030
1000
0001
0001
,  // measure 21
0100
0010
0100
0000
0020
0000
1000
0000
1030
0010
1000
0000
0001
0000
0010
0000
,  // measure 22
0200
0000
0000
0000
0000
0000
0000
0000
0000
0000
0000
0000
0320
0000
0000
0000
0000
0000
0000
0000
0000
0000
0000
0000
0031
0000
0000
0000
0000
0000
0001
0000
1000
0000
0000
0000
0010
0000
0000
0000
1000
0000
0000
0000
0000
1000
0000
0000
,  // measure 23
0100
1000
0001
0000
0020
0000
0000
0000
0031
0010
0001
0010
0001
0010
0002
0003
,  // measure 24
0200
0000
0300
0020
0000
0030
2000
0000
3001
0010
0001
0010
0001
0010
0001
0010
,  // measure 25
0002
0000
0003
0020
0000
0030
0200
0000
1300
0001
1000
0001
1000
0001
1000
0001
,  // measure 26
2000
0000
3000
0020
0000
0030
0200
0000
0310
1000
0010
1000
0010
1000
0010
1000
,  // measure 27
0020
0000
0030
2000
0000
3000
0002
0000
0013
0001
0010
0001
0010
0001
0010
0001
,  // measure 28
0010
0000
0000
0001
1000
0000
0100
0000
1000
0001
0010
0001
1000
0001
0010
0001
,  // measure 29
1000
0000
0000
0100
0010
0000
0001
0000
1000
0100
0010
0100
1000
0100
0010
0100
,  // measure 30
1000
0000
0000
0001
0100
0000
0010
0000
1000
0001
0100
0001
1000
0001
0400
0000
,  // measure 31
0301
0000
0100
0001
0000
1000
0004
0000
0013
0100
4000
0000
3010
0000
4000
0000
,  // measure 32
3002
0000
0003
0020
0000
0030
2000
0000
3000
0000
2000
0000
3020
0000
0032
0000
,  // measure 33
2003
0000
3000
0020
0000
0030
0002
0000
0003
0000
0002
0000
0023
0000
2030
0000
,  // measure 34
3002
0000
0003
0200
0000
0300
2000
0000
3000
0000
2000
0000
3200
0000
0302
0000
,  // measure 35
2003
0000
3000
0200
0000
0300
0020
0000
0031
0010
0001
0010
0001
0010
0004
0000
,  // measure 36
1003
0000
0000
0001
0000
0000
0000
0000
0001
0000
0000
0000
0000
0000
0000
0000
1000
0000
0010
0000
1000
0000
0000
0000
0010
0000
0000
0000
0100
0000
0000
0000
0001
0000
0000
0000
0100
0000
0000
0000
0010
0000
0000
0000
1000
0000
0000
0000
,  // measure 37
0001
0000
0000
0000
1000
0000
0000
0000
0010
0000
0000
0000
0100
0000
0000
0000
0000
0000
0010
0000
0000
0100
0000
0000
0000
0000
0000
0000
0000
0000
0001
0000
0000
0000
0000
0000
1000
0000
0000
0000
0000
0000
1000
0000
0000
0000
0000
0000
,  // measure 38
0010
0000
0000
1000
0000
0000
0000
0000
1000
0000
0000
0000
0000
0000
0000
0000
0001
0000
0010
0000
0001
0000
0000
0000
0100
0000
0000
0000
0010
0000
0000
0000
1000
0000
0000
0000
0010
0000
0000
0000
0100
0000
0000
0000
0001
0000
0000
0000
,  // measure 39
0010
0000
0000
0000
0001
0000
0000
0000
1000
0000
0000
0000
0200
0000
0000
0000
0000
0000
1300
0000
0000
0100
0000
0000
0000
0000
0000
0000
0000
0000
1000
0000
0000
0000
0000
0000
0001
0000
0000
0000
0000
0000
0001
0000
0000
0000
0000
0000
,  // measure 40
0100
0000
0001
0000
0000
1000
0000
0010
1000
0000
0001
2000
0000
0000
0000
0000
,  // measure 41
3010
0000
1000
0000
0001
0000
0100
0001
0000
0000
1000
0000
0001
0000
0001
0000
,  // measure 42
0010
0000
0100
0000
0000
0100
0000
1000
0100
0000
0010
0200
0000
0000
0000
0000
,  // measure 43
0001
0000
0000
0000
1300
0000
0100
0000
0010
0001
0010
0000
0004
0000
0000
0000
,  // measure 44
1003
0001
1000
0001
0010
0010
0100
0100
,  // measure 45
1100
0000
0000
0000
0000
0000
1000
0000
0000
0000
0000
0000
1001
0000
0000
0000
0000
0000
0001
0000
0000
0000
0000
0000
0101
0000
0000
0000
0100
0000
0000
0000
0000
0001
0000
0000
0100
0000
0000
0000
0000
0000
0100
0000
0000
0000
0000
0000
,  // measure 46
0110
0010
0100
0010
1000
1000
0001
0001
,  // measure 47
1000
0100
1000
0000
0010
0000
0010
0000
0400
0000
0301
0000
0400
0000
0310
0000
,  // measure 48
0110
0000
0100
0010
0000
0010
1000
0000
0001
0100
00M0
0100
1000
0000
0001
0000
,  // measure 49
1000
0000
0100
0010
0000
0010
0001
0000
1000
0100
00M0
0100
0001
0000
0100
0000
,  // measure 50
0010
0000
0100
0010
0000
0010
1000
0000
0001
0100
00M0
0100
1000
0000
0001
0000
,  // measure 51
1000
0000
0100
0010
0000
0010
0001
0000
1000
0100
00M0
0100
0001
0000
0100
0000
,  // measure 52
0102
0000
2003
0000
3001
0001
1000
1000
,  // measure 53
0001
1000
0001
0000
0010
0000
0100
0000
1000
0000
1000
0000
0001
0000
0001
0000
,  // measure 54
0200
0000
0320
0000
1030
1000
0001
0001
,  // measure 55
0100
0001
0100
0000
0010
0000
1000
0000
0001
0010
0001
0010
0001
0010
0001
0010
,  // measure 56
0001
0000
1000
0000
0010
0100
0000
0010
0100
0000
0001
0010
0001
0000
1000
0000
,  // measure 57
0010
0100
0010
0000
1000
0000
0001
0000
0010
0100
0010
0100
0010
0100
0010
0100
,  // measure 58
0010
0000
0001
0000
1000
0001
0000
1000
0001
0000
0100
0010
0100
0000
0001
0000
,  // measure 59
1000
0010
1000
0000
0001
0000
0010
0000
0001
0010
0100
1000
0001
1000
0020
0000
,  // measure 60
0030
0000
0000
0000
;

//---------------dance-single - ----------------
#NOTES:
     dance-single:
     X-Scale 10:
     Medium:
     7:
     0.494947,0.508979,0.080365,0.544696,0.258954,388.000000,379.000000,9.000000,61.000000,0.000000,0.000000,0.494947,0.508979,0.080365,0.544696,0.258954,388.000000,379.000000,9.000000,61.000000,0.000000,0.000000:
0000
0000
0000
0000
,
0000
0000
0000
0000
,
0000
0000
0000
0000
,
0000
0000
0000
0000
,
0010
0100
0001
1000
0000
0001
0000
0001
,
0100
0010
1000
0001
0000
1000
0010
1000
,
0010
0100
0001
1000
0000
0001
0000
0001
,
0100
0010
1000
0001
0200
0000
0320
0000
,
0230
0000
0000
0301
0100
1000
0100
0001
,
0020
0000
1030
0010
0001
0100
0001
0010
,
0200
0000
0000
1300
0200
0000
0310
0001
,
2000
0000
3010
1000
0001
0100
0001
1000
,
0010
0000
0000
0100
0000
0000
0001
0000
0000
1000
0000
0000
0010
0000
0100
0000
,
0010
0000
0000
0100
0000
0000
0001
0000
0000
1000
0000
0000
0010
0000
0100
0000
,
0010
0000
0000
1000
0000
0000
0100
0000
0000
0010
0000
0000
0001
0000
1000
0000
,
0010
0000
0000
1000
0000
0000
0100
0000
0000
0010
0000
0000
0001
0000
0001
0000
,
0021
0000
0032
0000
1003
0100
0001
0100
,
1000
0100
1000
0000
0002
0000
0000
0000
0103
0000
0001
0000
0010
0000
0100
0000
,
2000
0000
3002
0000
0103
0010
1000
0001
,
0100
0010
0100
0000
0002
0000
0000
0000
0013
0000
0001
0000
1000
0000
0001
0000
,
0020
0000
0230
0000
1300
1000
0001
0001
,
0100
0001
0100
0000
0020
0000
0000
0000
1030
0000
1000
0000
0010
0000
0010
0000
,
0200
0000
0302
0000
0013
0010
0100
0100
,
1000
0100
1000
0000
0002
0000
0000
0000
0103
0000
0100
0000
0001
0000
0001
0000
,
2000
0000
3000
0200
0000
0300
0020
0000
0030
0000
0002
0000
0203
0000
0320
0000
,
2030
0000
3000
0200
0000
0300
0020
0000
0030
0000
0002
0000
0203
0000
0320
0000
,
2030
0000
3000
0200
0000
0300
0020
0000
0030
0000
0002
0000
0203
0000
0320
0000
,
2030
0000
3000
0200
0000
0300
0020
0000
0030
0000
0002
0000
0203
0000
0320
0000
,
1030
0000
0010
0000
1000
0000
0000
0001
0000
0001
0000
0000
0010
0000
0100
0000
,
1000
0000
0001
0000
1000
0000
0000
0010
0000
0010
0000
0000
0100
0000
0010
0000
,
1000
0000
0001
0000
0010
0000
0000
0100
0000
0100
0000
0000
1000
0000
0010
0000
,
0001
0010
1000
0004
0003
0004
0403
0340
,
1030
0000
0000
0010
0000
0000
1000
0000
0000
0000
1000
0000
0100
0000
0010
0000
,
0001
0000
0000
0100
0000
0000
0001
0000
0000
0000
0001
0000
0010
0000
0100
0000
,
1000
0000
0000
0010
0000
0000
1000
0000
0000
0000
1000
0000
0100
0000
0010
0000
,
0001
0000
0000
0100
0000
0000
0001
0000
0000
0000
0001
0000
0010
0000
0100
0000
,
1100
0000
1000
0000
0001
0000
1000
0010
0000
0000
0010
0000
0000
0000
0010
0000
,
0100
0000
0001
0000
1000
0000
0010
0100
0000
0000
0100
0000
0001
0000
0001
0000
,
1000
0000
0100
0000
0010
0000
0001
0010
0000
0000
0010
0000
0000
0000
0010
0000
,
0100
0000
1000
0000
0001
0000
1000
0100
0000
0000
0100
0000
0010
0000
0010
0000
,
0001
1000
0100
1000
0001
0000
0010
0000
,
0001
0100
0010
0100
0001
0000
0010
0000
,
0001
1000
0100
1000
0001
0000
0010
0000
,
0001
0000
0000
0000
1000
0000
0100
0000
0010
0100
0010
0000
0002
0000
0000
0000
,
0023
0000
0032
0000
0103
0001
1000
0001
,
0101
0000
0110
0000
1100
0000
1001
0001
,
2001
0000
3020
0000
1030
0010
0001
0010
,
1000
0010
1000
0000
0200
0000
0000
0000
0310
0000
0001
0000
1000
0000
0001
0000
,
0020
0000
0000
0000
0230
0000
0000
1000
0300
1000
0000
1000
0001
0000
0100
0000
,
0001
0010
0001
0000
1000
0000
0000
0000
0100
0010
0000
0010
0100
0000
1000
0000
,
0002
0000
0000
0000
0203
0000
0000
0010
0300
0010
0000
0010
1000
0000
0001
0000
,
2002
0000
3003
2000
0000
3000
0000
0000
0002
0000
0000
0000
1003
0000
0001
0000
,
1001
0000
0000
0100
1000
0000
0001
0000
1000
0100
0000
0000
0010
0000
0001
0000
,
1000
0000
0000
0001
0100
0000
0010
0000
0100
0001
0000
0000
1000
0000
0001
0000
,
1000
0000
0000
0010
0100
0000
0001
0000
0100
0010
0000
0000
1000
0000
0100
0000
,
1000
0000
0000
0001
1000
0000
0100
0000
1000
0001
0000
0000
0010
0000
0100
0000
,
0010
0000
0001
0000
0000
0001
0000
0100
0001
0000
0010
0100
0010
0000
0100
0000
,
1000
0100
1000
0000
0002
0000
0000
0000
0013
0000
0010
0000
0100
0000
0100
0000
,
1000
0000
0010
0000
0000
0010
0000
0100
0010
0000
1000
0001
1000
0000
0010
0000
,
0100
0010
0100
0000
0002
0000
0000
0000
0023
0000
0000
0000
0031
0000
2000
0000
,
3000
0000
0000
0000
;

//---------------dance-single - ----------------
#NOTES:
     dance-single:
     X-Scale 6:
     Easy:
     4:
     0.331665,0.347523,0.044647,0.321460,0.000000,260.000000,255.000000,5.000000,36.000000,0.000000,0.000000,0.331665,0.347523,0.044647,0.321460,0.000000,260.000000,255.000000,5.000000,36.000000,0.000000,0.000000:
0000
0000
0000
0000
,
0000
0000
0000
0000
,
0000
0000
0000
0000
,
0000
0000
0000
0000
,
1100
0000
0100
0000
1000
0001
0000
0001
,
0100
0000
0010
0000
1000
0001
0000
0001
,
0100
0000
0010
0000
1000
0100
0000
0100
,
0020
1000
0100
0001
,
0031
0000
0010
0001
1000
0000
0010
0100
,
0001
0000
1000
0100
0010
0000
0100
0010
,
0002
0000
0000
1003
0200
0000
0310
0100
,
2000
0000
0000
3001
2000
0000
3100
1000
,
0001
0000
0010
0000
0100
0000
1000
0010
,
1000
0000
0001
0000
0010
0000
0001
1000
,
0001
0000
0100
0000
0010
0000
1000
0001
,
1000
0000
0010
0000
0100
0000
0001
0001
,
0201
0320
2030
0010
,
3020
0230
0302
0100
,
0203
0320
2030
0001
,
3200
0320
0032
0100
,
2003
0000
3020
0000
0230
0000
0001
0001
,
0302
0000
0023
0000
0230
0000
1000
1000
,
2300
3002
0203
0010
,
0320
0000
2030
0000
3002
0000
1000
1000
,
2003
0000
3020
0000
,
0030
0000
2000
0000
,
3200
0000
0320
0000
,
0030
0000
0002
0000
,
1003
0000
0001
0000
0100
0000
0010
0100
,
0001
0000
1000
0000
0100
0000
0010
0001
,
1000
0000
0001
0000
0100
0000
0010
1000
,
0001
0000
0100
0000
0010
0000
0100
0001
,
1000
0000
0010
0000
1000
0100
0010
0001
,
1000
0000
0001
0000
0100
0010
1000
0001
,
0100
0000
0001
0000
0010
0100
1000
0001
,
0010
0001
0100
0010
,
0110
0000
0100
0000
0001
1000
0000
1000
,
0010
0000
0100
0000
0001
1000
0000
1000
,
0010
0000
0100
0000
0001
1000
0000
1000
,
0010
0000
0100
0000
0001
1000
0000
1000
,
0010
0100
0001
1000
,
0001
0010
0100
1000
,
0001
1000
0100
0010
,
0001
0000
0000
0200
,
0301
0000
1000
0000
0100
1000
0001
0000
,
1000
0001
1000
0001
,
0010
0000
0100
0000
0010
0001
1000
0000
,
0001
0000
0100
0000
0010
0100
0001
0000
,
1000
0000
0010
0000
1000
0010
0100
0000
,
0001
0000
0010
0000
0001
0010
0100
0000
,
1000
0000
0001
0000
1000
0100
0010
0000
,
0011
0000
0000
0000
,
1001
0000
0001
0000
1000
0010
1000
0000
,
0001
0000
0010
0000
0100
1000
0100
0000
,
0010
0000
0001
0000
1000
0010
1000
0000
,
0001
0000
0100
0000
0010
0100
0010
0000
,
1000
0000
0100
0000
0010
0001
0010
0000
,
0100
0000
1000
0000
0001
1000
0001
1000
,
0001
0000
0100
0000
0010
0100
0010
0000
,
1000
0000
0100
0000
0010
0001
0010
0001
;

//---------------dance-single - ----------------
#NOTES:
     dance-single:
     X-Scale 2:
     Beginner:
     2:
     0.132666,0.185956,0.035718,0.000000,0.000000,104.000000,100.000000,4.000000,0.000000,0.000000,0.000000,0.132666,0.185956,0.035718,0.000000,0.000000,104.000000,100.000000,4.000000,0.000000,0.000000,0.000000:
0000
0000
0000
0000
,
0000
0000
0000
0000
,
0000
0000
0000
0000
,
0000
0000
0000
0000
,
0001
0000
0000
0000
,
0010
0000
0000
0000
,
0100
0000
0000
0000
,
1000
0000
0001
0000
,
1001
0000
0100
0000
,
1000
0000
0001
0000
,
0100
0000
0001
0000
,
1000
0000
0010
0000
,
0100
0000
0010
0000
,
1000
0000
0100
0000
,
1000
0000
0001
0000
,
0010
0000
0100
1000
,
0100
0000
1000
0000
,
0001
0000
1000
0000
,
0100
0000
0010
0000
,
0001
0010
0001
0000
,
1000
0000
0010
0000
,
1000
0000
0001
0010
,
0001
0000
1000
0000
,
0010
0000
0100
0000
,
0001
0000
0000
0000
,
0100
0000
0000
0000
,
0010
0000
0000
0000
,
1000
0000
0000
0000
,
1100
0000
0001
0000
,
1000
0000
0100
0000
,
1000
0000
0001
0000
,
0010
0000
0100
0000
,
1000
0000
0100
0000
,
0010
0000
0001
0000
,
1000
0000
0100
0000
,
0010
0000
0001
0000
,
1000
0000
0000
0000
,
0010
0000
0000
0000
,
0100
0000
0000
0000
,
0001
0000
0000
0000
,
1000
0000
0000
0000
,
0100
0000
0000
0000
,
0010
0000
0000
0000
,
0001
0000
0000
0000
,
0011
0000
1000
0000
,
0001
1000
0001
0000
,
1000
0000
0100
0000
,
0010
0000
0001
0000
,
1000
0000
0001
0000
,
0100
0000
0010
0000
,
0100
0000
0001
0000
,
0010
0000
0000
0000
,
0011
0000
1000
0000
,
0001
0000
0010
0000
,
0001
0000
1000
0000
,
0100
0000
1000
0000
,
0010
0000
0100
0000
,
0010
0000
1000
0000
,
0001
0000
0100
0000
,
0001
0000
1000
0000
;
