#TITLE:BREAK OVER VIP;
#SUBTITLE:;
#ARTIST:Masayoshi Iimori;
#TITLETRANSLIT:;
#SUBTITLETRANSLIT:;
#ARTISTTRANSLIT:;
#GENRE:Moombah Trap;
#CREDIT:;
#BANNER:BREAK OVER VIP-bn.png;
#BACKGROUND:BREAK OVER VIP-bg.png;
#LYRICSPATH:;
#CDTITLE:cdtitle.png;
#MUSIC:break over vip.ogg;
#OFFSET:0.000000;
#SAMPLESTART:11.200000;
#SAMPLELENGTH:12.750000;
#SELECTABLE:YES;
#BPMS:0.000000=150.000000
,28.000000=75.000000
,30.000000=150.000000
,44.000000=75.000000
,45.000000=150.000000
,57.000000=75.000000
,59.000000=150.000000
,121.000000=75.000000
,122.000000=150.000000
,128.000000=75.000000
,129.000000=150.000000
,150.000000=53.000000
,166.000000=106.000000
,178.000000=53.000000
,180.000000=106.000000
,194.000000=53.000000
,195.000000=106.000000
,225.000000=53.000000
,226.000000=106.000000
,240.000000=53.000000
,241.000000=106.000000
;
#STOPS:87.000000=0.200000,
87.500000=0.200000,
88.000000=0.200000,
88.500000=0.100000,
88.750000=0.100000,
135.000000=0.200000,
135.500000=0.200000
;
#BGCHANGES:;
#KEYSOUNDS:;
#ATTACKS:;

//---------------dance-single - THROW YOUR FOCKING HANDZ UP!----------------
#NOTES:
     dance-single:
     X-Scale 15:
     Hard:
     10:
     0.678393,0.957997,0.302381,0.041234,0.762824,691.000000,647.000000,44.000000,6.000000,16.000000,0.000000,0.678393,0.957997,0.302381,0.041234,0.762824,691.000000,647.000000,44.000000,6.000000,16.000000,0.000000:
// measure 0
0000
0000
0000
0000
,  // measure 1
0000
0000
0000
0000
,  // measure 2
0000
0000
0000
0000
,  // measure 3
0000
0000
0000
0000
,  // measure 4
1000
0000
0001
0000
0100
0000
0010
0000
1000
0000
0001
0000
0100
0000
0010
1000
,  // measure 5
0010
0100
0001
1000
0010
0100
0001
1000
,  // measure 6
1001
0000
0010
0000
0100
0000
0001
0000
1000
0100
0010
0001
1000
0100
0010
0001
,  // measure 7
1001
0000
0001
0000
0100
0001
0100
0001
0100
0000
0000
0000
0001
0000
0000
0000
0011
0000
0000
0000
0000
0000
0000
0000
0101
0000
0000
0000
0001
0000
0000
0000
,  // measure 8
0011
0000
1000
0010
0100
0000
0001
1000
0010
0000
0100
0000
0010
0000
1000
0000
,  // measure 9
0010
0000
0100
0000
0001
1000
0001
1000
1001
0000
0000
0000
0110
0000
1000
0000
,  // measure 10
1001
0001
1000
0001
0100
0010
0100
0010
,  // measure 11
0200
0000
0301
0000
1001
0000
0001
0000
0001
0010
0100
0010
0001
0000
0000
0010
,  // measure 12
0001
0000
0100
0001
0100
0000
0000
0000
0010
0100
0010
0001
0010
0000
0000
1000
,  // measure 13
0010
1000
0100
1000
0100
0000
0000
0000
1000
0001
1000
0001
1000
0000
0001
0100
,  // measure 14
0001
0000
0000
0000
0010
0000
0000
0000
1000
0000
0000
0000
0010
0000
0000
0000
0001
0000
0000
1000
0010
0000
1000
0000
1010
0000
0000
0000
0000
0000
0100
0000
,  // measure 15
0001
0000
1000
0000
0010
0000
0100
0000
0010
0000
0100
0001
0100
0000
0010
1000
,  // measure 16
0010
0000
1000
0000
0001
0000
0100
0000
0010
1000
0001
0100
0010
0000
0000
0010
,  // measure 17
1000
0000
0010
0000
0100
0000
0001
1000
0001
0000
0100
0010
0100
0001
0100
0000
,  // measure 18
0001
1000
0001
0000
0100
0000
0001
0010
0100
0000
1000
0000
1100
0000
0010
0000
,  // measure 19
1000
0010
1000
0000
1000
0000
0010
0100
0010
0000
0010
0000
0110
0000
0100
0000
,  // measure 20
0001
0100
0001
0000
0100
0000
0010
0100
0010
0000
0010
0000
0110
0000
0100
0000
,  // measure 21
0001
1000
0001
0000
0010
0100
0010
0100
0010
0100
0010
0100
0010
0000
0001
0000
,  // measure 22
1000
0000
0001
0100
0202
0000
0000
0000
0000
0000
0303
0000
0010
0000
0000
0000
,  // measure 23
0110
0100
0001
0001
1000
0000
1001
0000
,  // measure 24
0110
0000
1001
0100
0010
0000
0100
0000
,  // measure 25
0110
1000
0001
0010
0100
1000
0001
0000
,  // measure 26
4000
0000
0000
3000
0000
0000
4000
0000
0000
3000
0000
0000
1000
0000
0000
0000
0001
0000
0000
0000
1000
0000
0000
0000
0040
0000
0000
0000
0000
0000
0000
0000
0000
0000
0000
0000
0130
0000
0000
0000
0000
0000
0000
0000
0000
0000
0000
0000
,  // measure 27
0110
0001
0010
0100
1000
0000
0001
0000
,  // measure 28
0100
0000
0101
0010
0010
0000
1000
0000
,  // measure 29
0001
0100
0010
0001
0010
0100
0001
0000
,  // measure 30
1000
0000
0000
0000
2000
0000
0000
0000
3001
0000
1000
0010
1000
0000
0001
0000
,  // measure 31
0100
0010
0100
0000
0001
0010
0001
0000
0011
0000
0000
0011
0000
0000
1001
0000
,  // measure 32
0044
0000
0000
0000
0000
0000
0000
0000
0000
0000
0030
0000
0013
0000
0000
0000
0000
0000
0010
0000
0000
0000
0000
0000
0001
0000
0000
1000
0000
0000
0001
0000
0000
0000
0000
0000
0010
0000
0000
0000
0000
0000
0100
0000
0000
0010
0000
0000
,  // measure 33
0100
0000
1000
0000
0001
0100
0001
0000
0100
0010
0100
0010
0100
0000
0100
0000
,  // measure 34
0110
0000
0000
0100
0001
0000
0010
0000
0001
0000
0000
0010
0100
0000
1000
0010
,  // measure 35
0100
0000
0001
0100
0000
0000
0001
0100
0001
0000
0000
1000
0100
0000
0010
0000
,  // measure 36
0100
0000
1000
0100
1000
0000
0001
0000
0100
0000
0010
0000
0100
0000
0010
0000
,  // measure 37
1000
0001
0100
0001
1000
0000
0000
0000
2M00
0000
000M
0000
00M0
0000
0M00
0000
,  // measure 38
000M
00M0
0M00
000M
00M0
0M00
000M
00M0
,  // measure 39
0M00
0000
000M
0000
00M0
0000
0M00
0000
3001
1000
0001
0010
0100
0010
0001
1000
,  // measure 40
0001
1000
0010
0100
0001
0010
1000
0010
0001
1000
0010
1000
0001
0010
0100
0010
,  // measure 41
0001
1000
0100
1000
0001
0001
1000
1000
1001
0000
0000
0100
0000
0000
0010
0000
,  // measure 42
0110
0000
0000
0010
0000
0000
1000
0001
1001
0000
0000
0100
0000
0000
0010
0000
,  // measure 43
0110
0000
0000
0000
0000
0000
0010
0000
0000
0000
0000
0000
1000
0010
1000
0010
1000
0000
0000
0000
0010
0000
0000
0000
0100
0000
0000
0000
0001
0000
0000
0000
,  // measure 44
1000
0100
0010
0001
1000
0010
0100
0001
1001
0000
0000
0000
0001
1000
0010
0100
,  // measure 45
0110
0000
0000
1000
0001
0000
0100
0000
0010
0100
0000
0001
1000
0000
0001
0000
,  // measure 46
1001
0001
0000
0100
0010
0000
0010
0000
0110
1000
0000
0001
0100
0000
0010
0100
,  // measure 47
0010
0010
0000
1000
0001
0000
0100
0000
0010
0100
0000
0001
1000
0000
0001
0000
,  // measure 48
0100
0100
0000
0001
0100
0000
0010
0000
4000
3400
0340
0034
1003
0001
0000
0001
,  // measure 49
0100
0000
0010
0000
0100
0001
0000
0001
1000
0000
0100
0000
0010
0100
0000
0100
,  // measure 50
1000
0000
0001
0000
1000
0100
0000
0100
0010
0000
0001
1000
0001
0100
0000
0100
,  // measure 51
0010
0000
0000
0000
1000
0000
0000
0000
0001
0000
1000
0000
0000
0000
1000
0000
0010
0000
0000
0000
0100
0000
0000
0000
0110
0000
0000
0100
0010
0000
0000
0100
,  // measure 52
0001
0000
0000
0001
1000
0000
0010
0000
1000
0000
0000
0000
0001
0000
0000
0000
1000
0000
0100
0000
0001
0000
0100
0000
1000
0000
0000
0000
0000
0000
0100
0000
,  // measure 53
0010
0000
0001
0000
1000
0010
1000
0000
0001
0100
0001
0000
0100
0010
0100
0000
,  // measure 54
0001
1000
0001
0010
0100
1000
0100
0010
0001
0000
1000
1000
0010
0000
0000
0100
,  // measure 55
0010
0000
1000
0000
0001
0010
0100
0000
1000
0100
0010
0000
0001
0100
0010
1000
,  // measure 56
0100
0010
0001
0010
0400
4300
3004
0043
0031
0000
0001
0100
0001
0000
0010
0100
,  // measure 57
1000
0000
0100
0000
0010
0000
0000
0000
0001
0000
0000
0000
1000
0001
1000
0001
1000
0000
0000
0000
0001
0000
0100
0000
0010
0000
0000
0000
1000
0000
0001
0000
,  // measure 58
1000
0100
0010
0000
0001
1000
0001
1000
0001
0000
0100
0010
1000
0000
1000
0001
,  // measure 59
0010
0100
1000
0000
0010
0000
0100
0000
0001
0100
0010
1000
0001
0010
0100
1000
,  // measure 60
0020
0001
0100
0100
0130
0000
0010
0100
0001
0100
0010
0000
1000
0100
0010
0100
,  // measure 61
1000
0000
0001
1000
0001
0000
0010
0100
0010
0001
0010
0000
0100
1000
0001
0010
,  // measure 62
0100
0000
0010
0001
1000
0001
1000
0001
1000
0010
1000
0010
1000
0100
1000
0100
,  // measure 63
1000
0000
0010
0000
0100
0000
0001
0000
1000
0000
0100
0000
0010
0000
0001
0000
1000
0000
0010
0000
0100
0000
0001
0000
1000
0010
1000
0010
1000
0010
1000
0010
,  // measure 64
1000
0100
1000
0100
1000
0100
1000
0100
1000
0000
0000
0000
0010
0000
0000
0000
0100
0000
0000
0000
1001
0000
0000
0000
0000
0000
0110
0000
0000
0000
0000
0000
,  // measure 65
1000
0000
0000
0000
0000
0000
0000
0000
0000
0000
0000
0000
0000
0000
0000
0000
0001
0000
0000
0000
0000
0000
0000
0000
0000
0000
0000
0000
0000
0000
0000
0000
1000
0000
0000
0000
0000
0000
0000
0000
0000
0000
0000
0000
0000
0000
0000
0000
0010
0000
0000
0000
0000
0000
0000
0000
0000
0000
0000
0000
0000
0000
0000
0000
0000
0000
0000
0000
0000
0000
0000
0000
0100
0000
0000
0000
0000
0000
0000
0000
0000
0000
0000
0000
0001
0000
0000
0000
0000
0000
0000
0000
0000
0000
0000
0000
0100
0000
0000
0000
0000
0000
0000
0000
0000
0000
0000
0000
0000
0000
0000
0000
0000
0000
0000
0000
0000
0000
0000
0000
0101
0000
0000
0000
0000
0000
0000
0000
0000
0000
0000
0000
0000
0000
0000
0000
0000
0000
0000
0000
0000
0000
0000
0000
0000
0000
0000
0000
0000
0000
0000
0000
0000
0000
0000
0000
1010
0000
0000
0000
0000
0000
0000
0000
0000
0000
0000
0000
0000
0000
0000
0000
0000
0000
0000
0000
0000
0000
0000
0000
0010
0000
0000
0000
0000
0000
0100
0000
0000
0000
0000
0000
,  // measure 66
0010
1000
0000
0000
1010
1000
0000
0001
0010
0000
0011
0000
0000
0110
0000
0000
,  // measure 67
1000
0000
0000
0000
0000
0000
0000
0000
0000
0000
0000
0000
0000
0000
0000
0000
0010
0000
0000
0000
0000
0000
0000
0000
0000
0000
0000
0000
0000
0000
0000
0000
0100
0000
0000
0000
0000
0000
0000
0000
0000
0000
0000
0000
0000
0000
0000
0000
0001
0000
0000
0000
0000
0000
0000
0000
0000
0000
0000
0000
0000
0000
0000
0000
0000
0000
0000
0000
0000
0000
0000
0000
1000
0000
0000
0000
0000
0000
0000
0000
0000
0000
0000
0000
0001
0000
0000
0000
0000
0000
0000
0000
0000
0000
0000
0000
1000
0000
0000
0000
0000
0000
0000
0000
0000
0000
0000
0000
0000
0000
0000
0000
0000
0000
0000
0000
0000
0000
0000
0000
1001
0000
0000
0000
0000
0000
0000
0000
0000
0000
0000
0000
0000
0000
0000
0000
0000
0000
0000
0000
0000
0000
0000
0000
0000
0000
0000
0000
0000
0000
0000
0000
0000
0000
0000
0000
1010
0000
0000
0000
0000
0000
0000
0000
0000
0000
0000
0000
0000
0000
0000
0000
0000
0000
0000
0000
0000
0000
0000
0000
1000
0000
0000
0000
0000
0000
0100
0000
0000
0000
0000
0000
,  // measure 68
1000
0000
0000
0000
;

//---------------dance-single - This sh*t breaks over the original mix----------------
#NOTES:
     dance-single:
     X-Scale 12:
     Medium:
     8:
     0.573345,0.677607,0.309253,0.075595,0.426082,584.000000,539.000000,45.000000,11.000000,16.000000,0.000000,0.573345,0.677607,0.309253,0.075595,0.426082,584.000000,539.000000,45.000000,11.000000,16.000000,0.000000:
0000
0000
0000
0000
,
0000
0000
0000
0000
,
0000
0000
0000
0000
,
0000
0000
0000
0000
,
1000
0001
1000
0010
1000
0001
1000
0010
,
0100
1000
0100
0010
0100
1000
0100
0010
,
1000
0000
0001
0000
0010
0000
0100
0000
1000
0000
1000
0000
0001
0010
0001
0010
,
0001
0004
0103
0001
0101
0000
1000
0001
,
1000
0001
1000
0001
1000
0100
1000
0100
,
1000
0000
0100
0000
0010
0001
0010
0001
0010
0000
0000
0000
0001
0000
1000
0000
,
0001
0010
0001
0010
0100
0010
0100
0010
,
0200
0000
1300
0000
1100
0000
0000
0000
1000
0000
0100
0000
1000
0000
0000
1000
,
0000
0000
1000
0000
0001
0000
0000
0000
1000
0000
0001
0000
0010
0000
0000
0010
,
0000
0000
0010
0000
0002
0000
0003
0000
1000
0000
0001
0000
0100
0000
0000
0100
,
0000
0000
0000
0000
0100
0000
0000
0000
0101
0000
0000
0000
0001
0000
0000
0000
0001
0000
0000
1000
0001
0000
1000
0000
1001
0000
0000
0000
0001
0000
0000
0000
,
0010
0000
1000
0000
0010
0000
0001
0000
0010
0000
0100
0010
0100
0000
0010
0000
,
0100
0000
0010
0000
0100
0000
1000
0000
0100
0000
1000
0000
0010
0000
0000
1000
,
0010
0000
1000
0000
0001
0000
0010
0000
0001
0000
0100
0000
0001
0100
0001
0000
,
1000
0001
1000
0000
0100
0000
0010
0100
0010
0000
0010
0000
0110
0000
0010
0000
,
0000
0011
0001
1000
1001
0001
0101
0001
,
0000
0011
0010
0001
1001
1000
1100
0100
,
0000
1010
0010
0100
0110
0010
1010
1000
,
0001
0000
1000
0001
2002
0000
0000
0000
0000
0000
3003
0000
0001
0000
0000
0000
,
1000
0100
1000
0100
0010
0000
0110
0000
,
1001
0000
0110
0100
0010
0000
1000
0000
,
0001
0010
1000
0010
0100
1000
0001
0000
,
1000
0000
0000
0010
0000
0000
1000
0000
0001
0000
1000
0000
0002
0000
0000
0000
0000
0000
0013
0000
0000
0000
0000
0000
,
0001
0100
1000
0100
0010
0000
1100
0000
,
0011
0000
1100
1000
0100
0000
1000
0000
,
0001
1000
0001
0000
1000
0100
0010
0000
,
0001
0000
2000
0000
3001
1000
0001
0010
,
0100
0010
0100
0000
0010
0100
0010
0000
0110
0000
0000
0110
0000
0000
0110
0000
,
0200
0000
0000
0000
0310
0000
0001
0000
1000
0000
0001
0000
0010
0000
0100
0010
,
0100
0000
0010
0000
0001
0100
0001
0000
1000
0000
0100
0000
1000
0000
0010
0000
,
1010
0000
0000
1000
0001
0000
1000
0000
0001
0000
0000
0010
0100
0000
0010
0000
,
0100
0000
1000
0000
0200
0000
0000
0000
1300
0000
0000
0100
1000
0000
0010
0000
,
1000
0000
1000
0001
0100
0010
0100
0010
,
0200
0000
0301
0000
M002
00M0
M000
00M0
,
M000
00M0
M000
00M0
M000
00M0
M000
00M0
,
M000
00M0
M000
00M0
1003
0001
0100
0001
,
1000
0000
0001
0000
0100
0000
0001
0000
1000
0010
1000
0100
0001
0100
0010
0001
,
1000
0100
0001
0100
0010
0001
1000
0001
1001
0000
0000
0100
0000
0000
0010
0000
,
0110
0000
0000
0010
0000
0000
1000
0001
1000
0000
0000
0100
0000
0000
0010
0000
,
0110
0000
0000
0010
0000
0000
0004
0000
0013
0000
0001
0000
1000
0000
0001
0000
,
0010
0000
0100
0000
1000
0001
1000
0001
1000
0000
0000
0000
0100
0010
0100
0010
,
0110
0000
0000
0010
0001
0000
0001
0000
1000
0100
0000
0100
1000
0000
0001
0000
,
0010
0100
0000
0100
1000
0000
0001
0000
0100
0001
0000
0001
0010
0000
0100
0010
,
0100
0010
0000
0010
0001
0000
1000
0000
0100
0010
0000
0010
0001
0000
1000
0000
,
0001
0100
0000
0100
0010
0000
0010
0000
4000
3004
4003
3004
1003
0100
0000
0100
,
0010
0000
0100
0000
1000
0001
0000
0001
0010
0000
0100
0000
0010
0100
0000
0100
,
1000
0000
0001
0000
1000
0010
0000
0010
0100
0000
0001
1000
0001
1000
0000
1000
,
0100
0000
0010
0000
0001
0010
0000
0010
1000
0000
0010
0000
0001
0000
0010
0000
,
0100
0000
1000
0000
0001
0000
0001
0000
1000
0010
1000
0010
1010
0000
0000
1000
,
0001
0000
0001
0000
1000
0010
1000
0000
0001
1000
0001
0000
0100
0010
0100
0000
,
0001
1000
0001
0000
0010
0100
0010
0000
1000
0000
1000
0000
1010
0000
0000
1000
,
0001
0000
1000
0000
0001
0010
0001
0000
1000
0100
1000
0000
0001
0100
0001
0000
,
1000
0100
1000
0000
0004
4003
3004
4003
3001
0000
1000
0100
1000
0000
0001
0100
,
1000
0100
0001
0000
0001
0000
0040
0000
0130
0000
0010
0001
0010
0000
0001
1000
,
0010
1000
0001
0000
1000
0100
1000
0100
1000
0000
0001
0010
0001
0000
1000
0010
,
0001
0010
1000
0000
0010
0000
0100
0000
0110
0000
1001
0000
0110
0000
1001
0000
,
0120
1000
0100
1000
0130
0000
0010
0000
1000
0100
1000
0000
0001
0000
0010
0000
,
0001
0000
0001
1000
0001
0000
1000
0000
0010
1000
0010
0000
0100
0000
1000
0100
,
0001
0010
0001
0100
0010
1000
0001
0010
,
0100
0000
1000
0000
0010
0000
0100
0000
0001
0000
1000
0000
0001
1000
0001
1000
,
0001
0010
0100
0010
0100
0000
0010
0000
0100
0000
0110
0000
0000
0110
0000
0000
,
1000
0000
0000
0000
0000
0000
0000
0000
0000
0000
0000
0000
0000
0000
0000
0000
0001
0000
0000
0000
0000
0000
0000
0000
0000
0000
0000
0000
0000
0000
0000
0000
1000
0000
0000
0000
0000
0000
0000
0000
0000
0000
0000
0000
0000
0000
0000
0000
0001
0000
0000
0000
0000
0000
0000
0000
0000
0000
0000
0000
0000
0000
0000
0000
0000
0000
0000
0000
0000
0000
0000
0000
1000
0000
0000
0000
0000
0000
0000
0000
0000
0000
0000
0000
0100
0000
0000
0000
0000
0000
0000
0000
0000
0000
0000
0000
1000
0000
0000
0000
0000
0000
0000
0000
0000
0000
0000
0000
0000
0000
0000
0000
0000
0000
0000
0000
0000
0000
0000
0000
1100
0000
0000
0000
0000
0000
0000
0000
0000
0000
0000
0000
0000
0000
0000
0000
0000
0000
0000
0000
0000
0000
0000
0000
0000
0000
0000
0000
0000
0000
0000
0000
0000
0000
0000
0000
1100
0000
0000
0000
0000
0000
0000
0000
0000
0000
0000
0000
0000
0000
0000
0000
0000
0000
0000
0000
0000
0000
0000
0000
1000
0000
0000
0000
0000
0000
0100
0000
0000
0000
0000
0000
,
1000
0100
0000
0000
1001
1000
0000
0001
1000
0000
1001
0000
0000
1001
0000
0000
,
0001
0000
0000
0000
0000
0000
0000
0000
0000
0000
0000
0000
0000
0000
0000
0000
0010
0000
0000
0000
0000
0000
0000
0000
0000
0000
0000
0000
0000
0000
0000
0000
0001
0000
0000
0000
0000
0000
0000
0000
0000
0000
0000
0000
0000
0000
0000
0000
0100
0000
0000
0000
0000
0000
0000
0000
0000
0000
0000
0000
0000
0000
0000
0000
0000
0000
0000
0000
0000
0000
0000
0000
0001
0000
0000
0000
0000
0000
0000
0000
0000
0000
0000
0000
0100
0000
0000
0000
0000
0000
0000
0000
0000
0000
0000
0000
0001
0000
0000
0000
0000
0000
0000
0000
0000
0000
0000
0000
0000
0000
0000
0000
0000
0000
0000
0000
0000
0000
0000
0000
0101
0000
0000
0000
0000
0000
0000
0000
0000
0000
0000
0000
0000
0000
0000
0000
0000
0000
0000
0000
0000
0000
0000
0000
0000
0000
0000
0000
0000
0000
0000
0000
0000
0000
0000
0000
0101
0000
0000
0000
0000
0000
0000
0000
0000
0000
0000
0000
0000
0000
0000
0000
0000
0000
0000
0000
0000
0000
0000
0000
0001
0000
0000
0000
0000
0000
0100
0000
0000
0000
0000
0000
,
0001
0000
0000
0000
;

//---------------dance-single - The calm b4 the moombah beats----------------
#NOTES:
     dance-single:
     X-Scale 9:
     Easy:
     6:
     0.410374,0.537413,0.130573,0.075595,0.134010,418.000000,399.000000,19.000000,11.000000,8.000000,0.000000,0.410374,0.537413,0.130573,0.075595,0.134010,418.000000,399.000000,19.000000,11.000000,8.000000,0.000000:
0000
0000
0000
0000
,
0000
0000
0000
0000
,
0000
0000
0000
0000
,
0000
0000
0000
0000
,
0001
1000
0001
1000
,
0100
0010
0100
0010
,
0001
1000
0001
1000
0010
0100
0010
0100
,
0001
0010
0001
0010
0011
0000
0001
0000
,
1000
0000
0001
0000
1000
0001
1000
0001
,
1000
0001
0020
0000
0130
0000
0010
0000
,
0100
1000
0001
1000
0100
0010
0100
0010
,
0200
0000
0300
0000
0110
0000
0000
0000
0001
0000
0000
0000
1000
0000
0000
1000
,
0000
0000
1000
0000
0001
0000
0000
0000
0010
0000
0000
0000
0100
0000
0000
0100
,
0000
0000
0100
0000
1000
0000
0000
0000
0001
0000
0000
0000
0010
0000
0000
0010
,
0000
0010
0001
0001
0001
0000
0011
0000
,
0001
1000
0010
1000
,
0001
0010
0001
0010
0001
0000
1000
0000
,
0010
0000
1000
0100
1000
0100
1000
0000
,
0001
0000
0010
0000
0100
0010
0110
0000
,
0000
0011
0000
0000
0011
0000
0101
0000
,
0000
1001
0000
0000
1001
0000
1010
0000
,
0000
0110
0000
0000
0110
0000
1010
1000
,
0001
1000
2000
0000
0000
0000
3001
0000
,
1000
0100
1000
0000
0001
0000
0010
0000
,
0001
0000
0100
0010
0100
0000
1000
0000
,
0100
0010
0100
0000
0001
1000
0001
0000
,
1000
0010
2000
3010
,
1000
0100
1000
0000
0010
0000
0100
0000
,
0001
0000
1000
0001
1000
0000
0010
0000
,
0100
0001
0100
0000
0010
0100
0010
0000
,
0010
0000
2010
0000
3100
1000
0001
1000
,
0100
0000
0010
0000
0001
0000
1000
0000
0001
0000
0000
0001
0000
0000
0001
0000
,
0020
0000
0031
0010
1000
0010
0001
0100
,
0010
1000
0100
1000
0001
0010
0001
0001
,
0011
0000
0001
1000
0001
0000
1000
0000
,
0010
0100
0020
0000
1030
0000
0010
0001
,
0010
0000
0100
0000
0001
1000
0001
1000
,
0002
0003
200M
00M0
,
0M00
00M0
000M
00M0
,
0M00
0000
00M0
0000
3100
1000
0100
1000
,
0001
0100
0001
0100
0010
0001
0010
1000
,
0100
1000
0010
0100
0110
0000
0001
0010
,
0001
0000
1000
0100
1000
0000
0100
0010
,
0100
0000
0001
0100
0001
0010
0100
1000
,
0001
0000
1000
0000
0100
0000
0010
0000
0100
0000
0000
0000
1000
0001
2000
0000
,
3001
0000
0000
0000
0001
0000
0001
0000
0010
0100
0000
0010
0100
0000
1000
0000
,
0100
0010
0000
0100
0010
0000
0001
0000
0010
0100
0000
0010
0100
0000
1000
0000
,
0010
0100
0000
0010
0100
0000
0001
0000
0100
0010
0000
0100
0010
0000
1000
0000
,
0010
0100
0000
0010
0100
0000
0001
0000
0010
0100
0010
0100
0010
0001
0000
0010
,
0001
0000
1000
0000
0010
0100
0000
0010
0100
0000
0001
0000
1000
0100
0000
1000
,
0100
0000
1000
0000
0001
0010
0000
0001
0010
0000
0100
0000
1000
0010
0000
1000
,
0010
0000
0100
0000
0001
0010
0000
0001
0010
0000
0001
0000
1000
0000
1000
0000
,
0100
0100
1000
0001
0010
0100
0110
0000
,
0010
0010
0001
1000
0001
0010
1000
0010
,
0100
1000
0001
0100
0010
0010
1000
0000
,
0100
0100
1000
0001
1000
0100
0001
0100
,
0010
0000
0001
0000
1000
0001
1000
0001
1000
0000
0100
0000
1000
0000
0001
0000
,
0010
0100
0010
0001
1000
0010
1000
0100
,
0010
0001
0100
0001
0010
0100
0001
0100
,
1000
0010
0100
0001
1000
0000
0001
0000
,
1002
1003
0001
1000
,
0100
1000
0001
0100
,
0010
0000
1000
0010
0100
0010
1000
0100
,
0001
0100
0010
0001
1000
0100
1000
0001
,
0010
0000
0001
0000
1000
0000
0010
0000
0010
0000
1000
0000
0000
0100
0000
0000
,
1000
0000
0000
0000
0001
0000
1000
0000
0100
0000
1000
0000
0000
0001
0000
0001
,
0010
0000
0000
0000
0011
0000
0000
0000
1000
0000
0001
0000
0000
1000
0000
0000
,
0001
0000
0000
0000
0010
0000
0000
0000
0100
0000
0010
0000
0000
0001
0000
0001
,
1000
0000
0000
0000
;

//---------------dance-single - Not-so-easy Beginner chart----------------
#NOTES:
     dance-single:
     X-Scale 5:
     Beginner:
     3:
     0.274891,0.350487,0.178679,0.089340,0.003436,280.000000,254.000000,26.000000,13.000000,0.000000,0.000000,0.274891,0.350487,0.178679,0.089340,0.003436,280.000000,254.000000,26.000000,13.000000,0.000000,0.000000:
0000
0000
0000
0000
,
0000
0000
0000
0000
,
0000
0000
0000
0000
,
0000
0000
0000
0000
,
0001
0000
0010
0000
,
0100
0000
1000
0000
,
0001
1000
0001
0010
,
0011
0000
1100
0000
,
1000
0000
0001
1000
,
0001
0000
1001
0000
,
0100
0000
0001
1000
,
0001
1001
0000
0100
,
0000
0000
0120
0030
0000
0000
0001
0000
,
0000
0000
0021
0030
0000
0000
0001
0000
,
0000
1100
0000
0011
,
0001
1000
0010
1000
,
0001
0010
0002
1003
,
0010
0001
0010
2000
,
3200
0320
0032
0013
,
0000
0010
0000
0000
0010
0000
0011
0000
,
0000
0001
0000
0000
0001
0000
1001
0000
,
0000
1000
0000
0000
1000
0000
1100
0000
,
0000
0201
0000
0301
,
0100
0000
0000
0001
0100
0000
0010
0000
,
0010
1000
0000
1000
,
1100
0000
0000
1000
0001
0000
0010
0000
,
0001
0100
0000
0010
,
0110
0000
0000
0100
0010
0000
0100
0000
,
0001
1000
0000
0001
,
0100
0000
0000
0001
0010
0000
0001
0000
,
1000
2001
3001
1000
,
0100
1000
0001
0010
,
0200
0310
0100
1000
,
0001
0100
0010
1000
,
1001
0010
0001
1000
,
0001
1000
0001
0000
1000
0000
0010
0000
,
0100
0001
0001
1000
,
0100
2000
0002
0000
,
0000
0000
0000
0000
,
0000
0000
3000
1000
,
0100
1000
0010
0100
,
1000
0000
0010
0000
0103
0000
0000
0001
,
0100
0000
0000
0010
0100
0000
0000
0001
,
1000
0000
0000
0100
0010
0000
0100
0000
,
1000
0000
0000
0000
0100
0000
0010
0000
0100
0000
0000
0000
0000
0000
0001
0001
,
0011
0000
0001
1000
0001
0000
1000
0100
,
1000
0000
0001
0010
0001
0000
0100
0010
,
0100
0000
0001
0100
0001
0000
1000
0010
,
1000
0000
0001
0010
0001
0000
0011
0000
,
0001
1000
0001
0000
1000
0100
1000
0000
,
0010
0100
0010
0000
1000
0001
1000
0000
,
0001
0100
0001
0000
0010
0100
0010
0000
,
0001
0000
1000
0000
0001
0001
1001
0000
,
1000
0010
1000
0000
0001
0010
0001
0000
,
0100
0010
0100
0000
0001
0010
0001
0000
,
1000
0100
1000
0000
0100
0010
0100
0000
,
0001
0010
0001
0000
1100
0000
1000
0010
,
1000
0000
0001
0020
0031
0000
1000
0100
,
1000
0000
0100
0010
0100
0000
0010
0001
,
0010
0000
0001
1000
0001
0000
0010
0000
,
0100
1100
0000
1000
,
0100
1000
0000
0001
,
0010
0001
1000
0010
,
0100
0000
0001
0000
1000
0000
0100
0010
,
0100
1000
0100
0000
1000
1100
0000
0000
,
1000
0000
0001
0000
0010
0011
0000
0000
,
0010
0000
0011
0000
1000
1001
0000
0000
,
0010
0000
0100
0000
0010
0110
0000
0000
,
0100
0000
0000
0000
;
