#VERSION:0.83;
#TITLE:BOYFRIEND;
#SUBTITLE:;
#ARTIST:That Kid;
#TITLETRANSLIT:;
#SUBTITLETRANSLIT:;
#ARTISTTRANSLIT:;
#GENRE:Bubblegum Pop;
#ORIGIN:;
#CREDIT:;
#BANNER:Boyfriend-bn.png;
#BACKGROUND:Boyfriend-bg.png;
#PREVIEWVID:;
#JACKET:Boyfriend-jacket.png;
#CDIMAGE:;
#DISCIMAGE:;
#LYRICSPATH:;
#CDTITLE:cdtitle.png;
#MUSIC:BOYFRIEND.ogg;
#OFFSET:-0.007000;
#SAMPLESTART:13.983000;
#SAMPLELENGTH:14.445000;
#SELECTABLE:YES;
#BPMS:0.000=133.000;
#STOPS:;
#DELAYS:;
#WARPS:;
#TIMESIGNATURES:0.000=4=4;
#TICKCOUNTS:0.000=4;
#COMBOS:0.000=1;
#SPEEDS:0.000=1.000=0.000=0;
#SCROLLS:0.000=1.000;
#FAKES:;
#LABELS:0.000=Song Start;
#BGCHANGES:0.000=BOYFRIEND.mp4=1.000=1=0=1===CrossFade==,
99999=-nosongbg-=1.000=0=0=0 // don't automatically add -songbackground-
;
#KEYSOUNDS:;
#ATTACKS:
;

//---------------dance-single - ----------------
#NOTEDATA:;
#CHARTNAME:X-Scale 13;
#STEPSTYPE:dance-single;
#DESCRIPTION:;
#CHARTSTYLE:;
#DIFFICULTY:Hard;
#METER:9;
#RADARVALUES:0.525120,0.716437,0.085848,0.398021,0.398021,471.000000,460.000000,11.000000,51.000000,12.000000,0.000000,8.000000,0.000000,0.000000,0.525120,0.716437,0.085848,0.398021,0.398021,471.000000,460.000000,11.000000,51.000000,12.000000,0.000000,8.000000,0.000000,0.000000;
#CREDIT:;
#NOTES:
// measure 0
0000
0000
0000
0000
,  // measure 1
0000
0000
0000
0000
,  // measure 2
0000
0000
0000
0000
,  // measure 3
0000
0000
0000
0000
,  // measure 4
0000
0000
0000
0000
,  // measure 5
0000
0000
0000
0000
,  // measure 6
0000
0000
0000
0000
,  // measure 7
0000
0000
0000
0000
0000
0000
0000
0000
0000
0000
0000
0000
1000
0000
0000
0100
,  // measure 8
0010
0001
0100
0010
2000
0000
3002
0000
,  // measure 9
0013
0000
0000
0000
0100
0000
1000
0000
0001
0000
0000
0000
0010
0000
0M00
0010
,  // measure 10
1000
0001
0100
0010
2000
0000
3002
0000
,  // measure 11
0103
0000
1000
0000
0100
0000
0002
0000
0000
0000
0000
0000
0013
0000
000M
0010
,  // measure 12
1000
0001
1000
0010
0200
0000
0320
0000
,  // measure 13
1030
0000
0000
0000
0001
0000
0010
0000
0100
0000
0000
0000
1000
0000
0000
0001
,  // measure 14
0010
0100
1000
0010
0200
0000
0320
0000
,  // measure 15
1030
0000
0001
0000
0010
0000
0200
0000
0000
0000
0000
0000
1300
0000
0000
0100
,  // measure 16
1000
0100
0010
0001
0200
0000
0302
0000
,  // measure 17
1003
0000
0000
0000
0001
0000
0100
0000
0010
0000
0000
0000
0100
0000
00M0
0100
,  // measure 18
1000
0001
0010
0100
2000
0000
3002
0000
,  // measure 19
0013
0100
1000
0002
0000
0003
0020
0000
,  // measure 20
0031
0000
0000
0010
0004
0000
0003
0000
1000
0010
1000
0010
1000
0000
0000
0000
,  // measure 21
0001
0010
0100
1000
0000
0000
1100
0000
1000
0100
0010
0001
1000
0001
1000
0000
,  // measure 22
0010
0000
0100
0000
0002
0000
0000
0000
0013
0000
0100
1000
0002
0000
0000
0000
,  // measure 23
1003
0000
2000
0010
0000
0000
3010
0000
1000
0001
1000
0001
1000
0000
0000
0000
,  // measure 24
0010
0100
0040
0000
1030
0100
0010
0000
0001
0000
0100
0000
0002
0000
0000
0000
,  // measure 25
0013
0100
1000
0001
0000
0000
1001
0000
1000
0100
0010
0001
1000
0000
0001
0000
,  // measure 26
0011
0000
0000
0110
0000
0000
1100
0000
1010
0000
0000
0110
0000
0000
0101
0000
,  // measure 27
1001
0000
1000
0100
1000
0001
0000
0010
0100
1000
0000
0001
1000
0000
0100
1000
,  // measure 28
0200
0000
0300
0020
0000
0030
0002
0003
2000
0000
0000
0000
3001
0000
1000
0000
,  // measure 29
1001
0000
0000
0001
0000
0010
0000
0001
1000
0000
0100
0000
00M0
0000
0100
0000
,  // measure 30
0001
0000
0000
0001
0000
0100
0000
0001
1000
0000
0100
0000
00M0
0000
0100
0000
,  // measure 31
0001
0000
0010
0000
1000
0000
0010
0000
0100
0000
1000
0100
1000
0000
0004
0000
,  // measure 32
1003
0000
0000
0100
0000
0000
1000
0000
0002
0000
0000
0000
0023
0000
0000
0000
,  // measure 33
0130
0000
0100
0000
0100
1000
0100
1000
0001
0000
0010
0000
1000
0000
0100
0000
,  // measure 34
0001
0000
0000
1000
0001
1000
0000
0010
0100
0000
0004
0000
1003
0000
0100
0000
,  // measure 35
0010
0000
0000
0100
0010
0000
0010
0000
0001
0000
0000
1000
0010
1000
0001
1000
,  // measure 36
0010
0000
0000
0100
0000
0010
4000
0000
3001
0000
0010
0000
0100
0000
0010
0000
,  // measure 37
0004
0000
0003
1000
0000
0010
1000
0001
0010
0000
0001
0000
0200
0000
0000
0000
,  // measure 38
0320
0000
0000
1000
0030
0010
1000
0001
0010
0000
0100
0000
0010
0000
0001
0000
,  // measure 39
1000
0010
0100
0010
1000
0001
0040
0031
1000
0000
0100
0000
0001
0000
0100
0000
,  // measure 40
1010
0000
0000
0001
0000
0010
0000
0001
0100
0000
0010
0000
1000
0000
0004
0000
,  // measure 41
0013
0000
0000
0001
0010
0100
1000
0001
1000
0000
0010
0000
0100
0000
0100
0000
,  // measure 42
0001
0000
0000
1000
0010
1000
0001
0010
0100
0000
0010
0000
0001
0000
1000
0000
,  // measure 43
0001
0100
0010
1000
0001
0010
0100
1000
0010
1000
0001
0010
0100
1000
0010
1000
,  // measure 44
0001
0010
0100
1000
0002
0000
1003
0010
,  // measure 45
0100
0000
0001
0000
1000
0000
0001
0000
0020
0000
0000
0000
0130
0000
00M0
0100
,  // measure 46
0001
1000
0010
0100
0002
0000
1003
0001
,  // measure 47
0010
0000
1000
0000
0001
0000
0100
0000
2000
0000
0000
0000
3010
0000
M000
0010
,  // measure 48
0001
0010
1000
0010
0002
0000
1003
0100
,  // measure 49
0001
0000
1000
0000
0010
0000
0001
0000
0200
0000
0000
0000
0310
0000
0M00
0010
,  // measure 50
0001
1000
0001
0010
0002
0000
1003
0100
,  // measure 51
0001
0000
0100
0000
0010
0000
0100
0000
2000
0000
0000
0000
3010
0000
M000
0010
,  // measure 52
0001
0010
0001
1000
0020
0000
0130
0010
,  // measure 53
0001
0000
0010
0000
1000
0000
0010
0000
0200
0000
0000
0000
0310
0000
0M00
0010
,  // measure 54
0001
0010
0100
0010
0002
0000
1003
0100
,  // measure 55
0001
0000
1000
0000
0010
0000
0001
0000
0200
0000
0000
0000
0310
0000
0M00
0010
,  // measure 56
0001
1000
0100
1000
0020
0000
0031
0010
,  // measure 57
1000
0000
0010
0000
0100
0000
0010
0000
2000
0000
0000
0000
3100
0000
M000
0100
,  // measure 58
0001
0010
0001
1000
0200
0000
0310
0100
,  // measure 59
1000
0100
0010
0001
0100
0010
1000
0100
1000
0010
0100
0001
0010
0100
1000
0001
,  // measure 60
1000
0000
0000
0000
0100
0000
0000
0010
0001
0000
1000
0000
0002
0000
0000
0000
,  // measure 61
0103
0000
0000
0000
0001
0000
0000
0010
0100
0000
0010
0000
0002
0000
0000
0000
,  // measure 62
0103
0000
0000
0000
0010
0000
0000
1000
0001
0000
0100
0000
0020
0000
0000
0000
,  // measure 63
0130
0000
0000
0000
0001
0000
0000
1000
0100
0000
0010
0000
0002
0000
0000
0000
,  // measure 64
0103
0000
0000
0000
0001
0000
0000
0010
1000
0000
0010
0000
0002
0000
0000
0000
,  // measure 65
0103
0000
0000
0000
0001
0000
0000
0010
1000
0000
0010
0000
0002
0000
0000
0000
,  // measure 66
0013
0000
0000
0000
0001
0000
0000
0100
1000
0000
0100
0000
0002
0000
0000
0000
,  // measure 67
0013
0000
0000
0000
0001
0000
0000
0100
1000
0000
0100
0000
0002
0000
0000
0000
,  // measure 68
0003
0000
0000
0000
;

//---------------dance-single - ----------------
#NOTEDATA:;
#CHARTNAME:X-Scale 10;
#STEPSTYPE:dance-single;
#DESCRIPTION:;
#CHARTSTYLE:;
#DIFFICULTY:Medium;
#METER:7;
#RADARVALUES:0.377953,0.451090,0.101456,0.686781,0.187304,339.000000,326.000000,13.000000,88.000000,0.000000,0.000000,0.000000,0.000000,0.000000,0.377953,0.451090,0.101456,0.686781,0.187304,339.000000,326.000000,13.000000,88.000000,0.000000,0.000000,0.000000,0.000000,0.000000;
#CREDIT:;
#NOTES:
// measure 0
0000
0000
0000
0000
,  // measure 1
0000
0000
0000
0000
,  // measure 2
0000
0000
0000
0000
,  // measure 3
0000
0000
0000
0000
,  // measure 4
0000
0000
0000
0000
,  // measure 5
0000
0000
0000
0000
,  // measure 6
0000
0000
0000
0000
,  // measure 7
0000
0000
0000
0000
,  // measure 8
1000
0000
0010
0100
0002
0000
2003
0000
,  // measure 9
3010
0000
0100
0010
1000
0000
0100
0000
,  // measure 10
0010
0000
0001
1000
0200
0000
0320
0000
,  // measure 11
0031
1000
0100
0020
0000
0000
0031
0000
,  // measure 12
0100
0000
0010
0100
0002
0000
2003
0000
,  // measure 13
3010
0000
1000
0100
0010
0000
0100
0000
,  // measure 14
1000
0000
0001
0100
0020
0000
0230
0000
,  // measure 15
0301
1000
0100
0020
0000
0000
0031
0000
,  // measure 16
1000
0000
0010
0100
0002
0000
2003
0000
,  // measure 17
3010
0000
0100
0010
1000
0000
0001
0000
,  // measure 18
0010
0000
0001
1000
0200
0000
0320
0000
,  // measure 19
0031
0100
0010
2000
0000
0000
3000
0000
,  // measure 20
1001
0000
0000
0001
0000
0000
1000
0000
1001
0000
0000
0000
0110
0000
0000
0000
,  // measure 21
1001
0000
0000
0001
0000
0000
1000
0000
1001
0000
0000
0000
0100
0000
0001
0000
,  // measure 22
1000
0100
0020
0000
0031
0000
0011
0000
,  // measure 23
1001
0000
0000
1000
0000
0000
0001
1000
0001
0010
0000
0000
0011
0000
0000
0000
,  // measure 24
2002
3003
0000
0000
1000
0100
0020
0100
,  // measure 25
0130
0000
0000
1000
0000
0000
0001
0000
1001
0000
0000
0000
1000
0000
0100
0000
,  // measure 26
0001
0000
0000
1000
0000
0000
0010
0000
0001
0000
0000
1000
0000
0000
0001
0000
,  // measure 27
0020
0000
0000
1000
0000
0000
0001
0000
0031
0000
0000
0000
0011
0000
0010
0000
,  // measure 28
0101
0000
0000
1000
0000
0000
0001
0000
0020
0000
0000
0000
0130
0000
0010
0000
,  // measure 29
0100
0000
0000
1000
0000
0001
0000
1000
0001
0000
0000
0010
0000
0000
0100
0000
,  // measure 30
1000
0000
0000
0001
0000
0100
0000
0001
0100
0000
0000
0010
0000
0000
1000
0000
,  // measure 31
0001
0010
1000
0010
0002
0000
2003
0000
,  // measure 32
3100
0000
0000
1000
0000
0000
0001
0000
0200
0000
0000
0000
0320
0000
0000
0000
,  // measure 33
1030
0000
0000
0010
0000
0100
0000
0010
1000
0000
0000
0100
0000
0000
0010
0000
,  // measure 34
0001
0000
0000
1000
0000
0010
0000
1000
0001
0000
0000
0100
0000
0000
0010
0000
,  // measure 35
1000
0100
0001
0100
2000
0000
3002
0000
,  // measure 36
0013
0000
0000
0001
0000
0100
0002
0000
0003
0000
1000
0000
0100
0000
0010
0000
,  // measure 37
0001
0000
0000
1000
0000
0010
0000
1000
0000
0000
1000
0000
0100
0000
0010
0000
,  // measure 38
0001
0000
0000
1000
0000
0010
0000
1000
0000
0000
0001
0000
0100
0000
0010
0000
,  // measure 39
2000
0000
3000
0002
0100
0103
0001
0010
,  // measure 40
0101
0000
0000
0100
0000
0010
0000
1000
0000
0000
0001
0000
0010
0000
0100
0000
,  // measure 41
1000
0000
0000
0001
0000
1000
0000
0001
0000
0000
0010
0000
0001
0000
1000
0000
,  // measure 42
0010
0000
0000
0100
0000
0010
0000
0100
0000
0000
0001
0000
0010
0000
0100
0000
,  // measure 43
2000
0000
0000
0000
3000
0000
2000
0000
0000
0000
3000
0000
0002
0000
0000
0013
,  // measure 44
0001
0100
1000
0100
0020
0000
2030
0000
,  // measure 45
3001
0010
0100
1000
0020
0000
0230
0000
,  // measure 46
0301
0100
1000
0100
0020
0000
2030
0000
,  // measure 47
3000
0000
0100
0000
0010
0000
0002
0000
0000
0000
0000
0000
2003
0000
0000
3100
,  // measure 48
1000
0010
0001
0010
0200
0000
0302
0000
,  // measure 49
1003
0100
0010
0001
2000
0000
3020
0000
,  // measure 50
1030
0010
0001
0010
0200
0000
0302
0000
,  // measure 51
0003
0000
1000
0000
0001
0000
0020
0000
0000
0000
0000
0000
0230
0000
0000
1300
,  // measure 52
0100
1000
0001
0010
0200
0000
2300
0000
,  // measure 53
3001
0100
0010
0100
0002
0000
0023
0000
,  // measure 54
0130
1000
0001
0010
0200
0000
2300
0000
,  // measure 55
3000
0000
0010
0000
0100
0000
0002
0000
0000
0000
0000
0000
2003
0000
0000
3010
,  // measure 56
1000
0100
0001
0010
2000
0000
3002
0000
,  // measure 57
0103
0001
1000
0100
0020
0000
0032
0000
,  // measure 58
1003
0100
0001
0010
2000
0000
3002
0000
,  // measure 59
0003
0100
0001
2000
0000
0000
3000
0000
,  // measure 60
0002
0003
1000
0002
0003
0000
0002
0000
,  // measure 61
0023
0030
0100
0020
0030
0000
0020
0000
,  // measure 62
0032
0003
1000
0002
0003
0000
0002
0000
,  // measure 63
0023
0030
0100
0020
0030
0000
0020
0000
,  // measure 64
0032
0003
0000
2000
3000
0000
0002
0000
,  // measure 65
0203
0300
0000
0020
0030
0000
0200
0000
,  // measure 66
0302
0003
0000
2000
3000
0000
0002
0000
,  // measure 67
0023
0030
0000
0200
0300
0000
0020
0000
,  // measure 68
0030
0000
0000
0000
;

//---------------dance-single - ----------------
#NOTEDATA:;
#CHARTNAME:X-Scale 6;
#STEPSTYPE:dance-single;
#DESCRIPTION:;
#CHARTSTYLE:;
#DIFFICULTY:Easy;
#METER:4;
#RADARVALUES:0.304369,0.370120,0.046826,0.171695,0.000000,273.000000,267.000000,6.000000,22.000000,0.000000,0.000000,0.000000,0.000000,0.000000,0.304369,0.370120,0.046826,0.171695,0.000000,273.000000,267.000000,6.000000,22.000000,0.000000,0.000000,0.000000,0.000000,0.000000;
#CREDIT:;
#NOTES:
// measure 0
0000
0000
0000
0000
,  // measure 1
0000
0000
0000
0000
,  // measure 2
0000
0000
0000
0000
,  // measure 3
0000
0000
0000
0000
,  // measure 4
0000
0000
0000
0000
,  // measure 5
0000
0000
0000
0000
,  // measure 6
0000
0000
0000
0000
,  // measure 7
0000
0000
0000
0000
,  // measure 8
1000
0100
1000
0100
,  // measure 9
0010
0001
0010
0001
,  // measure 10
1000
0010
1000
0010
,  // measure 11
0100
0010
0100
0002
0000
0000
1003
0000
,  // measure 12
0001
0100
0001
0100
,  // measure 13
0010
1000
0010
1000
,  // measure 14
0001
0010
0001
0010
,  // measure 15
0100
1000
0001
0200
0000
0000
0310
0000
,  // measure 16
0100
0010
0100
0001
,  // measure 17
0010
0001
0010
0100
,  // measure 18
1000
0100
1000
0001
,  // measure 19
0100
0000
0000
0010
0000
0000
0100
0000
,  // measure 20
0110
0000
0000
1000
1001
0000
0002
0000
,  // measure 21
1000
0000
0003
0001
0011
0000
0100
0000
,  // measure 22
0001
1000
0200
0000
0310
0000
0002
0000
,  // measure 23
0003
2000
0000
0000
3010
0000
1000
0000
,  // measure 24
1001
0000
0000
0000
0001
0100
0002
0000
,  // measure 25
0013
0200
0000
1300
0100
0000
1000
0100
,  // measure 26
0010
0000
0000
0001
0100
0000
0000
0010
,  // measure 27
2000
0000
0000
0001
3001
0000
0010
0100
,  // measure 28
0110
0000
0000
0000
0000
0000
1000
0001
,  // measure 29
1000
0000
0010
0000
0100
0000
0001
0100
,  // measure 30
0001
0000
0010
0000
0100
0000
1000
0100
,  // measure 31
1000
0000
0010
0000
0100
0000
0001
1000
,  // measure 32
0001
0010
0200
2300
,  // measure 33
3001
0001
0002
0000
0013
0100
1000
0001
,  // measure 34
1000
0000
0010
0000
0100
0002
1003
0001
,  // measure 35
0010
0000
0100
0100
2000
0000
3002
0000
,  // measure 36
0013
0000
0100
0010
0100
0000
2000
0000
,  // measure 37
3002
0000
0013
0000
0100
0010
0001
1000
,  // measure 38
0001
0000
0010
0000
0100
1000
0001
0100
,  // measure 39
0010
0000
1000
0000
0100
0010
0001
1000
,  // measure 40
0001
0000
0100
0010
0100
0000
0002
0000
,  // measure 41
2003
0000
3100
0000
1000
0010
0001
0010
,  // measure 42
1000
0000
0001
0000
0010
0100
0001
0100
,  // measure 43
0020
0000
0030
0002
0000
0003
0011
0000
,  // measure 44
1000
0000
0001
0010
0100
0000
1000
0000
,  // measure 45
0100
0000
1000
0010
0100
0000
0001
0000
,  // measure 46
1000
0000
0001
0010
0100
0000
1000
0000
,  // measure 47
0100
0000
1000
0010
0100
0000
0001
0000
,  // measure 48
1000
0000
0010
0100
0001
0000
1000
0000
,  // measure 49
0001
0000
1000
0100
0010
0000
0001
0000
,  // measure 50
1000
0000
0010
0100
0001
0000
1000
0000
,  // measure 51
0001
0000
1000
0100
0010
0000
0001
0000
,  // measure 52
0100
0000
0010
0100
0001
0000
1000
0000
,  // measure 53
0001
0000
0010
0100
1000
0000
0010
0000
,  // measure 54
0100
0000
0010
0100
0001
0000
1000
0000
,  // measure 55
0001
0000
0010
0100
1000
0000
0010
0000
,  // measure 56
0100
0000
0001
0010
0100
0000
1000
0000
,  // measure 57
0010
0000
0100
0010
1000
0000
0001
0000
,  // measure 58
0100
0000
0001
0010
0100
0000
1000
0000
,  // measure 59
0002
0000
0000
0000
,  // measure 60
1003
0000
0000
0001
0000
0000
1000
0000
,  // measure 61
0100
0000
0000
0010
0000
0000
0100
0000
,  // measure 62
1000
0000
0000
0010
0000
0000
1000
0000
,  // measure 63
0001
0000
0000
0010
0000
0000
0001
0000
,  // measure 64
0100
0000
0000
0010
0000
0000
0100
0000
,  // measure 65
0001
0000
0000
1000
0000
0000
0001
0000
,  // measure 66
0010
0000
0000
0100
0000
0000
0010
0000
,  // measure 67
0001
0000
0000
0100
0000
0000
0001
0000
;

//---------------dance-single - ----------------
#NOTEDATA:;
#CHARTNAME:X-Scale 1;
#STEPSTYPE:dance-single;
#DESCRIPTION:;
#CHARTSTYLE:;
#DIFFICULTY:Beginner;
#METER:1;
#RADARVALUES:0.104801,0.159208,0.000000,0.000000,0.000000,94.000000,94.000000,0.000000,0.000000,0.000000,0.000000,0.000000,0.000000,0.000000,0.104801,0.159208,0.000000,0.000000,0.000000,94.000000,94.000000,0.000000,0.000000,0.000000,0.000000,0.000000,0.000000,0.000000;
#CREDIT:;
#NOTES:
// measure 0
0000
0000
0000
0000
,  // measure 1
0000
0000
0000
0000
,  // measure 2
0000
0000
0000
0000
,  // measure 3
0000
0000
0000
0000
,  // measure 4
0000
0000
0000
0000
,  // measure 5
0000
0000
0000
0000
,  // measure 6
0000
0000
0000
0000
,  // measure 7
0000
0000
0000
0000
,  // measure 8
1000
0000
0001
0000
,  // measure 9
1000
0000
0001
0000
,  // measure 10
0010
0000
0100
0000
,  // measure 11
0010
0000
0100
0000
,  // measure 12
1000
0000
0010
0000
,  // measure 13
1000
0000
0010
0000
,  // measure 14
0100
0000
0001
0000
,  // measure 15
0100
0000
0001
0000
,  // measure 16
1000
0000
0010
0000
,  // measure 17
0100
0000
0001
0000
,  // measure 18
0010
0000
0100
0000
,  // measure 19
1000
0000
0000
0000
,  // measure 20
1000
0000
0001
0000
,  // measure 21
1000
0000
0001
0000
,  // measure 22
0010
0000
0100
0000
,  // measure 23
0010
0000
0100
0000
,  // measure 24
1000
0000
0010
0000
,  // measure 25
1000
0000
0010
0000
,  // measure 26
0100
0000
0001
0000
,  // measure 27
0100
0000
0001
0000
,  // measure 28
1000
0000
0000
0000
,  // measure 29
0001
0000
0010
0000
,  // measure 30
0100
0000
1000
0000
,  // measure 31
0010
0000
0100
0000
,  // measure 32
0001
0000
0000
0000
,  // measure 33
1000
0000
0010
0000
,  // measure 34
0100
0000
0001
0000
,  // measure 35
0010
0000
0100
0000
,  // measure 36
1000
0000
0001
0100
,  // measure 37
0001
0000
0010
0000
,  // measure 38
0100
0000
0010
0000
,  // measure 39
0100
0000
0000
0000
,  // measure 40
1000
0000
0001
0100
,  // measure 41
0001
0000
0010
0000
,  // measure 42
0100
0000
0010
0000
,  // measure 43
0100
0000
0000
0000
,  // measure 44
1000
0000
0000
0000
,  // measure 45
0100
0000
0000
0000
,  // measure 46
0010
0000
0000
0000
,  // measure 47
0001
0000
0000
0000
,  // measure 48
1000
0000
0000
0000
,  // measure 49
0100
0000
0000
0000
,  // measure 50
0010
0000
0000
0000
,  // measure 51
0001
0000
0000
0000
,  // measure 52
1000
0000
0000
0000
,  // measure 53
0010
0000
0000
0000
,  // measure 54
0100
0000
0000
0000
,  // measure 55
0001
0000
0000
0000
,  // measure 56
1000
0000
0000
0000
,  // measure 57
0010
0000
0000
0000
,  // measure 58
0100
0000
0000
0000
,  // measure 59
0001
0000
0000
0000
,  // measure 60
1000
0000
0000
0000
,  // measure 61
0001
0000
0000
0000
,  // measure 62
1000
0000
0000
0000
,  // measure 63
0001
0000
0000
0000
,  // measure 64
0100
0000
0000
0000
,  // measure 65
0010
0000
0000
0000
,  // measure 66
0100
0000
0000
0000
,  // measure 67
0010
0000
0000
0000
,  // measure 68
0100
0000
0000
0000
;
