#VERSION:0.83;
#TITLE:BALL SO HARD;
#SUBTITLE:;
#ARTIST:STÖÖKI SOUND x hucci;
#TITLETRANSLIT:;
#SUBTITLETRANSLIT:;
#ARTISTTRANSLIT:Stooki Sound x Hucci;
#GENRE:Trap;
#ORIGIN:;
#CREDIT:;
#BANNER:ball so hard-bn.png;
#BACKGROUND:ball so hard-bg.png;
#PREVIEWVID:;
#JACKET:ball so hard-jacket.png;
#CDIMAGE:;
#DISCIMAGE:;
#LYRICSPATH:;
#CDTITLE:cdtitle.png;
#MUSIC:ball so hard.ogg;
#OFFSET:0.000000;
#SAMPLESTART:14.015000;
#SAMPLELENGTH:14.000000;
#SELECTABLE:YES;
#BPMS:0.000=68.500;
#STOPS:;
#DELAYS:;
#WARPS:;
#TIMESIGNATURES:0.000=4=4;
#TICKCOUNTS:0.000=4;
#COMBOS:0.000=1;
#SPEEDS:0.000=1.000=0.000=0;
#SCROLLS:0.000=1.000;
#FAKES:;
#LABELS:0.000=Song Start;
#BGCHANGES:;
#KEYSOUNDS:;
#ATTACKS:
;

//---------------dance-single - ----------------
#NOTEDATA:;
#CHARTNAME:;
#STEPSTYPE:dance-single;
#DESCRIPTION:;
#CHARTSTYLE:;
#DIFFICULTY:Medium;
#METER:7;
#RADARVALUES:0.367845,0.376973,0.264451,0.083511,0.347962,185.000000,166.000000,19.000000,6.000000,0.000000,0.000000,1.000000,0.000000,0.000000,0.367845,0.376973,0.264451,0.083511,0.347962,185.000000,166.000000,19.000000,6.000000,0.000000,0.000000,1.000000,0.000000,0.000000;
#CREDIT:;
#NOTES:
// measure 0
0000
0000
0000
0000
,  // measure 1
0000
0000
0000
0000
,  // measure 2
0102
0000
0100
0000
0000
0003
0010
0002
,  // measure 3
0000
0000
0000
0000
0000
0000
0000
0000
0000
0000
0000
0000
1000
0000
0000
0000
0000
0000
0000
0000
0000
0000
0000
0000
0003
0000
0000
0000
0000
0000
0000
0000
0000
0000
0000
0000
0020
0000
0000
0000
0000
0000
0000
0000
0000
0000
0000
0030
,  // measure 4
0100
0010
0100
0000
0100
0110
0001
0100
,  // measure 5
0101
0000
0010
0000
0100
0000
1100
0000
1000
0000
1100
0000
0100
0010
0100
0000
,  // measure 6
0101
0001
0010
0010
0100
0110
0100
0010
,  // measure 7
1100
0000
1000
0100
1000
0000
0100
0000
0100
0000
0010
0000
0010
0001
0020
0000
,  // measure 8
0130
0100
0100
0000
0100
0100
0110
0010
,  // measure 9
0011
0000
0001
0000
0001
0000
0101
0000
0100
0000
0110
0000
1000
0100
1000
0000
,  // measure 10
0100
0010
0101
0001
0010
0110
0100
0010
,  // measure 11
1010
0000
0010
0100
0010
0000
0100
0000
0100
0000
0101
0000
1000
0100
0200
0000
,  // measure 12
1300
0000
0001
0000
0001
0010
0000
0010
0010
0000
0110
0010
0010
0000
0100
1000
,  // measure 13
0100
1000
0100
1000
0100
1000
0000
0010
1000
0000
0000
0001
1000
0000
0010
0010
,  // measure 14
0010
0100
0010
0100
0010
0100
0000
0001
1000
0000
0000
0010
1000
0000
0010
0001
,  // measure 15
0010
0100
0010
0001
0010
0100
0000
0100
0100
0000
0000
0010
0010
0100
0200
0000
,  // measure 16
0000
0000
0000
0300
0410
0000
0000
0310
0100
0000
0011
0001
0010
0000
0100
1000
,  // measure 17
0100
0010
0100
1000
0100
0010
0000
0001
0010
0000
0000
0100
1000
0000
0100
0100
,  // measure 18
1000
0100
0010
0001
0010
0100
0000
1000
0100
0000
0000
1000
0001
0000
0010
0010
,  // measure 19
0010
0100
0010
0001
0010
0100
0000
1000
1000
0000
0000
0001
1000
0000
0001
0100
,  // measure 20
0000
0100
0000
0000
0000
0000
0000
0000
0000
0000
0000
0000
0000
0000
0000
0000
;

//---------------dance-single - ----------------
#NOTEDATA:;
#CHARTNAME:;
#STEPSTYPE:dance-single;
#DESCRIPTION:;
#CHARTSTYLE:;
#DIFFICULTY:Hard;
#METER:9;
#RADARVALUES:0.443403,0.446783,0.320125,0.069592,0.494106,223.000000,200.000000,23.000000,5.000000,0.000000,0.000000,6.000000,0.000000,0.000000,0.443403,0.446783,0.320125,0.069592,0.494106,223.000000,200.000000,23.000000,5.000000,0.000000,0.000000,6.000000,0.000000,0.000000;
#CREDIT:;
#NOTES:
// measure 0
0000
0000
0000
0000
,  // measure 1
0000
0000
0000
0000
,  // measure 2
0100
1000
0100
0010
0100
0000
0000
0000
0010
0000
0000
0000
0010
0000
0010
0000
,  // measure 3
0102
0000
1000
0010
1000
0000
0000
0000
0003
0100
0100
0200
0000
0000
0000
0300
,  // measure 4
0100
0000
0100
0000
0110
0000
0010
0001
0010
0000
0011
0000
0001
0000
0100
0000
,  // measure 5
0101
0000
1000
0000
0010
0000
1010
0000
1000
0000
1100
0000
0100
0010
0100
0000
,  // measure 6
0101
0010
0001
0011
0100
0110
0100
0010
,  // measure 7
1100
0000
1000
0100
1000
0000
0110
0000
0100
0000
0011
0000
0010
0001
0020
0000
,  // measure 8
0130
0000
0000
0000
0100
0000
0000
0000
0104
0000
0000
0000
0000
0000
0000
0000
0103
0000
0000
0000
0400
0000
0000
0000
0310
0000
0000
0000
0010
0000
1000
0010
,  // measure 9
1000
0000
0000
0000
0001
0000
0000
0000
0004
0000
0000
0000
0100
0000
0000
0000
0013
0000
0000
0000
0040
0000
0000
0000
0031
0000
0100
0000
0001
0000
1000
0001
,  // measure 10
1000
0000
0000
0000
0100
0000
0000
0000
0004
0000
0000
0000
0100
0000
0000
0000
0013
0000
0000
0000
0004
0000
0000
0000
0103
0000
0000
0000
0010
0000
0010
1000
,  // measure 11
0010
0000
1000
0100
1000
0000
0110
0000
1000
0000
1010
0000
1000
0100
2000
0000
,  // measure 12
3001
0000
0010
0001
1000
0001
0000
0100
0010
0000
0110
0010
0100
0000
0100
1000
,  // measure 13
0100
1000
0100
1000
0100
0010
0000
0010
0010
0000
0110
0100
0100
0000
0001
1000
,  // measure 14
0001
0010
0100
0010
0001
0010
0000
0001
1000
0000
1001
1000
0010
0000
0100
0001
,  // measure 15
0100
0010
0001
0010
0100
0100
0000
0100
0100
0000
0110
0010
0010
0100
0100
0010
,  // measure 16
1000
0000
0100
0000
0010
0000
0001
0000
0010
0000
0010
0000
0000
0000
0010
0000
0010
0000
0000
0000
0011
0000
0010
0000
0010
0000
0000
0000
0001
0000
0010
0001
,  // measure 17
0010
0000
0001
0000
0100
0000
0010
0000
1000
0000
0001
0000
0000
0000
0001
0000
0100
0000
0000
0000
0101
0000
0100
0000
0010
0000
0000
0000
0100
0000
0010
1000
,  // measure 18
0010
0000
1000
0000
0001
0000
1000
0000
0010
0000
1000
0000
0000
0000
1000
0000
0001
0000
0000
0000
0101
0000
0001
0000
0001
0000
0000
0000
0010
0000
0100
0010
,  // measure 19
0100
0010
0100
0010
0100
0010
0000
0010
0001
0000
0011
0001
0100
0002
0100
1000
,  // measure 20
0000
1003
0000
0000
0000
0000
0000
0000
0000
0000
0000
0000
0000
0000
0000
0000
;

//---------------dance-single - ----------------
#NOTEDATA:;
#CHARTNAME:;
#STEPSTYPE:dance-single;
#DESCRIPTION:;
#CHARTSTYLE:;
#DIFFICULTY:Easy;
#METER:4;
#RADARVALUES:0.302230,0.307163,0.320125,0.069592,0.146144,152.000000,129.000000,23.000000,5.000000,0.000000,0.000000,0.000000,0.000000,0.000000,0.302230,0.307163,0.320125,0.069592,0.146144,152.000000,129.000000,23.000000,5.000000,0.000000,0.000000,0.000000,0.000000,0.000000;
#CREDIT:;
#NOTES:
// measure 0
0000
0000
0000
0000
,  // measure 1
0000
0000
0000
0000
,  // measure 2
2100
0100
3000
1000
,  // measure 3
0000
0001
0000
0002
,  // measure 4
1003
0001
0010
0000
0000
0011
0001
0100
,  // measure 5
0101
0000
0100
1100
0000
1100
0100
0010
,  // measure 6
0110
0000
0001
0000
0000
0101
0100
0010
,  // measure 7
1100
1000
0010
0100
0010
0110
0001
0020
,  // measure 8
0031
0100
0010
0000
0000
0110
0001
0010
,  // measure 9
0011
0000
0001
0101
0100
0110
1000
0010
,  // measure 10
0110
0000
0100
0101
0000
0110
0100
0010
,  // measure 11
1010
0010
1000
0010
0100
1100
1000
0020
,  // measure 12
0031
0000
0001
0000
0010
0001
0000
0001
0100
0000
0110
0000
0010
0000
0100
0000
,  // measure 13
1000
0000
0100
0000
0100
1000
0000
1000
0010
0000
0011
0000
0001
0000
0010
0000
,  // measure 14
0010
0000
0100
0000
0010
0100
0000
0100
1000
0000
0100
0000
0010
0000
0100
0000
,  // measure 15
0010
0000
0001
0000
0010
0100
0000
0100
0010
0000
0000
0001
1000
0002
0000
0000
,  // measure 16
0000
0000
0000
0003
0010
0010
0000
0010
0010
0000
0011
0000
0010
0000
0100
0000
,  // measure 17
0100
0000
0010
0000
0010
0001
0000
0001
0010
0000
0010
0000
0100
0000
0100
0000
,  // measure 18
1000
0000
1000
0000
1000
0100
0000
0100
0001
0000
0101
0000
0001
0000
0010
0000
,  // measure 19
0010
0000
0100
0000
1000
1000
0000
1000
1000
0000
1100
1000
0100
0000
0000
0100
,  // measure 20
0000
0100
0000
0000
0000
0000
0000
0000
0000
0000
0000
0000
0000
0000
0000
0000
;

//---------------dance-single - ----------------
#NOTEDATA:;
#CHARTNAME:;
#STEPSTYPE:dance-single;
#DESCRIPTION:;
#CHARTSTYLE:;
#DIFFICULTY:Beginner;
#METER:2;
#RADARVALUES:0.163045,0.192423,0.236614,0.083511,0.020878,82.000000,65.000000,17.000000,6.000000,0.000000,0.000000,0.000000,0.000000,0.000000,0.163045,0.192423,0.236614,0.083511,0.020878,82.000000,65.000000,17.000000,6.000000,0.000000,0.000000,0.000000,0.000000,0.000000;
#CREDIT:;
#NOTES:
// measure 0
0000
0000
0000
0000
,  // measure 1
0000
0000
0000
0000
,  // measure 2
0102
0000
0000
0010
,  // measure 3
0000
1000
0003
0200
,  // measure 4
0300
0000
0010
0000
0000
0011
0000
0000
,  // measure 5
0101
0000
0000
1000
0000
1010
0000
0000
,  // measure 6
0110
0000
0000
0001
0000
0101
0000
0000
,  // measure 7
1010
0000
0000
0100
0000
0000
0100
0000
0000
0000
0110
0000
0000
0000
0000
0000
,  // measure 8
0100
0000
0002
0000
0003
0101
0000
0000
,  // measure 9
0011
0000
0020
0100
0030
0110
0000
0000
,  // measure 10
1001
0000
2000
0001
3000
1001
0000
0000
,  // measure 11
0101
0000
0000
0010
0000
0000
0010
0000
0000
0000
1001
0000
0000
0000
0000
0000
,  // measure 12
1000
0000
0000
0000
0001
0001
0100
0000
,  // measure 13
0000
0000
1000
1000
0000
0010
0010
0000
,  // measure 14
0000
0000
0100
0100
0000
0001
0001
0000
,  // measure 15
0010
0000
0000
0000
0100
0000
0100
0000
0000
0000
0010
0000
0000
0020
0000
0000
,  // measure 16
0000
0000
0031
0000
0000
1001
0000
0000
,  // measure 17
1000
0000
0100
0100
0000
1000
1000
0000
,  // measure 18
0001
0000
0100
0100
0000
0010
0010
0000
,  // measure 19
1000
0000
0001
0001
0000
0100
0101
0000
;
