#TITLE:B Who I Want 2 B;
#SUBTITLE:;
#ARTIST:安室奈美恵 feat. 初音ミク;
#TITLETRANSLIT:;
#SUBTITLETRANSLIT:;
#ARTISTTRANSLIT:Namie Amuro feat. Hatsune Miku;
#GENRE:Bubblegum Bass;
#CREDIT:;
#BANNER:B Who I Want 2 B-bn.png;
#BACKGROUND:B Who I Want 2 B-bg.png;
#LYRICSPATH:;
#CDTITLE:cdtitle.png;
#MUSIC:B Who I Want 2 B.ogg;
#OFFSET:-0.002000;
#SAMPLESTART:42.355000;
#SAMPLELENGTH:14.118000;
#SELECTABLE:YES;
#DISPLAYBPM:136.000000;
#BPMS:0.000000=136.000000
,216.000000=272.000000
,218.000000=136.000000
;
#STOPS:27.500000=0.882000,
185.500000=1.765000,
216.000000=0.221000,
217.000000=0.221000
;
#BGCHANGES:
;
#KEYSOUNDS:;
#ATTACKS:;

//---------------dance-single - ----------------
#NOTES:
     dance-single:
     X-Scale 12:
     Hard:
     8:
     0.580743,0.632603,0.460358,0.179462,0.308206,521.000000,462.000000,59.000000,23.000000,0.000000,0.000000,0.580743,0.632603,0.460358,0.179462,0.308206,521.000000,462.000000,59.000000,23.000000,0.000000,0.000000:
// measure 0
0000
0000
0000
0000
,  // measure 1
0000
0000
0000
0000
,  // measure 2
0000
0000
0000
0000
,  // measure 3
0000
0000
0000
0000
,  // measure 4
0001
0000
0000
0000
0010
0000
0100
0000
1000
0000
0000
0010
0000
0000
1000
0000
,  // measure 5
0000
0000
0100
0000
0000
0010
0000
0000
0001
0000
0100
0000
1000
0000
0100
0000
,  // measure 6
0001
0000
0000
0000
0100
0000
0010
0000
1000
0000
0000
0001
0000
0000
0100
0000
,  // measure 7
0001
0000
0000
1000
0100
0000
1000
0000
1001
0000
0001
0000
0100
0000
0000
0000
,  // measure 8
0110
0000
0000
1010
0000
0000
0011
0000
0000
0000
0001
0000
0000
0010
0000
0000
,  // measure 9
0100
0010
0001
1000
0010
0001
0010
0000
,  // measure 10
1010
0000
0000
0110
0000
0000
1001
0000
0000
0000
0001
0000
0000
1000
0000
0000
,  // measure 11
0100
0000
0000
0010
0100
0000
1000
0000
0001
0000
0100
0000
1000
0000
0100
0000
,  // measure 12
0110
0000
0000
0101
0000
0000
1001
0000
0000
0000
0000
0001
0100
0000
0001
0000
,  // measure 13
1000
0100
0001
0100
1000
0010
0001
0010
,  // measure 14
1000
0000
0001
0000
0100
0000
0010
0000
0000
0000
1000
0000
0000
1000
0000
0000
,  // measure 15
0001
0100
0010
0100
0001
0000
0000
0000
1001
0000
1000
0000
0010
0000
0100
0000
,  // measure 16
0001
0000
0000
0010
0100
0000
0010
0000
0001
0000
1000
0000
0000
0010
0000
0000
,  // measure 17
2000
0000
3100
0010
0100
1000
0001
0010
,  // measure 18
1000
0000
0000
0010
0001
0000
1000
0000
0001
0000
0100
0000
0010
0100
0000
0000
,  // measure 19
0002
0000
0013
0100
0010
0001
1000
0010
,  // measure 20
0100
0000
0000
0001
0010
0000
0001
0000
1000
0000
0001
0000
0100
0001
0000
0000
,  // measure 21
0020
0000
0130
0010
0001
1000
0001
0100
,  // measure 22
0010
1000
0100
0001
0100
1000
0001
0010
,  // measure 23
0100
0010
0100
0010
0100
0010
0100
0010
0100
0000
0000
0000
1100
0000
0000
0000
,  // measure 24
1000
0000
0000
0001
1000
0000
0100
0000
0010
0000
0000
0000
0100
1000
0000
0000
,  // measure 25
0001
0100
1000
0100
0001
0000
1000
0010
,  // measure 26
1000
0000
0000
0100
0010
0000
0100
0000
1000
0000
0001
0000
0100
0001
0000
0000
,  // measure 27
1000
0001
0010
0100
1000
0000
0010
1000
,  // measure 28
0001
0000
0000
0010
0001
0000
1000
0000
0010
0000
0100
0000
0010
1000
0000
0000
,  // measure 29
0100
0000
0000
1000
0010
0000
1000
0000
1001
0000
0000
0000
0110
0000
0000
0000
,  // measure 30
1001
0000
0000
1100
0000
0000
0101
0000
0000
0000
0011
0000
0000
1010
0000
0000
,  // measure 31
1100
0000
0000
0000
1000
0000
0001
0000
1001
0000
0000
1000
0100
0000
0100
0000
,  // measure 32
0010
0000
0000
0010
0001
0000
1000
0000
0001
0000
0100
0000
1000
0000
0100
0000
,  // measure 33
0010
0000
0100
0000
0001
0000
0010
0000
0100
0000
0000
1000
0010
0000
0010
0000
,  // measure 34
0100
0000
0000
0001
1000
0000
0001
0000
0010
0000
0100
0000
1000
0100
0000
0000
,  // measure 35
0010
0100
1000
0001
0100
0010
0100
0001
,  // measure 36
0010
0000
0000
0100
0010
0000
0100
0000
1000
0000
0001
0000
0100
0001
0000
0000
,  // measure 37
0010
0000
0000
0000
0100
0000
0010
0000
0001
0000
0000
0010
0100
0000
0100
0000
,  // measure 38
1010
0000
0000
0101
0000
0000
0011
0000
0000
0000
1010
0000
0000
1100
0000
0000
,  // measure 39
1001
0000
0110
0000
2000
0000
3100
0010
,  // measure 40
0002
0000
0003
1000
0000
0000
0002
0000
0003
0000
0020
0000
0030
0200
0000
0300
,  // measure 41
1000
0010
0001
0100
1000
0000
0001
1000
,  // measure 42
0002
0000
0003
0020
0000
0030
0200
0000
0300
0000
1000
0000
0000
0001
0000
0000
,  // measure 43
1000
0010
0001
0010
1000
0100
0010
0001
,  // measure 44
0200
0000
0300
0020
0000
0030
0200
0000
0300
0000
0002
0000
0003
0020
0000
0030
,  // measure 45
0200
0000
0300
0000
1000
0010
1000
0001
,  // measure 46
0020
0000
0130
1000
0101
0000
0101
0000
,  // measure 47
0110
0000
0000
1001
0000
0000
1010
0000
0000
0000
0011
0000
0000
0011
0000
0000
,  // measure 48
0101
0000
0000
0001
1000
0000
1000
0000
1100
0000
0000
0000
0110
0000
0000
0000
,  // measure 49
1100
0000
0000
1010
0000
0000
0101
0000
0000
0000
1001
0000
0000
0110
0000
0000
,  // measure 50
1010
0000
0000
1000
0001
0000
0001
0000
0100
0000
0010
0000
1000
0000
0001
0000
,  // measure 51
0100
0010
1000
0001
0010
0100
1000
0001
,  // measure 52
0010
0100
1000
0001
0100
0010
1000
0001
,  // measure 53
0100
0010
1000
0001
0010
0100
1000
0001
,  // measure 54
1000
0000
1000
0000
1100
0000
0100
0010
,  // measure 55
0001
0000
0000
1000
0001
0000
1000
0000
0010
0000
0100
0000
0010
1000
0000
0000
,  // measure 56
0001
0100
1000
0100
0001
0000
0010
0100
,  // measure 57
1000
0000
0000
0100
0010
0000
0100
0000
1000
0000
0001
0000
0100
0001
0000
0000
,  // measure 58
1000
0100
0010
0001
0200
0000
0310
0100
,  // measure 59
0001
0000
0000
0010
0100
0000
0010
0000
0001
0000
1000
0000
0010
1000
0000
0000
,  // measure 60
0001
0000
0000
0100
0010
0000
0010
0000
1001
0000
0000
0000
0110
0000
0000
0000
,  // measure 61
1010
0000
0000
1001
0000
0000
0011
0000
0000
0000
0101
0000
0000
0110
0000
0000
,  // measure 62
1000
0010
0100
0001
1000
0010
0100
0001
1000
0000
0000
0100
1000
0000
0001
0000
,  // measure 63
0100
0000
0000
0010
0100
0000
1000
0000
0100
0000
0001
0000
0010
0001
0000
0000
,  // measure 64
1000
0010
0001
0010
1000
0100
0001
0100
,  // measure 65
1000
0000
0000
0100
0010
0000
0100
0000
1000
0000
0001
0000
0100
0001
0000
0000
,  // measure 66
1000
0100
0001
0100
0010
0001
0010
0100
,  // measure 67
1000
0000
0000
0001
1000
0000
0100
0000
0001
0000
0100
0000
1000
0001
0000
0000
,  // measure 68
0010
0000
0000
0100
1000
0000
0001
0000
1000
0000
0000
0100
0010
0000
0010
0000
,  // measure 69
0101
0000
0000
0110
0000
0000
1001
0000
0000
0000
1100
0000
0000
1001
0000
0000
,  // measure 70
0202
0303
2002
0000
3003
0000
0000
0000
;

//---------------dance-single - ----------------
#NOTES:
     dance-single:
     X-Scale 10:
     Medium:
     7:
     0.473735,0.522585,0.296502,0.195067,0.253587,425.000000,387.000000,38.000000,25.000000,0.000000,0.000000,0.473735,0.522585,0.296502,0.195067,0.253587,425.000000,387.000000,38.000000,25.000000,0.000000,0.000000:
// measure 0
0000
0000
0000
0000
,  // measure 1
0000
0000
0000
0000
,  // measure 2
0000
0000
0000
0000
,  // measure 3
0000
0000
0000
0000
,  // measure 4
1000
0000
0000
0000
0000
0000
0000
0000
0100
0000
0000
1000
0000
0000
0001
0000
,  // measure 5
0000
0000
0100
0000
0000
0001
0000
0000
1000
0000
0000
0000
0100
0000
0000
0000
,  // measure 6
1000
0000
0000
0000
0001
0000
0000
1000
,  // measure 7
0000
0000
1001
0110
,  // measure 8
1001
0000
0000
1000
0000
0000
0001
0000
0000
0000
0100
0000
0000
0001
0000
0000
,  // measure 9
1000
0000
0000
0100
0010
0000
0100
0000
0110
0000
0000
0000
1001
0000
0000
0000
,  // measure 10
0110
0000
0000
0100
0000
0000
0001
0000
0000
0000
0010
0000
0000
0001
0000
0000
,  // measure 11
1000
0000
0000
0010
1000
0000
0001
0000
1001
0000
0000
0000
0110
0000
0000
0000
,  // measure 12
1001
0000
0000
1000
0000
0000
0001
0000
0000
0000
0000
0000
0000
0000
0000
0000
,  // measure 13
1100
0000
0000
1000
0001
0000
1000
0000
1001
0000
0000
0000
0110
0000
0000
0000
,  // measure 14
1001
0000
0000
0001
0000
0000
0010
0000
0000
0000
0100
0000
0000
0010
0000
0000
,  // measure 15
0001
0000
1001
0000
1000
0010
0100
0001
,  // measure 16
0010
0000
0000
0100
0000
0000
1000
0000
0000
0000
0001
0000
0000
1000
0000
0000
,  // measure 17
0020
0000
2030
3000
0001
1000
0100
1000
,  // measure 18
0001
0000
0000
0010
0100
0000
0010
0000
0000
0000
0001
0000
0000
1000
0000
0000
,  // measure 19
0200
0000
0320
0130
1000
0001
0100
0010
,  // measure 20
0100
0000
0000
0001
0000
0000
1000
0000
0000
0000
0010
0000
0000
1000
0000
0000
,  // measure 21
0002
0000
0023
1030
0010
0001
1000
0001
,  // measure 22
0200
0000
0301
2000
3000
0100
0010
0001
,  // measure 23
2000
0000
0000
3000
1001
0000
0110
0000
,  // measure 24
1001
0000
0000
1000
0000
0000
0001
0000
0000
0000
0010
0000
0000
0100
0000
0000
,  // measure 25
1000
0010
0100
0010
1000
0000
0001
1000
,  // measure 26
0001
0000
0000
0100
0000
0000
0010
0000
0000
0000
1000
0000
0000
0001
0000
0000
,  // measure 27
1000
0100
0010
0001
0002
0000
0013
0100
,  // measure 28
1100
0000
0000
1001
0000
0000
0101
0000
0000
0000
1010
0000
0000
1001
0000
0000
,  // measure 29
0102
0000
1003
0010
0200
0000
0310
0100
,  // measure 30
0002
0000
0013
0200
0300
1000
0100
0010
,  // measure 31
0001
0000
1000
0000
0100
0000
0010
0000
0011
0000
0000
0001
0010
0000
0010
0000
,  // measure 32
0100
0000
0000
0100
0000
0000
1000
0000
0000
0000
0001
0000
0000
1000
0000
0000
,  // measure 33
0010
0000
0100
0000
1000
0000
0100
0000
0010
0000
0000
1000
0001
0000
0001
0000
,  // measure 34
0010
0000
0000
0100
0000
0000
1000
0000
0000
0000
0001
0000
0000
1000
0000
0000
,  // measure 35
0100
0010
0001
1000
0010
0001
0020
0000
,  // measure 36
1030
0000
0000
0001
0000
0000
1000
0000
0000
0000
0100
0000
0000
0010
0000
0000
,  // measure 37
0002
0000
1003
0001
0200
0000
1300
0100
,  // measure 38
0002
0000
0000
0000
1003
0000
0200
0000
0300
0000
0010
0000
0000
0100
0000
0000
,  // measure 39
1000
0002
0103
0000
,  // measure 40
0010
0000
0000
0000
0000
0000
1000
0000
0000
0000
0001
0000
0000
0010
0000
0000
,  // measure 41
0100
0010
0001
1000
0001
0000
0010
0100
,  // measure 42
1000
0000
0000
0001
0000
0000
1000
0000
0000
0000
0100
0000
0000
0010
0000
0000
,  // measure 43
0001
0000
1000
0000
0001
0010
1000
0010
,  // measure 44
0001
0000
0000
0100
0000
0000
0001
0000
0000
0000
0010
0000
0000
0100
0000
0000
,  // measure 45
1000
0001
0100
0100
0010
0100
0001
0010
,  // measure 46
0100
0000
1000
0001
1001
0000
0110
0000
,  // measure 47
1001
0000
0000
1000
0000
0000
0001
0000
0000
0000
0010
0000
0000
0001
0000
0000
,  // measure 48
1000
0000
0000
0010
1000
0000
1000
0000
1010
0000
0000
0000
0011
0000
0000
0000
,  // measure 49
1010
0000
0000
1000
0000
0000
0001
0000
0000
0000
0010
0000
0000
0100
0000
0000
,  // measure 50
1000
0000
0000
0100
0010
0000
0010
0000
0011
0000
0000
0000
0101
0000
0000
0000
,  // measure 51
0011
0000
0000
0010
0000
0000
0100
0000
0000
0000
0010
0000
0000
0001
0000
0000
,  // measure 52
1000
0000
0000
0100
1000
0000
1000
0000
1010
0000
0000
0000
1100
0000
0000
0000
,  // measure 53
1010
0000
0000
0001
0000
0000
0010
0000
0000
0000
0100
0000
0000
1000
0000
0000
,  // measure 54
0001
0000
0100
0000
0001
1000
0001
1000
,  // measure 55
0010
0000
0000
0100
0010
0000
0100
0000
0001
0000
0010
0000
0100
0000
0010
0000
,  // measure 56
0001
0000
0000
0100
0001
0000
1000
0000
0001
0000
0010
0000
1000
0000
0010
0000
,  // measure 57
0100
0000
0000
1000
0100
0000
1000
0000
0001
0000
0100
0000
1000
0000
0100
0000
,  // measure 58
0001
0000
0000
0010
0001
0000
1000
0000
0001
0000
0010
0000
0100
0000
0000
0010
,  // measure 59
0001
0000
0000
1000
0001
0000
1000
0000
0010
0000
0100
0000
0001
0000
0010
0000
,  // measure 60
0100
0000
0000
1000
0100
0000
1000
0000
0001
0000
0000
0000
0010
0000
0000
0000
,  // measure 61
0001
0000
0000
1000
0000
0000
0010
0000
0000
0000
1000
0000
0000
0100
0000
0000
,  // measure 62
0010
0100
1000
0001
1001
0000
1000
1000
,  // measure 63
0010
0000
0000
0100
0010
0000
1000
0000
0000
0000
0001
0000
0010
0001
0000
0000
,  // measure 64
1000
0010
0001
0010
1000
0100
0001
0100
,  // measure 65
1000
0000
0000
0100
0010
0000
0100
0000
1000
0000
0001
0000
0100
0001
0000
0000
,  // measure 66
0010
0100
1000
0001
0010
1000
0010
0100
,  // measure 67
1000
0000
0000
0001
1000
0000
0100
0000
0010
0000
0100
0000
1000
0000
1000
0000
,  // measure 68
0001
0000
0000
0010
0000
0000
0100
0000
2000
0000
0000
0000
3001
0000
1000
0000
,  // measure 69
0020
0000
0000
0000
0130
0000
0002
0000
0003
0000
1000
0000
0000
0001
0000
0000
,  // measure 70
1000
2002
3003
0000
;

//---------------dance-single - ----------------
#NOTES:
     dance-single:
     X-Scale 6:
     Easy:
     4:
     0.315451,0.383697,0.039013,0.031211,0.000000,283.000000,278.000000,5.000000,4.000000,0.000000,0.000000,0.315451,0.383697,0.039013,0.031211,0.000000,283.000000,278.000000,5.000000,4.000000,0.000000,0.000000:
// measure 0
0000
0000
0000
0000
,  // measure 1
0000
0000
0000
0000
,  // measure 2
0000
0000
0000
0000
,  // measure 3
0000
0000
0000
0000
,  // measure 4
0001
0000
0000
0000
1000
0000
0000
0100
,  // measure 5
0000
0000
1000
0000
,  // measure 6
0001
0000
0000
0000
0010
0000
0000
0001
,  // measure 7
0000
0000
1001
1000
,  // measure 8
0100
0000
0000
1000
0000
0001
0000
0000
,  // measure 9
0100
0000
0001
1000
,  // measure 10
0001
0000
0000
0010
0000
0100
0000
0000
,  // measure 11
1000
0000
0001
1000
,  // measure 12
0001
0000
0000
0010
0000
0000
0000
0000
,  // measure 13
1000
0100
1000
0001
,  // measure 14
0010
0000
0000
0100
0000
0010
0000
0000
,  // measure 15
0002
1003
1001
1000
,  // measure 16
0100
0000
0010
0100
0000
1000
0001
0000
,  // measure 17
0100
0000
0001
1000
0001
0000
0010
0000
,  // measure 18
0100
0000
1000
0001
0000
0100
0001
0000
,  // measure 19
0010
0000
0100
0010
0100
0000
1000
0000
,  // measure 20
0001
0000
0100
0001
0000
0010
0100
0000
,  // measure 21
1000
0000
0001
1000
0001
0000
0010
0000
,  // measure 22
0001
0000
0000
1000
0000
0100
0000
0000
,  // measure 23
2000
0000
0000
3000
1001
0000
0100
0000
,  // measure 24
1000
0000
1000
0001
1000
0000
0100
0000
,  // measure 25
0010
0100
1000
0001
1000
0000
0010
0000
,  // measure 26
0100
0000
0001
0010
0001
0000
1000
0000
,  // measure 27
0010
1000
0001
1000
0010
0000
0100
0000
,  // measure 28
0001
0000
1000
0010
1000
0000
0001
0000
,  // measure 29
0010
0000
0100
0010
0001
0000
1000
0000
,  // measure 30
0001
0000
0000
0010
0000
0001
0000
0000
,  // measure 31
1000
0000
0100
1000
0001
0000
0100
0010
,  // measure 32
0100
0000
0001
1000
0001
0000
0010
0000
,  // measure 33
0100
0010
0001
1000
0001
0000
0100
0010
,  // measure 34
0100
0000
0001
1000
0001
0000
0010
0000
,  // measure 35
0100
0010
0001
1000
0010
0000
0100
0010
,  // measure 36
0100
0000
0001
1000
0001
0000
1000
0100
,  // measure 37
1000
0000
0001
0100
0001
0000
0010
0000
,  // measure 38
0001
0000
0000
1000
0000
0100
0000
0000
,  // measure 39
1000
0002
0013
0000
,  // measure 40
0100
0000
0000
1000
0000
0000
0000
0000
,  // measure 41
0001
0000
1000
0000
,  // measure 42
0100
0000
0000
0010
0000
0000
0000
0000
,  // measure 43
0001
0000
1000
0000
,  // measure 44
0010
0000
0000
0100
0000
0000
0000
0000
,  // measure 45
0010
0000
1000
0000
,  // measure 46
0001
0000
0000
1000
1001
0000
0001
0000
,  // measure 47
1000
0000
0000
0100
0000
1000
0000
0000
,  // measure 48
0001
0010
0001
1000
,  // measure 49
0100
0000
0000
0010
0000
0001
0000
0000
,  // measure 50
1000
0001
0100
0010
,  // measure 51
0100
0001
0010
0100
,  // measure 52
0010
0001
1000
0001
,  // measure 53
0010
0001
1000
0100
,  // measure 54
1000
0000
1001
1000
,  // measure 55
0100
0000
0010
0100
1000
0000
0001
0000
,  // measure 56
0100
0001
1000
0001
0010
0000
0100
1000
,  // measure 57
0001
0000
1000
0100
0010
0000
0100
0000
,  // measure 58
1000
0001
0100
0001
1000
0000
0001
0100
,  // measure 59
0010
0000
0100
0001
1000
0000
0100
0000
,  // measure 60
1000
0000
0001
0100
0001
0000
0010
0000
,  // measure 61
0100
0000
1000
0010
0000
0000
0000
0000
,  // measure 62
2000
0000
0000
0000
3001
0000
1000
0010
,  // measure 63
1000
0000
0100
0010
0001
0000
1000
0000
,  // measure 64
0001
0100
0010
0100
0001
0000
0010
0100
,  // measure 65
1000
0000
0001
1000
0010
0000
0100
0000
,  // measure 66
0001
0010
0001
1000
0100
0000
0010
0100
,  // measure 67
1000
0000
0001
1000
0010
0000
0100
0010
,  // measure 68
1000
0000
0001
0010
0100
0000
0010
0000
,  // measure 69
0001
0000
0000
1000
0000
0010
0000
0000
,  // measure 70
1000
1000
0000
0000
;

//---------------dance-single - ----------------
#NOTES:
     dance-single:
     X-Scale 2:
     Beginner:
     1:
     0.107008,0.164442,0.023408,0.000000,0.000000,96.000000,93.000000,3.000000,0.000000,0.000000,0.000000,0.107008,0.164442,0.023408,0.000000,0.000000,96.000000,93.000000,3.000000,0.000000,0.000000,0.000000:
// measure 0
0000
0000
0000
0000
,  // measure 1
0000
0000
0000
0000
,  // measure 2
0000
0000
0000
0000
,  // measure 3
0000
0000
0000
0000
,  // measure 4
1000
0000
0000
0000
,  // measure 5
0000
0000
0000
0000
,  // measure 6
0100
0000
0000
0000
,  // measure 7
0000
0000
0001
0000
,  // measure 8
0000
0000
0000
0000
,  // measure 9
0000
0000
0100
0000
,  // measure 10
0000
0000
0000
0000
,  // measure 11
0000
0000
0010
0000
,  // measure 12
0000
0000
0000
0000
,  // measure 13
0000
0000
1000
0000
,  // measure 14
0000
0000
0000
0000
,  // measure 15
0000
0000
0100
0000
,  // measure 16
1000
0000
0001
0000
,  // measure 17
1000
0000
0100
0000
,  // measure 18
0010
0000
0100
0000
,  // measure 19
1000
0000
0001
0000
,  // measure 20
0100
0000
0001
0000
,  // measure 21
1000
0000
0100
0000
,  // measure 22
1000
0000
0000
0000
,  // measure 23
1000
0000
1001
0000
,  // measure 24
0001
0000
0010
0000
,  // measure 25
0100
0000
1000
0000
,  // measure 26
0010
0000
1000
0000
,  // measure 27
0001
0000
0010
0000
,  // measure 28
0001
0000
1000
0000
,  // measure 29
0100
0000
1000
0000
,  // measure 30
0000
0000
0000
0000
,  // measure 31
0000
0000
0001
0000
,  // measure 32
0100
0000
0010
0000
,  // measure 33
1000
0000
0100
0000
,  // measure 34
1000
0000
0001
0000
,  // measure 35
0010
0000
0001
0000
,  // measure 36
1000
0000
0100
0000
,  // measure 37
0010
0000
0001
0000
,  // measure 38
0000
0000
0000
0000
,  // measure 39
0000
0000
1000
0000
,  // measure 40
0000
0000
0000
0000
,  // measure 41
0000
0000
0100
0000
,  // measure 42
0000
0000
0000
0000
,  // measure 43
0000
0000
0010
0000
,  // measure 44
0000
0000
0000
0000
,  // measure 45
0000
0000
0001
0000
,  // measure 46
1000
0000
0001
0000
,  // measure 47
0010
0000
0000
0000
,  // measure 48
0100
0000
0010
0000
,  // measure 49
0001
0000
0000
0000
,  // measure 50
1000
0000
0010
0000
,  // measure 51
1000
0000
0000
0000
,  // measure 52
0001
0000
0010
0000
,  // measure 53
0001
0000
0000
0000
,  // measure 54
0000
0000
1001
0000
,  // measure 55
1000
0000
0100
0000
,  // measure 56
1000
0000
0001
0000
,  // measure 57
0100
0000
0010
0000
,  // measure 58
0100
0000
0001
0000
,  // measure 59
0010
0000
0100
0000
,  // measure 60
1000
0000
0001
0000
,  // measure 61
1000
0000
0000
0000
,  // measure 62
0100
0000
1000
0000
,  // measure 63
0001
0000
1000
0000
,  // measure 64
0100
0000
0010
0000
,  // measure 65
0100
0000
1000
0000
,  // measure 66
0001
0000
0100
0000
,  // measure 67
0001
0000
1000
0000
,  // measure 68
0010
0000
1000
0000
,  // measure 69
0001
0000
0000
0000
,  // measure 70
0000
1001
0000
0000
;
