#TITLE:來自天堂的魔鬼;
#SUBTITLE:(Away);
#ARTIST:G.E.M.;
#TITLETRANSLIT:Away;
#SUBTITLETRANSLIT:;
#ARTISTTRANSLIT:;
#GENRE:C-Pop;
#CREDIT:;
#BANNER:Away-bn.png;
#BACKGROUND:Away-bg.png;
#LYRICSPATH:;
#CDTITLE:cdtitle.png;
#MUSIC:Away.ogg;
#OFFSET:-0.002000;
#SAMPLESTART:43.000000;
#SAMPLELENGTH:28.032000;
#SELECTABLE:YES;
#DISPLAYBPM:68.000000:136.000000;
#BPMS:0.000000=68.000000
,48.000000=136.000000
,149.000000=68.000000
,179.000000=136.000000
;
#STOPS:48.000000=1.324000,
179.000000=1.324000
;
#BGCHANGES:
;
#KEYSOUNDS:;
#ATTACKS:;

//---------------dance-single - ----------------
#NOTES:
     dance-single:
     X-Scale 12:
     Challenge:
     8:
     0.462995,0.621934,0.069104,0.331698,0.262594,469.000000,459.000000,10.000000,48.000000,58.000000,0.000000,0.462995,0.621934,0.069104,0.331698,0.262594,469.000000,459.000000,10.000000,48.000000,58.000000,0.000000:
// measure 0
0000
0000
0000
0000
,  // measure 1
0000
0000
0000
0000
,  // measure 2
1000
0000
0001
0100
0000
0010
1000
0100
0010
0100
1000
0000
0010
0100
0010
0100
,  // measure 3
0010
0000
1000
0001
0000
0100
0010
0100
1000
0100
0001
0000
020M
000M
0000
0000
,  // measure 4
0301
0000
0000
0000
0100
0000
0000
0000
0001
0000
0100
0000
0010
0000
1000
0000
0200
0000
0000
0300
0020
0000
0000
0030
00M2
0000
0000
0003
M000
0000
1000
0000
,  // measure 5
0020
0000
0M00
0030
0020
0000
0000
0030
0001
0000
0100
0000
0001
0000
0010
0000
0200
0000
0000
0300
2000
0000
0000
3000
0002
0000
0000
0003
1000
0000
0100
0000
,  // measure 6
0001
0000
0000
0000
0100
0000
0000
0000
0001
0000
0100
0000
1000
0000
0010
0000
0200
0000
0000
0300
0020
0000
0000
0030
20M0
0000
0000
3000
M000
0000
0001
0000
,  // measure 7
0010
0000
0100
0000
2000
0000
0000
3000
0002
0000
0000
0003
1000
0000
0100
0000
0001
0000
0000
0000
0100
0000
0000
0000
1001
0000
0000
0000
0001
0000
000M
0000
,  // measure 8
1010
0000
0000
0000
0010
0000
0100
0000
MMMM
0000
0001
0000
1000
0000
0100
0000
0020
0000
0000
0030
0002
0000
0000
0003
2000
0000
0000
3000
0100
0000
0000
0000
,  // measure 9
0010
0000
0000
0000
0100
0000
1000
0000
MMMM
0000
0001
0000
1000
0000
0100
0000
0020
0000
0000
0030
0200
0000
0000
0300
2000
0000
0000
3000
0001
0000
1000
0000
,  // measure 10
0001
0000
0000
0000
1000
0000
0100
0000
MMMM
0000
0100
0000
0001
0000
1000
0000
0020
0000
0000
0030
0200
0000
0000
0300
0002
0000
0000
0003
1000
0000
0100
0000
,  // measure 11
1000
0000
0001
0010
MMMM
0010
1000
0000
0100
0000
1000
0100
0010
0001
0100
0010
,  // measure 12
MMMM
0102
0010
1003
,  // measure 13
0001
2000
0100
0000
0001
0100
3001
0000
,  // measure 14
0010
0100
MMMM
0000
0010
0100
MMMM
0000
,  // measure 15
0001
0010
0100
1000
0010
0100
0001
0010
,  // measure 16
0100
1000
2100
0000
0001
0000
3010
0000
,  // measure 17
1000
0200
0010
0000
1000
0010
1300
0000
,  // measure 18
0010
0100
MMMM
0000
0010
0100
MMMM
0000
,  // measure 19
1000
0100
0010
0001
0100
0010
1000
0100
,  // measure 20
0010
0001
1001
0000
0001
0010
1000
0000
,  // measure 21
1000
0010
0001
0000
1000
0100
0010
0000
,  // measure 22
0010
0100
1000
0000
0001
0100
0010
0000
,  // measure 23
0010
0100
0001
0000
0001
0100
0010
1000
,  // measure 24
0100
0010
0001
0000
1000
0010
0001
0000
,  // measure 25
1000
0100
0001
1000
0100
0010
0100
0001
,  // measure 26
0100
0010
0001
0000
1000
0010
0001
0000
,  // measure 27
1000
0100
0001
1000
0100
1000
0010
0100
,  // measure 28
0001
0100
0101
0000
1000
0100
0010
0000
,  // measure 29
0100
0010
000M
0010
1000
0001
1000
0000
,  // measure 30
0010
0100
000M
0100
1000
0001
1000
0000
,  // measure 31
0001
0010
1000
0010
0100
1000
0002
2003
,  // measure 32
3002
2003
3001
1000
0001
0010
0100
0000
,  // measure 33
1000
0010
0M00
0010
0001
1000
0001
0000
,  // measure 34
0010
0100
00M0
0100
0001
0010
0001
0000
,  // measure 35
0200
0010
0010
0000
1000
0010
0001
0010
,  // measure 36
1000
0010
0301
0000
0000
1000
0100
0010
,  // measure 37
0001
0000
1000
0000
0200
0000
0001
0000
1300
0000
0001
0010
0200
0000
0001
0000
,  // measure 38
1300
0000
0010
0100
0002
0003
0010
0002
1003
0100
0010
0001
0100
0000
0010
0001
,  // measure 39
0010
0100
0010
1000
0020
0000
0001
0000
0130
0000
0010
0100
0002
0000
1000
0000
,  // measure 40
0013
0000
1000
0100
0020
0030
0100
0020
0031
1000
0100
1000
0002
0000
0000
0000
,  // measure 41
0000
0000
0000
0003
MMMM
0000
0000
0000
1100
0000
0000
0000
1000
0000
0010
0000
0M00
0000
0010
0000
0001
0000
1000
0000
0001
0000
0000
0000
0010
0000
0100
0000
,  // measure 42
1000
0001
1000
0001
0100
0000
0001
0010
0M00
0010
1000
0000
0100
0010
0001
1000
,  // measure 43
0010
0000
1000
0000
0001
0010
0100
1000
0010
1000
0100
0010
0001
0100
0010
1000
,  // measure 44
0001
1000
0010
0100
0001
0010
0100
1000
0001
0010
0100
1000
MMMM
0000
0000
0000
,  // measure 45
2001
0000
0100
0001
0100
0000
3100
0020
,  // measure 46
0001
0000
1000
0100
0001
0030
0010
0200
,  // measure 47
1000
0000
0001
0010
1000
0300
0100
1000
,  // measure 48
0010
0100
0010
0001
0010
1000
0001
0100
,  // measure 49
0010
0000
1000
0010
0001
0000
1000
0100
,  // measure 50
0001
1000
0100
0010
0100
0001
0100
0010
,  // measure 51
0001
0000
1000
0010
0001
0000
1000
0100
,  // measure 52
0001
1000
0100
1000
0010
0100
0001
0010
,  // measure 53
0110
1000
1000
0000
2000
0000
0001
0000
,  // measure 54
3002
0003
1000
0010
0100
0001
0010
0100
,  // measure 55
1000
0001
0001
1000
0001
0001
0100
0010
,  // measure 56
1000
0000
0010
1000
0001
0000
0001
0000
0100
0000
1000
0000
0100
0000
0001
0000
,  // measure 57
0101
1000
1000
0000
2000
0000
0001
0000
,  // measure 58
3002
0003
1000
0010
0100
0001
0010
0100
,  // measure 59
1000
0001
0001
1000
0001
0001
0010
0100
,  // measure 60
0100
0000
0000
0000
;

//---------------dance-single - ----------------
#NOTES:
     dance-single:
     X-Scale 10:
     Hard:
     7:
     0.424494,0.601202,0.062193,0.200401,0.183125,430.000000,421.000000,9.000000,29.000000,19.000000,0.000000,0.424494,0.601202,0.062193,0.200401,0.183125,430.000000,421.000000,9.000000,29.000000,19.000000,0.000000:
// measure 0
0000
0000
0000
0000
,  // measure 1
0000
0000
0000
0000
,  // measure 2
1000
0000
0100
0010
0000
0001
0010
0000
0000
0001
0010
0000
0100
1000
0100
1000
,  // measure 3
0100
0000
0010
0001
0000
1000
0010
0000
0000
1000
0010
0000
0200
0000
0000
0000
,  // measure 4
0301
0000
0100
0000
0001
0010
0100
1000
0010
0000
1000
0000
0001
0000
0010
0000
,  // measure 5
0100
0000
0100
0000
1000
0010
0100
0001
1000
0000
0010
0000
0001
0000
0010
0000
,  // measure 6
0100
0000
0001
0000
1000
0010
0100
0010
1000
0000
0100
0000
0010
0000
0001
0000
,  // measure 7
0100
0001
1000
0000
0001
0000
0010
0000
0100
0000
0000
0000
1100
0000
1000
0000
,  // measure 8
1001
0000
0001
0100
00M0
0100
1000
0000
0020
0000
0032
0000
0023
0000
1030
0000
,  // measure 9
0001
0000
1000
0100
00M0
0100
0001
0000
0200
0000
0320
0000
0230
0000
0301
0000
,  // measure 10
1000
0000
0001
0010
0M00
0010
1000
0000
0002
0000
0023
0000
0032
0000
1003
0000
,  // measure 11
0100
0000
1000
0010
0M00
0010
0001
0000
1000
0000
0010
0000
1000
0100
0010
0001
,  // measure 12
1000
2100
0001
0010
,  // measure 13
3001
1000
0100
0000
0010
0001
1000
0000
,  // measure 14
0001
0010
1000
0000
0001
0100
1000
0000
,  // measure 15
0001
0100
0100
0000
0001
0010
0100
1000
,  // measure 16
0010
0100
0002
0000
0010
0000
1000
0000
,  // measure 17
0013
0100
1000
0000
0001
0100
0010
0000
,  // measure 18
1000
0100
0001
0000
1000
0010
0001
0000
,  // measure 19
1000
0010
0010
0000
1000
0100
0010
0001
,  // measure 20
0100
0010
2000
0000
0100
0001
0100
3000
,  // measure 21
1000
0020
0001
0000
0001
0100
1000
0030
,  // measure 22
0100
0002
1000
0000
0010
0100
0010
0003
,  // measure 23
0001
0010
0100
0000
1000
0010
0100
0001
,  // measure 24
0010
0100
1000
0000
0010
0100
0001
0M00
,  // measure 25
0010
0100
0001
0M00
0010
0100
0001
0M00
,  // measure 26
1000
0001
0010
000M
1000
0001
0010
000M
,  // measure 27
1000
0000
0001
0000
0010
0000
000M
0000
0001
0000
0010
0000
0200
0300
0020
0030
,  // measure 28
0200
0300
0020
0030
1001
0000
0000
0000
1000
0000
0100
0000
0010
0000
0000
0000
,  // measure 29
0100
1000
0000
0001
0100
0010
1000
0000
,  // measure 30
0010
0100
0000
0001
0010
0100
1000
0000
,  // measure 31
0001
0000
0010
0000
0000
0000
0001
0000
1000
0000
0100
0000
0020
0030
0002
0003
,  // measure 32
0020
0030
0002
0003
0011
0000
0000
0000
0010
0000
0100
0000
1000
0000
0000
0000
,  // measure 33
0001
0100
0000
0001
0010
0100
1000
0000
,  // measure 34
0020
0000
0130
0010
0001
0010
1000
0100
,  // measure 35
0020
0001
0100
1000
,  // measure 36
0100
0031
0000
2000
,  // measure 37
0000
0000
0000
0000
3100
0000
1000
0000
0001
0000
1000
0010
0100
0000
0010
0000
,  // measure 38
0100
0000
0001
0010
0100
0000
1000
0000
0010
0100
1000
0100
0001
0000
1000
0000
,  // measure 39
0001
0000
0000
0010
0010
0000
0001
0000
1000
0000
0010
1000
0001
0000
0010
0000
,  // measure 40
0100
0000
1000
0001
0100
0000
0010
0000
1000
0100
0010
0100
1000
0000
0000
0000
,  // measure 41
0000
0000
0001
0000
0011
0000
1000
0100
00M0
0100
0001
0000
1000
0000
0100
1000
,  // measure 42
0001
0010
0001
0010
0100
0000
1000
0010
0M00
0010
0001
0000
1000
0000
0010
0100
,  // measure 43
0001
1000
0001
1000
0100
0000
1000
0100
0001
0000
0100
0010
0001
0000
1000
0010
,  // measure 44
0001
0000
1000
0100
0001
1000
0001
1000
0010
0100
0010
0100
0110
0000
0000
0000
,  // measure 45
2001
0000
0100
0010
0100
0000
3001
0020
,  // measure 46
1000
0000
1000
0100
0001
0030
0010
0200
,  // measure 47
1000
0000
0001
0010
1000
0300
0100
1000
,  // measure 48
0001
0010
0001
1000
0100
0010
0001
1000
,  // measure 49
0010
0M00
0001
1000
0010
0M00
0001
1000
,  // measure 50
0010
0M00
0001
1000
0010
0M00
1000
0100
,  // measure 51
0010
000M
1000
0100
0010
000M
1000
0100
,  // measure 52
0010
000M
0000
0001
0010
0100
1000
0001
,  // measure 53
1001
1000
0100
0010
,  // measure 54
0001
1000
0010
0001
0010
0100
0010
1000
,  // measure 55
0010
0000
0100
0000
0001
0000
0010
0100
,  // measure 56
1000
0000
0001
0100
0000
0000
0001
0000
1000
0000
0100
0000
0010
0000
0001
0000
,  // measure 57
1000
0000
0010
0100
0001
0000
1000
0000
,  // measure 58
0100
0010
0001
1000
0001
0010
0100
1000
,  // measure 59
0001
0000
1000
0100
0010
0000
0001
1000
,  // measure 60
0001
0000
0000
0000
;

//---------------dance-single - ----------------
#NOTES:
     dance-single:
     X-Scale 7:
     Medium:
     5:
     0.347493,0.456085,0.048373,0.276415,0.065649,352.000000,345.000000,7.000000,40.000000,0.000000,0.000000,0.347493,0.456085,0.048373,0.276415,0.065649,352.000000,345.000000,7.000000,40.000000,0.000000,0.000000:
0000
0000
0000
0000
,
0000
0000
0000
0000
,
0001
0000
0000
0100
0000
0000
0001
0100
0001
0000
0000
1000
0000
0000
0010
0000
,
0100
0000
0000
0001
0000
0000
1000
0100
1000
0000
0000
0010
0000
0000
1000
0000
,
1001
1000
0001
1000
0020
0230
0302
0013
,
1000
0000
0010
0000
0100
0000
1000
0000
0010
0000
0100
0000
0001
0000
1000
0100
,
1000
0100
0001
0100
0020
0230
2300
3001
,
1000
0000
0010
0000
0100
0000
0001
0100
0001
0000
0000
0000
1100
0000
0000
0000
,
1001
0001
0010
1000
0100
1000
0010
0001
,
1000
0000
0001
0000
0100
0001
1000
0001
0100
0000
0010
0000
0001
0000
0010
0100
,
0010
0000
1000
0000
0100
0010
0001
1000
0001
0000
0100
0000
0010
0000
0000
1000
,
0100
0000
1000
0000
0001
0000
0100
0000
0010
0000
1000
0000
0100
0010
0100
0010
,
0100
2001
0000
0100
,
3100
0020
0001
0000
0000
0000
0100
0000
,
0031
0200
0300
0000
0001
0200
0300
0000
,
0010
0000
1000
0000
0001
0010
1000
0000
,
0001
0100
2000
0000
0000
0000
0001
0000
,
3100
0020
0001
0000
0000
0000
0100
0000
,
0031
0200
0300
0000
0001
0200
0300
0000
,
0010
0000
1000
0000
0001
0000
1000
0100
,
0001
0100
2000
0000
0000
0000
3010
0000
,
0100
0002
0010
0000
0000
1000
1003
0000
,
0001
0200
1000
0000
0000
0000
0310
0000
,
1000
0200
0310
0000
0001
0000
1000
0100
,
0010
0100
1000
0000
0001
0100
0010
0000
,
1000
0100
0010
0000
0001
0100
0010
0000
,
1000
0100
0010
0000
0001
0100
0010
0000
,
1000
0100
0010
0000
0000
0001
0010
0100
,
0010
0100
1000
0000
0001
0010
0200
0000
,
0310
0002
0000
1003
0002
0000
0103
0000
,
0010
0200
0000
0301
0020
0000
0130
0000
,
1000
0020
0000
0130
0001
1000
0100
0010
,
0100
0010
0001
0000
1000
0010
0200
0000
,
0301
0020
0000
0130
2000
0000
3010
0000
,
1000
0200
0000
0301
0100
1000
0100
0010
,
0001
1000
0100
0010
,
0001
1000
0000
0001
,
0000
0000
1000
0100
1000
0100
0010
0001
,
0010
0001
1000
0010
1000
0010
0100
0001
,
0100
0001
0010
0100
0010
0100
1000
0001
,
1000
0001
0100
0010
0100
0010
0000
0000
,
0000
0000
1001
1000
0100
1000
0001
0100
,
0001
1000
0001
1000
0001
0000
0010
0000
0100
0000
1000
0000
0010
0100
0010
0000
,
2000
0000
3001
1000
0010
0001
0010
1000
,
0001
0010
0001
1000
0100
1000
1100
0000
,
0201
0000
0000
0000
0310
0000
1000
0200
,
0010
0000
0000
0010
0310
0000
0001
0200
,
1000
0000
0000
0000
0310
0000
1000
0200
,
0310
0000
0001
0000
1000
0000
0010
0100
,
0001
0000
0010
0100
1000
0000
0010
0100
,
0001
0000
0010
0100
1000
0000
0010
0100
,
0001
0000
0010
0100
1000
0000
0010
0100
,
0001
0000
0000
1000
0100
0001
1000
0010
,
0001
1000
0200
0000
,
0320
0030
0000
0001
0010
1000
0001
0100
,
1000
0000
0001
0000
1000
0000
0100
0020
,
0031
0000
1000
0010
0001
0010
0100
0010
,
1000
0001
0200
0000
,
0320
0030
0000
1000
0100
0001
1000
0010
,
0001
0000
1000
0000
0010
0000
0200
0320
,
0030
0000
0000
0000
;

//---------------dance-single - ----------------
#NOTES:
     dance-single:
     X-Scale 5:
     Easy:
     3:
     0.263581,0.290236,0.027641,0.055283,0.000000,267.000000,263.000000,4.000000,8.000000,0.000000,0.000000,0.263581,0.290236,0.027641,0.055283,0.000000,267.000000,263.000000,4.000000,8.000000,0.000000,0.000000:
0000
0000
0000
0000
,
0000
0000
0000
0000
,
0002
0000
0203
0000
,
0320
0000
2030
0000
,
3010
0000
1000
0000
0001
0100
0001
0000
,
1000
0000
0100
0000
0010
0100
0010
0000
,
0001
0000
0100
0000
0010
0100
0010
0000
,
1000
0000
0001
0010
0001
0000
1000
0000
,
1100
0000
0100
0000
0010
0001
0010
0000
,
0001
0000
1000
0000
0010
0100
0010
0000
,
1000
0000
0100
0000
0010
0100
0010
0000
,
0001
0000
1000
0010
1000
0000
0001
0000
,
1000
1001
0000
0001
,
0000
0000
1000
0000
0000
0100
1000
0000
,
0001
0100
0000
0010
,
0000
1000
0001
0000
0000
1000
0100
0010
,
0001
1000
0000
0010
,
0000
0000
0100
0000
0000
0001
0100
0000
,
0010
1000
0000
0100
,
0000
0010
0001
0000
0000
1000
0010
0100
,
0001
1000
0001
0000
0010
0100
0000
0000
,
0100
1000
0001
0000
0010
0001
0000
0000
,
1000
0010
0100
0000
0001
0010
0000
0000
,
0100
1000
0001
0000
0000
0100
0010
1000
,
0010
0100
0010
0000
1000
0001
0000
0000
,
0100
0001
1000
0000
0100
0010
0000
0000
,
0001
0010
0100
0000
0010
0001
0000
0000
,
1000
0010
0100
0000
0001
0010
0100
1000
,
0010
0100
0001
0000
0000
1000
0100
0000
,
1000
0000
0001
0000
0000
0010
0100
0000
,
0010
0000
0001
0000
0000
1000
0010
0000
,
1000
0000
0001
0000
0000
0010
0100
1000
,
0001
0010
0100
0000
0000
1000
0010
0000
,
1000
0000
0001
0000
0000
0010
0100
0000
,
0010
0000
0001
0000
0000
1000
0001
0000
,
0100
0000
0010
0000
0000
1000
0100
0000
,
0010
0001
0000
0000
,
0000
1000
0010
1000
,
0001
1000
0010
1000
,
0001
0010
0001
0100
,
0001
0010
0001
0000
,
0000
0011
0010
0100
,
1000
0010
1000
0000
0100
0000
0010
0000
,
0001
0100
0001
0000
0010
0000
0100
0000
,
1000
0001
1000
0000
0010
0000
1000
0000
,
1001
0000
1000
0001
0100
0000
0010
0100
,
0001
0000
1000
0100
1000
0000
0001
0010
,
0100
0000
0010
0100
1000
0000
0010
0100
,
0001
0000
1000
0010
0100
0001
0010
0100
,
1000
0000
0001
0100
0010
0000
0100
0010
,
1000
0000
0100
0010
0001
0000
1000
0100
,
0010
0000
0001
0100
0010
0000
0100
0010
,
1000
0000
0000
0001
0100
0010
0100
0001
,
0100
0000
0002
0000
,
1000
0003
0000
0001
1000
0100
1000
0001
,
1000
0000
0000
0000
0010
0000
0100
0001
,
0100
0000
0010
1000
0001
0000
1000
0100
,
0010
0000
0002
0000
,
0010
0003
0000
1000
0001
1000
0010
1000
,
0001
0000
0000
0000
0100
0000
0002
2003
,
3000
0000
0000
0000
;

//---------------dance-single - ----------------
#NOTES:
     dance-single:
     X-Scale 1:
     Beginner:
     1:
     0.114515,0.124387,0.013821,0.000000,0.000000,116.000000,114.000000,2.000000,0.000000,0.000000,0.000000,0.114515,0.124387,0.013821,0.000000,0.000000,116.000000,114.000000,2.000000,0.000000,0.000000,0.000000:
0000
0000
0000
0000
,
0000
0000
0000
0000
,
1000
0000
0000
0000
,
0001
0000
0000
0000
,
1000
0000
0001
0000
,
1000
0000
0001
0000
,
0010
0000
0100
0000
,
0010
0000
0100
0000
,
1000
0000
0010
0000
,
1000
0000
0010
0000
,
0100
0000
0001
0000
,
0100
0000
0001
0000
,
0000
1001
0000
1000
,
0000
0001
0000
1000
,
0000
0010
0000
0100
,
0000
0010
0000
0100
,
0000
0001
0000
0010
,
0000
0001
0000
0010
,
0000
0100
0000
1000
,
0000
0100
0000
1000
,
0000
0010
0000
0100
,
0000
0010
0000
0100
,
0000
0001
0000
0010
,
0000
0001
0000
0010
,
0000
0100
0000
1000
,
0000
0100
0000
1000
,
0000
0001
0000
1000
,
0000
0001
0000
0010
,
0000
0001
0000
0010
,
0000
0001
0000
1000
,
0000
0001
0000
0010
,
0000
0001
0000
1000
,
0000
0100
0000
0010
,
0000
0100
0000
1000
,
0000
0100
0000
0010
,
0000
0100
0000
1000
,
0000
0001
0000
0000
,
0000
1000
0000
0100
,
0000
0010
0000
0001
,
0000
1000
0000
0010
,
0000
0100
0000
0001
,
0000
1000
0000
0100
,
0000
1000
0000
0100
,
0000
0010
0000
0001
,
0000
0010
0000
0001
,
1001
0000
1000
0000
,
0100
0000
1000
0000
,
0001
0000
0100
0000
,
0001
0000
1000
0000
,
0010
0000
1000
0000
,
0001
0000
0100
0000
,
0001
0000
0010
0000
,
0100
0000
0010
0000
,
0001
0000
1000
0000
,
0010
0000
1000
0000
,
0001
0000
0010
0000
,
0001
0000
1000
0000
,
0010
0000
1000
0000
,
0100
0000
0010
0000
,
0100
0000
1000
0000
,
1000
0000
0000
0000
;
