#TITLE:Astronomia;
#SUBTITLE:;
#ARTIST:Tony Igy;
#TITLETRANSLIT:;
#SUBTITLETRANSLIT:;
#ARTISTTRANSLIT:;
#GENRE:Electro House;
#CREDIT:;
#BANNER:Astronomia-bn.png;
#BACKGROUND:Astronomia-bg.png;
#LYRICSPATH:;
#CDTITLE:cdtitle.png;
#MUSIC:Astronomia.ogg;
#OFFSET:-0.006000;
#SAMPLESTART:31.434999;
#SAMPLELENGTH:15.228000;
#SELECTABLE:YES;
#BPMS:0.000000=125.999992
;
#STOPS:
;
#BGCHANGES:;
#KEYSOUNDS:;
#ATTACKS:;

//---------------dance-single - ----------------
#NOTES:
     dance-single:
     X-Scale 12:
     Hard:
     8:
     0.543172,0.536467,0.147863,0.010562,0.200672,360.000000,346.000000,14.000000,1.000000,0.000000,0.000000,0.543172,0.536467,0.147863,0.010562,0.200672,360.000000,346.000000,14.000000,1.000000,0.000000,0.000000:
0000
0000
0000
0000
,
0000
0000
0000
0000
,
0000
0000
0000
0000
,
0000
0000
0000
0000
,
0000
0000
0000
0000
0001
0000
0010
0100
,
1000
0000
0001
1000
0010
0000
0100
0010
,
1000
0000
0100
0010
0001
0000
1000
0001
,
0010
0000
0100
0010
0001
0000
1000
0010
,
0100
0010
1000
0010
0100
0001
1000
0010
,
0100
0001
1000
0010
0100
0001
0010
0100
,
1000
0001
0010
0100
1000
0001
0100
1000
,
0100
0010
0100
0001
0010
0100
0010
0001
,
1000
0010
0100
0010
0001
0010
1000
0010
,
0100
0001
0010
0100
0010
0001
1000
0010
,
0100
0010
1000
0001
0010
0100
1000
0001
,
0010
0100
1000
0001
0010
0100
1000
0001
,
0100
0000
0100
0000
0010
0000
0010
0000
0110
0000
0000
0010
0100
0000
1000
0000
,
1100
0000
0000
0000
1001
0000
0000
0000
0101
0000
0000
0001
0100
0000
0001
0000
,
1000
0000
0000
0001
0100
0000
0001
0000
1000
0000
0000
0100
0010
0000
0100
0000
,
1000
0000
0001
0000
1000
0000
0001
0000
0010
0000
0000
0100
0010
0000
0001
0000
,
1000
0000
0010
0000
1000
0000
0010
0000
0100
0000
0000
0001
0010
0000
0001
0000
,
1001
0000
0000
0000
0110
0000
0000
0000
1010
0000
0000
1000
0100
0000
1000
0000
,
0001
0000
0000
1000
0100
0000
1000
0000
0001
0000
0000
0010
0100
0000
1000
0000
,
0001
0000
0100
0000
0001
0000
0100
0000
0001
0000
0000
1000
0010
0000
0100
0000
,
0001
0000
1000
0000
0001
0000
1000
0000
0100
0000
0010
0100
0010
0000
0001
0000
,
1000
0000
0010
1000
0010
0000
0100
0000
0001
0000
0010
0100
0010
0000
0001
0000
,
1000
0000
0100
0010
0100
0000
1000
0000
0001
0000
0100
0010
0100
0000
0001
0000
,
0010
0000
1000
0000
0001
0000
0100
0000
1000
0000
0001
1000
0001
0000
1000
0000
,
0100
0000
0001
0000
1000
0000
0010
0000
0001
0000
0000
0100
0010
0000
0100
0000
,
0101
0000
0000
0001
0100
0000
0001
0000
1001
0000
0000
1000
0100
0000
1000
0000
,
1100
0000
0000
0100
0010
0000
0100
0000
0000
0000
1000
0000
0000
0000
0001
0000
,
0000
0100
0000
0010
0100
0001
0010
0100
,
2000
0000
0000
0000
0000
0000
3000
0000
1001
0000
0001
0100
0001
0000
0010
0000
,
0100
0000
0000
1000
0100
0000
1000
0000
0001
0000
0000
0010
0100
0000
0010
0000
,
0100
0000
1000
0100
1000
0000
0001
0000
1000
0000
0000
0100
0010
0000
0001
0000
,
0100
0000
1000
0000
0001
0000
0010
0000
1000
0000
0001
1000
0001
0000
0100
0000
,
0010
0000
0001
0000
0010
0000
1000
0000
0001
0000
0100
0010
0100
0000
0001
0000
,
0010
0000
0000
0100
1000
0000
0001
0000
1000
0000
0000
0100
0010
0000
0100
0000
,
1000
0000
0001
1000
0001
0000
0010
0000
0100
0000
0000
0010
0001
0000
1000
0000
,
0100
0000
0001
0000
1000
0000
0010
0000
0001
0000
1000
0001
1000
0000
0010
0000
,
0001
0000
0010
0000
0100
0000
0010
0000
1000
0000
0001
0100
0001
0000
0010
0000
,
0100
0000
0000
1000
0010
0000
1000
0000
0001
0000
0000
0100
0010
0000
0100
0000
,
0001
0000
0010
0100
0010
0000
0001
0000
1000
0000
0000
0010
1000
0000
0001
0000
,
0010
0000
1000
0000
0001
0000
0100
0000
1000
0000
0001
1000
0001
0000
0010
0000
,
1000
0010
0100
1000
1100
0000
0100
0010
,
0101
0000
0001
1000
0010
1000
0001
0010
,
0011
0000
0100
0010
0001
0100
1000
0100
,
0001
0100
1000
0100
0001
0010
0100
1000
,
0010
0100
0010
1000
0000
0000
0000
0000
;

//---------------dance-single - ----------------
#NOTES:
     dance-single:
     X-Scale 9:
     Medium:
     7:
     0.440573,0.459829,0.063370,0.073932,0.132021,292.000000,286.000000,6.000000,7.000000,0.000000,0.000000,0.440573,0.459829,0.063370,0.073932,0.132021,292.000000,286.000000,6.000000,7.000000,0.000000,0.000000:
// measure 0
0000
0000
0000
0000
,  // measure 1
0000
0000
0000
0000
,  // measure 2
0000
0000
0000
0000
,  // measure 3
0000
0000
0000
0000
,  // measure 4
0000
0000
0000
0000
0100
0000
1000
0100
,  // measure 5
1000
0000
0001
0000
0100
0000
0010
0100
,  // measure 6
0001
0000
0010
0000
0100
0000
0010
0001
,  // measure 7
1000
0000
0010
0000
1000
0000
0001
0010
,  // measure 8
0100
0000
0010
0000
0001
1000
0000
0010
,  // measure 9
1000
0100
0000
0010
0001
1000
0000
0010
,  // measure 10
1000
0000
0001
0000
0010
0000
0000
0100
0000
0000
0000
0000
1000
0000
0100
0000
,  // measure 11
0010
0000
0100
0010
0001
0000
1000
0100
,  // measure 12
0010
0000
0100
0010
0001
1000
0010
1000
,  // measure 13
0001
0010
0100
0010
0001
0100
1000
0100
,  // measure 14
0001
1000
0100
1000
0001
0010
0100
1000
,  // measure 15
0001
0010
0100
1000
0001
0010
0100
1000
,  // measure 16
0000
0000
0000
0000
1001
0000
1000
0100
,  // measure 17
0010
0000
0100
0000
0010
0000
0001
0010
,  // measure 18
0001
0000
0001
1000
0001
0000
0010
0100
,  // measure 19
1000
0001
1000
0001
0100
0000
0010
0100
,  // measure 20
0001
1000
0001
1000
0100
0000
0010
0100
,  // measure 21
1000
0000
0010
0000
1000
0000
0100
0010
,  // measure 22
0100
0000
0100
1000
0100
0000
0010
0001
,  // measure 23
1000
0010
1000
0010
0100
0000
0001
0010
,  // measure 24
0100
0000
1000
0000
0100
0000
1000
0000
0001
0000
0000
0100
0001
0000
1000
0000
,  // measure 25
0010
0000
0100
0010
1000
0000
0001
0100
,  // measure 26
0001
0000
0001
0010
0001
0000
0010
0100
,  // measure 27
1000
0000
0100
0000
0001
0000
0100
0000
1000
0000
0000
0001
0100
0000
0001
0000
,  // measure 28
0010
0000
1000
0000
0010
0000
0001
0000
0100
0000
0000
0010
0000
0000
0100
0000
,  // measure 29
0001
0000
0000
0010
0000
0000
0100
0000
1000
0000
0000
0001
0000
0000
1000
0000
,  // measure 30
0010
0000
0000
0100
0000
0000
0010
0000
0000
0000
1000
0000
0000
0000
0100
0000
,  // measure 31
0000
1000
0000
0001
0010
0001
0010
0001
,  // measure 32
0010
0000
0000
0000
0000
0000
0000
0000
1001
0000
0000
1000
0100
0000
1000
0000
,  // measure 33
0001
0000
0000
0010
0100
0000
0010
0000
0001
0000
0000
1000
0001
0000
1000
0000
,  // measure 34
0010
0000
0000
0100
0010
0000
0100
0000
1000
0000
0000
0100
0001
0000
1000
0000
,  // measure 35
0010
0000
0001
0000
0010
0000
1000
0000
0001
0000
0000
0010
0100
0000
1000
0000
,  // measure 36
0010
0000
0001
0000
0010
0000
1000
0000
0100
0000
0000
0010
0100
0000
0010
0000
,  // measure 37
0001
0000
0000
1000
0010
0000
1000
0000
0001
0000
0000
0010
0100
0000
0010
0000
,  // measure 38
0001
0000
0000
1000
0010
0000
1000
0000
0001
0000
0000
0010
0001
0000
1000
0000
,  // measure 39
0100
0000
0001
0000
0100
0000
0010
0000
0001
0000
0000
0010
0100
0000
1000
0000
,  // measure 40
0010
0000
0100
0000
1000
0000
0100
0000
0001
0000
0000
0010
0001
0000
1000
0000
,  // measure 41
0001
0000
0000
0010
0100
0000
0010
0000
0001
0000
0000
0100
0010
0000
0100
0000
,  // measure 42
0001
0000
0000
1000
0010
0000
1000
0000
0001
0000
0000
0010
0100
0000
0010
0000
,  // measure 43
0001
0000
1000
0000
0100
0000
0010
0000
0001
0000
0000
1000
0001
0000
1000
0000
,  // measure 44
0010
0100
0010
1000
2020
0000
3030
0001
,  // measure 45
0202
0000
0303
1000
0000
0100
0000
0010
,  // measure 46
0110
0000
0200
0000
1300
0001
0000
0100
,  // measure 47
0202
0000
0303
0001
0000
1000
0000
0100
,  // measure 48
1000
0001
1000
0100
0000
0000
0000
0000
;

//---------------dance-single - ----------------
#NOTES:
     dance-single:
     X-Scale 7:
     Easy:
     5:
     0.342500,0.408737,0.105617,0.010562,0.000000,227.000000,217.000000,10.000000,1.000000,0.000000,0.000000,0.342500,0.408737,0.105617,0.010562,0.000000,227.000000,217.000000,10.000000,1.000000,0.000000,0.000000:
// measure 0
0000
0000
0000
0000
,  // measure 1
0000
0000
0000
0000
,  // measure 2
0000
0000
0000
0000
,  // measure 3
0000
0000
0000
0000
,  // measure 4
0000
0000
1000
0100
,  // measure 5
0010
0001
0100
0010
,  // measure 6
1000
0001
0100
0010
,  // measure 7
0100
0001
0010
0100
,  // measure 8
1000
0000
0001
0000
0000
0100
0000
0001
,  // measure 9
0000
1000
0000
0100
0000
0010
0000
0100
,  // measure 10
0000
1000
0000
0001
0000
0010
0000
0100
,  // measure 11
0000
1000
0000
0001
0000
0100
0000
0010
,  // measure 12
0000
0100
0000
0001
1000
0000
0010
1000
,  // measure 13
0001
0000
0100
0010
1000
0000
0100
0010
,  // measure 14
0001
0000
1000
0001
0100
0000
0010
0000
,  // measure 15
0100
0001
0010
0100
,  // measure 16
1000
0000
1100
1000
,  // measure 17
0001
0000
0100
0000
0010
0000
1000
0010
,  // measure 18
1000
0000
0001
0010
0001
0000
1000
0000
,  // measure 19
0100
0010
0100
0000
1000
0000
0001
0000
,  // measure 20
0100
0010
0100
0000
0001
0000
1000
0000
,  // measure 21
0010
0000
1000
0000
0001
0000
1000
0100
,  // measure 22
1000
0000
0001
0100
0001
0000
0010
0000
,  // measure 23
0100
0010
0100
0000
0010
0000
0001
0000
,  // measure 24
0100
0010
0100
0000
0001
0000
1000
0000
,  // measure 25
0100
0000
0010
0000
0100
0000
1000
0010
,  // measure 26
1000
0000
0001
0010
0001
0000
0010
0000
,  // measure 27
0100
0000
1000
0100
1000
0000
0001
0000
,  // measure 28
0100
0000
0010
0100
0101
0000
0000
0000
,  // measure 29
0110
0000
1001
0000
,  // measure 30
1100
0000
0000
0000
0000
0001
0000
0001
,  // measure 31
0000
1000
0000
1000
0100
0010
0100
1000
,  // measure 32
0000
0000
0000
0000
1001
0000
1000
0001
,  // measure 33
0100
0000
0010
0000
0100
0000
0001
0010
,  // measure 34
0001
0000
1000
0010
1000
0000
0001
0100
,  // measure 35
0010
1000
0100
0010
0001
0000
1000
0100
,  // measure 36
0010
0001
0100
0010
1000
0000
0001
0100
,  // measure 37
0010
0000
0100
0000
0001
0000
1000
0100
,  // measure 38
1000
0000
0001
0100
0001
0000
1000
0010
,  // measure 39
0100
0001
0010
0100
1000
0000
0001
0010
,  // measure 40
0100
1000
0010
0100
0001
0000
1000
0001
,  // measure 41
0100
0000
0010
0000
0100
0000
0001
0010
,  // measure 42
0001
0000
1000
0010
1000
0000
0001
0100
,  // measure 43
0010
1000
0100
0010
0001
0000
1000
0100
,  // measure 44
0010
0001
0100
0010
1010
0000
0000
0100
,  // measure 45
0110
0000
0000
1000
0000
0001
0000
1000
,  // measure 46
1001
0000
0002
0000
0013
0001
0000
1000
,  // measure 47
1010
0000
0000
0001
0000
1000
0000
0001
,  // measure 48
0010
0001
0010
0001
0000
0000
0000
0000
;

//---------------dance-single - ----------------
#NOTES:
     dance-single:
     X-Scale 2:
     Beginner:
     1:
     0.122214,0.152088,0.031685,0.000000,0.000000,81.000000,78.000000,3.000000,0.000000,0.000000,0.000000,0.122214,0.152088,0.031685,0.000000,0.000000,81.000000,78.000000,3.000000,0.000000,0.000000,0.000000:
// measure 0
0000
0000
0000
0000
,  // measure 1
0000
0000
0000
0000
,  // measure 2
0000
0000
0000
0000
,  // measure 3
0000
0000
0000
0000
,  // measure 4
0000
0000
0001
0000
,  // measure 5
0010
0000
0100
0000
,  // measure 6
1000
0000
0010
0000
,  // measure 7
0100
0000
0001
0000
,  // measure 8
1000
0000
0001
0000
,  // measure 9
0000
0000
0010
0000
,  // measure 10
0000
0000
0100
0000
,  // measure 11
0000
0000
1000
0000
,  // measure 12
0000
0000
0100
0000
,  // measure 13
1000
0000
0001
0000
,  // measure 14
1000
0000
0100
0000
,  // measure 15
0010
0000
0001
0000
,  // measure 16
0000
0000
1001
0000
,  // measure 17
1000
0000
0100
0000
,  // measure 18
1000
0000
0001
0000
,  // measure 19
0010
0000
0100
0000
,  // measure 20
0010
0000
0001
0000
,  // measure 21
1000
0000
0010
0000
,  // measure 22
1000
0000
0001
0000
,  // measure 23
0010
0000
0100
0000
,  // measure 24
1000
0000
0001
0000
,  // measure 25
1000
0000
0100
0000
,  // measure 26
1000
0000
0001
0000
,  // measure 27
0010
0000
0100
0000
,  // measure 28
1000
0000
0001
0000
,  // measure 29
0010
0000
0001
0000
,  // measure 30
0100
0000
0010
0000
,  // measure 31
0000
0000
1000
0000
,  // measure 32
0000
0000
1001
0000
,  // measure 33
0100
0000
1000
0000
,  // measure 34
0001
0000
0010
0000
,  // measure 35
0001
0000
1000
0000
,  // measure 36
0100
0000
0010
0000
,  // measure 37
0001
0000
1000
0000
,  // measure 38
0001
0000
0100
0000
,  // measure 39
0010
0000
0100
0000
,  // measure 40
0001
0000
0010
0000
,  // measure 41
0100
0000
0010
0000
,  // measure 42
0001
0000
1000
0000
,  // measure 43
0010
0000
1000
0000
,  // measure 44
0001
0000
1000
0000
,  // measure 45
0000
0000
0010
0000
,  // measure 46
0000
0000
1000
0000
,  // measure 47
0000
0000
0001
0000
,  // measure 48
1001
0000
0000
0000
;
