#TITLE:Aşığız;
#SUBTITLE:;
#ARTIST:Sinan Ceceli feat. Mustafa Ceceli;
#TITLETRANSLIT:Asigiz;
#SUBTITLETRANSLIT:;
#ARTISTTRANSLIT:;
#GENRE:Electro House;
#CREDIT:;
#BANNER:Asigiz-bn.png;
#BACKGROUND:Asigiz-bg.png;
#LYRICSPATH:;
#CDTITLE:cdtitle.png;
#MUSIC:Asigiz.ogg;
#OFFSET:-0.005000;
#SAMPLESTART:52.005001;
#SAMPLELENGTH:16.000000;
#SELECTABLE:YES;
#BPMS:0.000000=120.000000
;
#STOPS:
;
#BGCHANGES:0.000=Asigiz.avi=1.000=1=0=0=StretchNoLoop==CrossFade==,
99999=-nosongbg-=1.000=0=0=0 // don't automatically add -songbackground-
;
#KEYSOUNDS:;
#ATTACKS:;

//---------------dance-single - ----------------
#NOTES:
     dance-single:
     X-Scale 2:
     Beginner:
     2:
     0.125897,0.170381,0.016786,0.000000,0.000000,105.000000,103.000000,2.000000,0.000000,0.000000,0.000000,0.125897,0.170381,0.016786,0.000000,0.000000,105.000000,103.000000,2.000000,0.000000,0.000000,0.000000:
0000
0000
0000
0000
,
0000
0000
0000
0000
,
0000
0000
0000
0000
,
0000
0000
0000
0000
,
0001
0000
0010
0000
,
0100
0000
1000
0000
,
0010
0000
0100
0000
,
0001
0000
1000
0000
,
0100
0000
0010
0000
,
0001
0000
1000
0000
,
0001
0000
0010
0000
,
0100
0000
1000
0000
,
0001
0000
0100
0000
,
0010
0000
1000
0000
,
0001
0000
1000
0000
,
0010
0000
0100
0000
,
0001
0000
1000
0000
,
0010
0000
1000
0000
,
0001
0000
0010
0000
,
0100
0000
0010
0000
,
0001
0000
1000
0000
,
0010
0000
1000
0000
,
0001
0000
0100
0000
,
0001
0000
1000
0000
,
0100
0000
0000
0000
,
0010
0000
0000
0000
,
1001
0000
0001
0000
,
0100
0000
0001
0000
,
1000
0000
0010
0000
,
1000
0000
0001
0000
,
0010
0000
0100
0000
,
0010
0000
0001
0000
,
1000
0001
1000
0001
,
1000
0000
0100
0000
,
0010
0000
0001
0000
,
1000
0000
0001
0000
,
0010
0000
0100
0000
,
1000
0000
0001
0000
,
0100
0000
0001
0000
,
1000
0000
0001
0000
,
0010
0100
0010
0100
,
0010
0000
0001
0000
,
1000
0000
0000
0000
,
0001
0000
0000
0000
,
0100
0000
0000
0000
,
0010
0000
0000
0000
,
1000
0000
0000
0000
,
0100
0000
0000
0000
,
0010
0000
0000
0000
,
0001
0000
0000
0000
,
1001
0000
1000
0000
,
0010
0000
1000
0000
,
0001
0000
0010
0000
,
0100
0000
1000
0000
,
0100
0000
0010
0000
,
0001
0000
1000
0000
,
0010
0000
1000
0000
,
0001
0000
0010
0000
,
0100
0000
0000
0000
;

//---------------dance-single - ----------------
#NOTES:
     dance-single:
     X-Scale 6:
     Easy:
     4:
     0.321337,0.340761,0.025179,0.151076,0.000000,268.000000,265.000000,3.000000,18.000000,0.000000,0.000000,0.321337,0.340761,0.025179,0.151076,0.000000,268.000000,265.000000,3.000000,18.000000,0.000000,0.000000:
0000
0000
0000
0000
,
0000
0000
0000
0000
,
0000
0000
0000
0000
,
0000
0000
0000
0000
,
0001
0000
0010
0001
0010
0000
0100
0000
,
1000
0000
0010
1000
0010
0000
0100
0000
,
0001
0000
1000
0010
1000
0000
0100
0000
,
0010
0000
0001
0010
0001
0000
1000
0000
,
0001
0000
0010
0000
0100
0010
0001
0000
,
1000
0000
0001
1000
0010
0000
1000
0000
,
0001
0000
1000
0000
0100
0010
0001
0000
,
1000
0000
0001
1000
0010
0000
0100
0000
,
0001
0000
0010
0000
0100
0010
0001
0000
,
1000
0000
0001
1000
0010
0000
1000
0000
,
0001
0000
0010
0000
0100
0010
0001
0000
,
1000
0000
0001
1000
0010
0000
1000
0000
,
0001
0000
0100
0001
1000
0000
0100
0000
,
1000
0000
0001
0010
0100
0000
1000
0000
,
0001
0000
1000
0000
0010
1000
0001
0000
,
0100
0000
0001
1000
0100
0000
0010
0000
,
0001
0000
1000
0000
0001
0010
0100
0000
,
1000
0000
0100
0010
0001
0000
1000
0000
,
0001
0000
1000
0000
0100
0010
0001
0000
,
1000
0000
0010
1000
0001
0000
0010
0000
,
0000
0001
0000
0100
0000
0010
0000
1000
,
0000
0100
0000
0010
0000
0001
0000
0000
,
1001
1000
0010
1000
,
0001
0000
0010
0100
1000
0000
0001
0000
,
1000
0010
1000
0001
,
1000
0000
0100
0010
0001
0000
1000
0000
,
0001
0010
0001
1000
,
0010
0000
1000
0001
0100
0000
0001
0000
,
0020
0230
0320
0230
,
1300
0000
0001
0010
0100
0000
0010
0000
,
0001
1000
0010
1000
,
0001
0000
0100
0001
1000
0000
0001
0000
,
0100
0001
0010
0100
,
1000
0000
0100
0010
0001
0000
1000
0000
,
0001
0100
0001
1000
,
0100
0000
0010
0100
1000
0000
0001
0000
,
0200
0320
0230
0320
,
1030
0000
0001
0010
0100
0000
0010
0000
,
0001
1000
0001
1000
,
0100
0010
0100
0010
,
0001
0100
0001
0100
,
0001
1000
0001
1000
,
0100
1000
0001
1000
0100
1000
0002
0000
,
0013
0001
1000
0001
0200
0000
0301
0000
,
2000
3002
2003
3002
,
0103
0001
1000
0100
0010
0000
0001
0000
,
1001
0000
0100
0001
1000
0000
0001
0010
,
0100
0000
1000
0100
0010
0000
0001
1000
,
0010
0000
1000
0001
0010
0000
0100
0010
,
0001
0000
1000
0001
0010
0000
0100
1000
,
0001
0000
0100
0001
1000
0000
0010
1000
,
0001
0000
0100
0010
1000
0000
0100
0010
,
0002
2003
3002
2003
,
3100
0010
0001
1000
0001
0000
0010
0000
,
0011
0000
0000
0000
;

//---------------dance-single - ----------------
#NOTES:
     dance-single:
     X-Scale 10:
     Medium:
     7:
     0.522772,0.535482,0.151076,0.109111,0.218222,436.000000,418.000000,18.000000,13.000000,0.000000,0.000000,0.522772,0.535482,0.151076,0.109111,0.218222,436.000000,418.000000,18.000000,13.000000,0.000000,0.000000:
// measure 0
0000
0000
0000
0000
,  // measure 1
0000
0000
0000
0000
,  // measure 2
0000
0000
0000
0000
,  // measure 3
0000
0000
0000
0000
,  // measure 4
0011
0000
0000
0001
1000
0000
1000
0000
1010
0000
0000
0001
1000
0000
0001
0000
,  // measure 5
0101
0000
0000
0100
0010
0000
0010
0000
1001
0000
2000
0000
3010
0000
0010
0000
,  // measure 6
0100
0000
0000
0001
0010
0000
0001
0000
1000
0000
1000
0000
0001
0010
0100
0000
,  // measure 7
1000
0000
0010
1000
0001
0000
0001
0000
0100
0000
0200
0000
0301
0000
0001
0000
,  // measure 8
1000
0100
0001
0100
0010
0001
2000
0000
,  // measure 9
3010
0000
0100
0000
1000
0000
0100
0000
0001
0000
0000
0010
0000
0000
0010
0000
,  // measure 10
0100
1000
0000
0100
1000
0000
0001
0000
0100
0000
0001
0000
2000
0000
0000
0000
,  // measure 11
3100
0000
0001
0000
1000
0000
0010
0000
0001
0000
0000
0100
0000
0000
0100
0000
,  // measure 12
0001
1000
0001
0010
1000
0010
0002
0000
,  // measure 13
0103
0000
0001
0000
1000
0000
0010
0000
0100
0000
0000
0001
0000
0000
0001
0000
,  // measure 14
1000
0000
0000
1000
0010
0000
1000
0000
0001
0000
0000
0001
0100
0000
0010
0000
,  // measure 15
1000
0000
0000
0000
0100
0000
0010
0000
0001
0000
0000
0001
1000
0000
0001
0000
,  // measure 16
0100
0000
0000
0010
0100
0000
0001
0000
1000
0000
0100
0000
0001
0000
1000
0000
,  // measure 17
0010
0000
0100
0000
1000
0000
0001
0000
0100
0000
0000
0100
0001
0000
1000
0000
,  // measure 18
0010
1000
0001
0100
1000
0100
0001
1000
,  // measure 19
0010
0000
0100
0000
0001
0000
1000
0000
0010
0000
1000
0000
0001
0010
0100
0000
,  // measure 20
1000
0001
0010
1000
0010
0100
2000
0000
,  // measure 21
3001
0000
0100
0000
1000
0000
0100
0000
0001
0000
0000
0001
1000
0000
0100
0000
,  // measure 22
1000
0001
1000
0001
0010
1000
0010
0100
,  // measure 23
1000
0000
0001
0000
0100
0000
0010
0000
1000
0000
0000
1000
0100
0000
0010
0000
,  // measure 24
0001
0000
1000
0000
0000
0100
0000
0000
0001
0000
0000
0100
0000
0000
1000
0000
,  // measure 25
0000
0000
0001
0000
0000
0100
0000
0000
0010
0000
0000
1000
0001
0000
0001
0000
,  // measure 26
1001
0000
1000
0000
0010
0000
1000
0000
0001
0000
0010
0200
0000
0000
1000
0000
,  // measure 27
1300
0000
0100
0000
0001
0000
0100
0000
0010
0000
0000
0010
0001
0000
1000
0000
,  // measure 28
0001
0100
1000
0100
0001
1000
0020
1000
,  // measure 29
1030
0000
0001
0000
0100
0000
0001
0000
1000
0000
0000
1000
0010
0000
1000
0000
,  // measure 30
0001
0010
1000
0001
0100
1000
0020
0000
,  // measure 31
0031
0000
0010
0000
1000
0000
0001
0000
0100
0000
0000
0010
0100
0000
0100
0000
,  // measure 32
1001
0010
1001
0100
,  // measure 33
1001
0000
0100
0000
1000
0000
0001
0000
0100
0000
0010
0000
1000
0000
0010
1000
,  // measure 34
0001
0000
0100
0000
1000
0000
0100
0000
0001
0000
0010
0200
0000
0000
0010
0000
,  // measure 35
0310
0000
0001
0000
1000
0000
0001
0000
0100
0000
0000
0010
1000
0000
1000
0000
,  // measure 36
0001
0100
1000
0100
0001
1000
0200
0010
,  // measure 37
0310
0000
0100
0000
1000
0000
0001
0000
0100
0000
0000
0100
0001
0000
1000
0000
,  // measure 38
0001
0100
0010
0001
0010
1000
0002
0000
,  // measure 39
0103
0000
0001
0000
0010
0000
0100
0000
1000
0000
0000
1000
0001
0000
0100
0000
,  // measure 40
0110
0001
0110
1000
,  // measure 41
0110
0000
0010
0000
1000
0000
0001
0000
0010
0000
0000
0010
0100
0000
1000
0000
,  // measure 42
0001
0000
0000
0010
0000
0000
0010
0000
0100
0000
0000
1000
0001
0000
1000
0000
,  // measure 43
0010
0000
0000
0100
0000
0000
0100
0000
0001
0000
0000
0010
0100
0000
0010
0000
,  // measure 44
0001
0000
0000
1000
0000
0000
1000
0000
0010
0000
0000
0100
0001
0000
0100
0000
,  // measure 45
0010
0000
0000
0001
0000
0000
0001
0000
0010
0000
0000
1000
0010
0000
1000
0000
,  // measure 46
0001
0010
0100
1000
0010
0100
0001
1000
,  // measure 47
0100
0010
0001
0100
0010
1000
0001
0010
,  // measure 48
0011
0000
0000
0001
1000
0000
0010
0000
1010
0000
0000
1000
0001
0000
0100
0000
,  // measure 49
0101
1000
0001
0010
0100
1000
2000
0000
,  // measure 50
3001
0000
1000
0000
0010
0000
0001
0000
0010
0000
1000
0010
1000
0000
0100
0000
,  // measure 51
0010
0000
0001
0000
1000
0000
0001
0000
0100
0000
0010
0100
0001
0000
0001
0000
,  // measure 52
1000
0000
0001
0000
0100
0000
1000
0000
0100
0000
0001
1000
0100
0000
0100
0000
,  // measure 53
0010
0000
0100
0000
1000
0000
0001
0000
0100
0000
1000
0100
0001
0000
1000
0000
,  // measure 54
0100
0000
0001
0000
1000
0000
0010
0000
0001
0000
1000
0001
0100
0000
0010
0000
,  // measure 55
0001
0000
0010
0000
1000
0000
0001
0000
0100
0000
0010
0100
0001
0000
1000
0000
,  // measure 56
1001
0000
0000
0001
0100
0000
0001
0000
1001
0000
0000
1000
0010
0000
1000
0000
,  // measure 57
1001
0000
0100
0000
0001
0000
0010
0000
0100
0000
1000
0100
0010
0000
0010
0000
,  // measure 58
0011
0000
0000
0000
;

//---------------dance-single - ----------------
#NOTES:
     dance-single:
     X-Scale 14:
     Hard:
     9:
     0.611500,0.681522,0.151076,0.050359,0.457426,510.000000,492.000000,18.000000,6.000000,0.000000,0.000000,0.611500,0.681522,0.151076,0.050359,0.457426,510.000000,492.000000,18.000000,6.000000,0.000000,0.000000:
// measure 0
0000
0000
0000
0000
,  // measure 1
0000
0000
0000
0000
,  // measure 2
0000
0000
0000
0000
,  // measure 3
0000
0000
0000
0000
,  // measure 4
1000
0010
1000
0010
1000
0000
1000
0000
0001
0000
0001
0000
0100
0000
0400
0000
,  // measure 5
0301
1000
0001
1000
0001
0000
0001
0000
4000
0000
0000
3100
0010
0000
0010
0000
,  // measure 6
0001
1000
0001
1000
0001
0000
0001
0000
1000
0000
1000
0000
0100
0010
0001
0000
,  // measure 7
0100
0001
1000
0001
0100
0000
0100
0000
0040
0000
0000
0130
0001
0000
0001
0000
,  // measure 8
0100
0001
1000
0001
0100
0010
2000
0000
,  // measure 9
3001
0000
0010
0000
1000
0000
0010
0000
0002
0000
0000
1003
0001
0000
0001
0000
,  // measure 10
0010
0100
0000
0000
1000
0000
0001
0000
1000
0000
0010
0000
0200
0000
0000
0000
,  // measure 11
0301
0000
0100
0000
1000
0000
0100
0000
0002
0000
0000
0013
0100
0000
0100
0000
,  // measure 12
1000
0010
0100
0000
0001
1000
0000
0000
0010
0000
0100
0000
0002
0000
0000
0000
,  // measure 13
1003
0000
0010
0000
0001
0000
0010
0000
2000
0000
0000
3010
1000
0000
1000
0000
,  // measure 14
0001
0000
0000
0100
0010
1000
0000
0000
0001
0010
0000
0000
0100
0000
1000
0000
,  // measure 15
0100
0000
0001
0000
1000
0000
0010
0000
0001
1000
0001
0100
0010
0000
0010
0000
,  // measure 16
1000
0000
0000
1000
0001
0000
0100
0000
0001
0000
0000
0001
1000
0000
0100
0000
,  // measure 17
0001
0000
0100
0000
0010
0000
0001
0000
1000
0001
0000
0100
0001
1000
0010
0100
,  // measure 18
0001
0000
0000
0001
0100
0000
0010
0000
1000
0000
0000
1000
0001
0000
0010
0000
,  // measure 19
0001
0000
0100
0000
1000
0000
0100
0000
0001
0100
0010
1000
0001
0000
0010
0000
,  // measure 20
0004
0000
0000
1003
0010
0000
1000
0000
0001
0000
0000
0010
0100
0000
0010
0000
,  // measure 21
0001
0000
0100
0000
0001
0000
0010
0000
1000
0000
0000
0010
0100
0000
0100
0000
,  // measure 22
1000
0100
1000
0000
0001
0100
0001
0000
1000
0000
0000
1000
0001
1000
0010
0000
,  // measure 23
0001
0000
0010
0000
1000
0000
0001
0000
1000
0000
0000
1000
0010
0000
0010
0000
,  // measure 24
1000
0000
0100
0010
0001
0000
1000
0000
0001
0000
1000
0000
0010
0000
0100
0001
,  // measure 25
1000
0010
0100
0001
1000
0000
0100
0000
0010
0100
0000
0100
1000
0000
0001
0000
,  // measure 26
1001
0000
0000
1000
0100
0000
1000
0000
0001
0000
0010
0100
0010
0000
0001
0000
,  // measure 27
1000
0000
0010
0000
0001
0000
0010
0000
1000
0001
0100
0010
1000
0000
1000
0000
,  // measure 28
0100
0000
0000
0100
0010
0000
0010
0000
0001
0000
0010
0100
1000
0000
1000
0000
,  // measure 29
0001
0000
0100
0000
1000
0000
0100
0000
0001
0100
0010
1000
0001
0000
0001
0000
,  // measure 30
1000
0000
0000
0010
0100
0000
1000
0000
1000
0000
0000
0100
0010
0000
0010
0000
,  // measure 31
1000
0000
0001
0000
0100
0000
0001
0000
0010
0001
1000
0001
0100
0000
0100
0000
,  // measure 32
0101
0000
1100
0001
0101
0000
1100
0001
,  // measure 33
0101
0000
0100
0000
0001
0000
1000
0000
0001
0000
0010
0000
0100
0010
0001
1000
,  // measure 34
0001
0000
0000
0010
0100
0000
1000
0000
0001
0000
0100
0001
1000
0000
0001
0000
,  // measure 35
0100
0000
1000
0000
0001
0000
0010
0000
1000
0001
0100
0001
1000
0000
1000
0000
,  // measure 36
0010
0000
0000
0100
0010
0000
1000
0000
0001
0000
1000
0001
0100
0000
0100
0000
,  // measure 37
0010
0000
0001
0000
0010
0000
1000
0000
0001
1000
0100
0010
0001
0000
0001
0000
,  // measure 38
0100
0000
0000
0010
0100
0000
0100
0000
0001
0000
0000
1000
0100
0000
0100
0000
,  // measure 39
0001
0000
0100
0000
1000
0000
0001
0000
0100
0010
1000
0001
0010
0000
0010
0000
,  // measure 40
0110
0000
1001
0010
0110
0000
1001
0010
,  // measure 41
0110
0000
0100
0000
0001
0000
1000
0000
0001
0000
0100
0000
0010
0100
0001
0000
,  // measure 42
1000
0000
0000
0001
1000
0000
0010
0000
0100
0000
0000
0010
0001
0000
0010
0000
,  // measure 43
1000
0000
0000
0010
0100
0000
0001
0000
1000
0000
0000
0001
0100
0000
0001
0000
,  // measure 44
1000
0000
0000
0100
0010
0000
0100
0000
1000
0000
0000
0001
0100
0000
0001
0000
,  // measure 45
1000
0000
0000
0100
0010
0000
0001
0000
0010
0000
0000
0100
1000
0000
0001
0000
,  // measure 46
0100
0001
1000
0000
0100
0000
0001
0000
0100
0000
0010
0100
1000
0000
0001
0000
,  // measure 47
1000
0001
0100
0000
0001
0000
0100
0010
0001
0000
0010
0000
1000
0001
0100
0000
,  // measure 48
0001
0100
0010
1000
0001
0100
0010
1000
0100
0010
0001
1000
0100
0010
0001
1000
,  // measure 49
0010
0100
1000
0100
0001
0010
0040
0030
,  // measure 50
1001
0000
0100
0000
0001
0000
1000
0001
0100
0000
0000
0001
0010
0000
0010
0000
,  // measure 51
0100
0000
0000
1000
0001
0000
1000
0000
0010
1000
0001
1000
0100
0000
0100
0000
,  // measure 52
0010
0000
0001
0000
1000
0001
0100
0000
0001
0000
0010
0100
1000
0000
1000
0000
,  // measure 53
0010
0000
0100
0000
1000
0000
0100
0000
0001
0100
0010
1000
0100
0000
0100
0000
,  // measure 54
0010
0000
0000
0001
0100
0000
0100
0000
0001
0010
0100
0000
1000
0001
0100
0000
,  // measure 55
0010
0000
0001
0000
0010
0000
1000
0000
0001
0100
0010
1000
0001
0000
0001
0000
,  // measure 56
0011
0000
1010
0001
0011
0000
1010
0001
,  // measure 57
0011
0000
1000
0000
0001
0000
0010
0000
0100
0000
1000
0000
0100
0010
0001
0000
,  // measure 58
1001
0000
0000
0000
;
