#VERSION:0.83;
#TITLE:Arcana;
#SUBTITLE:;
#ARTIST:Maozon;
#TITLETRANSLIT:;
#SUBTITLETRANSLIT:;
#ARTISTTRANSLIT:;
#GENRE:Uplifting Trance;
#ORIGIN:;
#CREDIT:;
#BANNER:Arcana-bn.png;
#BACKGROUND:Arcana-bg.png;
#PREVIEWVID:;
#JACKET:Arcana-jacket.png;
#CDIMAGE:;
#DISCIMAGE:;
#LYRICSPATH:;
#CDTITLE:cdtitle.png;
#MUSIC:Arcana.ogg;
#OFFSET:-0.112000;
#SAMPLESTART:54.237999;
#SAMPLELENGTH:13.427000;
#SELECTABLE:YES;
#BPMS:0.000=143.000;
#STOPS:;
#DELAYS:;
#WARPS:;
#TIMESIGNATURES:0.000=4=4;
#TICKCOUNTS:0.000=4;
#COMBOS:0.000=1;
#SPEEDS:0.000=1.000=0.000=0;
#SCROLLS:0.000=1.000;
#FAKES:;
#LABELS:0.000=Song Start;
#BGCHANGES:1.000=Arcana.avi=1.000=1=0=0=StretchNoLoop==CrossFade==,
99999=-nosongbg-=1.000=0=0=0 // don't automatically add -songbackground-
;
#KEYSOUNDS:;
#ATTACKS:
;

//---------------dance-single - ----------------
#NOTEDATA:;
#CHARTNAME:X-Scale 3;
#STEPSTYPE:dance-single;
#DESCRIPTION:;
#CHARTSTYLE:;
#DIFFICULTY:Beginner;
#METER:2;
#RADARVALUES:0.115029,0.170553,0.026545,0.000000,0.000000,91.000000,88.000000,3.000000,0.000000,0.000000,0.000000,0.000000,0.000000,0.000000,0.115029,0.170553,0.026545,0.000000,0.000000,91.000000,88.000000,3.000000,0.000000,0.000000,0.000000,0.000000,0.000000,0.000000;
#CREDIT:iamthek3n;
#NOTES:
// measure 0
0000
0000
0000
0000
,  // measure 1
0000
0000
0000
0000
,  // measure 2
0000
0000
0000
0000
,  // measure 3
0000
0000
0000
0000
,  // measure 4
0000
0000
0000
0000
,  // measure 5
0000
0000
0000
0000
,  // measure 6
0000
0000
0000
0000
,  // measure 7
0000
0000
0000
0000
,  // measure 8
0000
1001
0000
1000
,  // measure 9
0000
0001
0000
1000
,  // measure 10
0000
0001
0000
0100
,  // measure 11
0000
0001
0000
1000
,  // measure 12
0000
0001
0000
0100
,  // measure 13
0000
0001
0000
1000
,  // measure 14
0000
0100
0000
0010
,  // measure 15
0000
0001
0000
0000
,  // measure 16
0000
1000
0000
0001
,  // measure 17
0000
1000
0000
0010
,  // measure 18
0000
1000
0000
0001
,  // measure 19
0000
0100
0000
0001
,  // measure 20
0000
1000
0000
0100
,  // measure 21
0000
1000
0000
0001
,  // measure 22
0000
0010
0000
0100
,  // measure 23
0000
1000
0000
0000
,  // measure 24
0000
0001
0000
0000
,  // measure 25
0000
0000
0000
0000
,  // measure 26
0000
0000
0000
0000
,  // measure 27
0000
0000
0000
0000
,  // measure 28
0000
1000
0000
0000
,  // measure 29
0000
0100
0000
0000
,  // measure 30
0000
0010
0000
0000
,  // measure 31
0000
0001
0000
0000
,  // measure 32
0000
1001
0000
1000
,  // measure 33
0000
0001
0000
0100
,  // measure 34
0000
0001
0000
1000
,  // measure 35
0000
0010
0000
1000
,  // measure 36
0000
0001
0000
0010
,  // measure 37
0000
0100
0000
0010
,  // measure 38
0000
0001
0000
1000
,  // measure 39
0000
0001
0000
0000
,  // measure 40
0000
1000
0000
0100
,  // measure 41
0000
1000
0000
0001
,  // measure 42
0000
0100
0000
0001
,  // measure 43
0000
1000
0000
0100
,  // measure 44
0000
1000
0000
0001
,  // measure 45
0000
0100
0000
0001
,  // measure 46
0000
0010
0000
0100
,  // measure 47
0000
0010
0000
0001
,  // measure 48
0000
1000
0000
0000
,  // measure 49
0000
0000
0000
0000
,  // measure 50
0000
0001
0000
0000
,  // measure 51
0000
0010
0000
0000
,  // measure 52
0000
0100
0000
0000
,  // measure 53
0000
0000
0000
0000
,  // measure 54
0000
1000
0000
0000
,  // measure 55
0000
0001
0000
0000
,  // measure 56
0000
1001
0000
1000
,  // measure 57
0000
0010
0000
1000
,  // measure 58
0000
0001
0000
0010
,  // measure 59
0000
0100
0000
0010
,  // measure 60
0000
0001
0000
1000
,  // measure 61
0000
0010
0000
1000
,  // measure 62
0000
0001
0000
0010
,  // measure 63
0000
0100
0000
0000
,  // measure 64
0000
1000
0000
0000
;

//---------------dance-single - ----------------
#NOTEDATA:;
#CHARTNAME:X-Scale 6;
#STEPSTYPE:dance-single;
#DESCRIPTION:;
#CHARTSTYLE:;
#DIFFICULTY:Easy;
#METER:4;
#RADARVALUES:0.279356,0.369531,0.123877,0.150423,0.000000,221.000000,207.000000,14.000000,17.000000,0.000000,0.000000,0.000000,0.000000,0.000000,0.279356,0.369531,0.123877,0.150423,0.000000,221.000000,207.000000,14.000000,17.000000,0.000000,0.000000,0.000000,0.000000,0.000000;
#CREDIT:iamthek3n;
#NOTES:
// measure 0
0000
0000
0000
0000
,  // measure 1
0000
0000
0000
0000
,  // measure 2
0000
0000
0000
0000
,  // measure 3
0000
0000
0000
0000
,  // measure 4
0000
0002
0100
1000
,  // measure 5
0100
0000
1003
0000
0100
0000
0010
0001
,  // measure 6
0000
1000
0010
0000
1000
0000
0001
0000
,  // measure 7
1000
0000
1002
0000
0000
0000
0000
0103
,  // measure 8
0000
0001
0100
0000
0001
0000
1000
0000
,  // measure 9
0100
0010
0100
1000
,  // measure 10
0001
0100
0010
0100
,  // measure 11
0001
1000
0100
0010
,  // measure 12
0100
0000
1000
0000
0000
0001
0000
0010
,  // measure 13
0001
2000
0000
0000
3010
0000
1000
0000
,  // measure 14
0001
0010
0100
0010
,  // measure 15
0001
1000
1000
1000
,  // measure 16
0000
0000
1001
0000
0000
1000
0000
0000
,  // measure 17
0100
0010
0000
0100
0000
0020
0000
0001
,  // measure 18
0000
0031
0010
0000
0001
0000
1000
0000
,  // measure 19
0001
0010
0001
1000
,  // measure 20
0010
0000
1000
0000
0000
1000
0000
0000
,  // measure 21
0001
0000
0000
0001
0000
0000
1000
0001
,  // measure 22
0000
0100
0010
0000
0100
0001
0100
0001
,  // measure 23
0000
0101
0000
0000
,  // measure 24
0000
1001
0000
0000
,  // measure 25
0000
0000
0000
0000
,  // measure 26
0000
0000
0000
0100
0000
0000
1000
0000
,  // measure 27
0000
0001
0100
0000
0000
0001
1000
0000
,  // measure 28
0000
0100
0010
0000
0100
0000
0010
0000
,  // measure 29
0100
1000
0001
1000
,  // measure 30
0001
0020
0000
0000
,  // measure 31
0000
0230
0000
0000
,  // measure 32
0000
0300
1001
0000
1000
0000
0010
0000
,  // measure 33
1000
0001
0010
0001
,  // measure 34
1000
0100
0010
0100
,  // measure 35
1000
0001
0100
0010
,  // measure 36
0100
0001
1000
0100
,  // measure 37
0010
0100
1000
0001
,  // measure 38
1000
0010
1000
0001
,  // measure 39
0010
0000
0022
0033
0022
0000
0033
2020
,  // measure 40
0000
3030
1001
0000
0001
0000
1000
0000
,  // measure 41
0100
0010
0001
0000
1000
0000
0001
0000
,  // measure 42
0100
0010
1000
0000
0001
0000
0010
0000
,  // measure 43
0100
0010
0001
0000
1000
0000
0001
0000
,  // measure 44
0010
0100
1000
0000
0001
0000
0100
0000
,  // measure 45
0010
0100
0001
0000
1000
0000
0100
0000
,  // measure 46
0010
0100
1000
0000
0001
0000
1000
0000
,  // measure 47
0010
0100
0001
0000
1000
0010
0000
0010
,  // measure 48
1000
1001
0000
0000
,  // measure 49
0000
0100
0000
0000
,  // measure 50
0000
0010
0000
0000
,  // measure 51
0000
1000
0000
0000
,  // measure 52
0000
0100
0000
0000
,  // measure 53
0000
0010
0000
0000
,  // measure 54
0000
0001
0000
0000
,  // measure 55
0000
1000
0000
0000
,  // measure 56
0000
1001
1000
0001
,  // measure 57
0100
0000
0001
0000
1000
0100
0000
0100
,  // measure 58
0010
0001
1000
0001
,  // measure 59
0100
0000
0001
0000
0010
0100
0000
0100
,  // measure 60
1000
0001
0100
0001
,  // measure 61
1000
0000
0100
0000
0010
0001
0000
0001
,  // measure 62
1000
0100
2200
3300
,  // measure 63
0202
0303
2001
0000
0000
0010
0000
0010
,  // measure 64
0000
3010
0000
0000
;

//---------------dance-single - ----------------
#NOTEDATA:;
#CHARTNAME:X-Scale 12;
#STEPSTYPE:dance-single;
#DESCRIPTION:;
#CHARTSTYLE:;
#DIFFICULTY:Medium;
#METER:8;
#RADARVALUES:0.495509,0.568509,0.141574,0.203513,0.407026,392.000000,376.000000,16.000000,23.000000,0.000000,0.000000,0.000000,0.000000,0.000000,0.495509,0.568509,0.141574,0.203513,0.407026,392.000000,376.000000,16.000000,23.000000,0.000000,0.000000,0.000000,0.000000,0.000000;
#CREDIT:iamthek3n;
#NOTES:
// measure 0
0000
0000
0000
0000
,  // measure 1
0000
0000
0000
0000
,  // measure 2
0000
0000
0000
0000
,  // measure 3
0000
0000
0000
0000
,  // measure 4
0000
1100
0100
1000
,  // measure 5
0001
1000
0001
0000
0100
0000
0010
0000
,  // measure 6
1000
0100
1000
0010
0100
0001
0010
0100
,  // measure 7
1000
0001
2002
0000
0000
0000
0000
0000
,  // measure 8
3003
0000
0000
0000
1100
0000
0100
0000
1000
0000
0000
0000
0001
0000
0000
0001
,  // measure 9
0000
0000
0001
0000
0100
0000
0010
0000
0100
0000
0002
0000
1000
0000
0000
1000
,  // measure 10
0000
0000
1003
0000
0001
0000
0010
0000
0100
0000
0000
0000
0010
0000
0000
0010
,  // measure 11
0000
0000
0010
0000
0001
0000
1000
0000
0010
0000
1000
0000
0001
0000
0000
0001
,  // measure 12
0000
0001
0020
0000
0000
0230
0000
0301
,  // measure 13
0100
0000
2000
0000
0100
0000
0000
0000
3001
0000
1000
0000
0100
0000
0000
0100
,  // measure 14
0000
0000
0100
0000
0010
0000
0001
0000
1000
0000
0001
0000
0100
0000
0000
0100
,  // measure 15
0000
0100
0110
0000
1001
0000
0110
0000
,  // measure 16
0001
1000
0001
1000
0001
0000
0000
0000
0100
0000
0001
0000
1000
0000
0000
0000
,  // measure 17
0100
0010
0000
0010
0001
2000
0100
0000
,  // measure 18
0001
0000
0000
0000
3010
0000
1000
0000
0001
0000
0000
0000
0010
0000
0000
0010
,  // measure 19
0100
0000
0010
0000
0001
0000
1000
0000
0001
0000
1000
0000
0100
0000
0000
0100
,  // measure 20
0010
0000
0100
0000
1000
0000
0001
0000
0100
0000
0001
0000
0100
0000
0000
0100
,  // measure 21
0010
0000
1000
0000
0100
0000
0001
0000
0100
0000
0010
0000
0001
0000
0000
0001
,  // measure 22
1000
0000
0001
0000
0100
0000
0010
0000
0001
0000
0010
0000
1000
0000
0000
1000
,  // measure 23
0100
0010
0012
0000
0000
0000
2003
0000
,  // measure 24
3100
1100
0000
0000
,  // measure 25
0000
1000
0000
0000
,  // measure 26
0000
0000
0000
0000
0000
0000
0001
0000
0000
0000
1000
0001
1000
0000
0000
0010
,  // measure 27
0000
0000
0100
0000
0001
0000
0000
1000
0000
0000
0100
0000
0010
0000
0000
1000
,  // measure 28
0000
0010
0001
0000
1000
0000
0001
0000
,  // measure 29
1000
0100
0010
0100
,  // measure 30
0010
0002
0100
1000
,  // measure 31
0100
0000
0003
0000
1001
0000
0000
0000
0100
0000
0000
0100
0000
0100
2000
0000
,  // measure 32
0002
0000
3003
0000
1001
0000
0000
0100
0000
0000
1000
0000
0001
0000
0000
0010
,  // measure 33
0000
0000
0001
0000
1000
0000
0000
0100
0000
0000
0010
0000
0001
0000
0010
0100
,  // measure 34
0000
1000
0100
0000
1000
0000
0000
0001
0000
0000
0100
0000
0001
0000
0000
0010
,  // measure 35
0000
0000
0100
0000
1000
0000
0000
0001
0000
0000
1000
0000
0100
0000
0010
0001
,  // measure 36
0000
0010
0100
0000
1000
0000
0000
0001
0000
0000
0100
0000
0001
0000
0000
1000
,  // measure 37
0000
0000
0100
0000
1000
0000
0000
0001
0000
0000
0100
0000
0001
0000
1000
0100
,  // measure 38
0000
0010
0100
0000
1000
0000
0000
0001
0000
0000
1000
0000
0001
0000
0000
0010
,  // measure 39
0000
0100
2200
3300
2020
0000
3030
0012
,  // measure 40
0000
0000
0000
0000
1003
0000
0001
0000
0100
0001
0000
1000
0000
0010
0000
1000
,  // measure 41
0010
0000
0100
0000
0001
0000
0010
0000
0100
1000
0000
0001
0000
1000
0000
0010
,  // measure 42
1000
0000
0100
0000
0001
0000
0100
0000
1000
0010
0000
1000
0000
0001
0000
0010
,  // measure 43
0001
0000
0100
0000
1000
0000
0100
0000
0001
0100
0000
0001
0000
1000
0001
1000
,  // measure 44
0000
0010
0100
0010
0000
0000
1000
0000
0100
1000
0000
0001
0000
0010
0000
0001
,  // measure 45
1000
0000
0100
0000
0010
0000
0100
0000
1000
0001
0000
0100
0000
0001
0000
0010
,  // measure 46
0100
0000
1000
0001
0100
0000
0001
0000
0010
0100
0000
0010
0000
0001
0000
1000
,  // measure 47
0001
1000
0100
1000
0001
0000
0100
0001
,  // measure 48
1000
0200
1000
0010
,  // measure 49
1000
0000
2300
0000
0000
0001
0000
0001
,  // measure 50
0000
0001
3002
0000
0010
0000
1000
0000
,  // measure 51
0100
0000
0203
0000
0000
0010
0000
0020
,  // measure 52
0000
0030
0301
0000
0000
1000
0000
0100
,  // measure 53
0010
0001
0000
0000
0000
1000
0000
1000
,  // measure 54
0000
1000
0001
0000
0100
0000
0001
0000
,  // measure 55
1000
0000
0000
0000
1001
0000
0000
0000
0100
0000
0000
0000
0001
1000
0001
1000
,  // measure 56
0001
0000
0000
0000
1001
0000
0000
0100
1000
0000
0001
0000
0010
0001
0000
1000
,  // measure 57
0000
0000
0001
0000
0100
0000
0000
0010
0100
0000
0001
0000
1000
0000
0100
1000
,  // measure 58
0000
0001
0100
0000
0001
0000
0000
1000
0010
0000
1000
0000
0001
0010
0000
0001
,  // measure 59
0000
0000
1000
0000
0100
0010
0000
0100
0000
0000
1000
0000
0100
0000
0001
0000
,  // measure 60
0100
0000
0010
0000
0001
0000
0000
1000
0000
0010
1000
0000
0001
0000
0000
0010
,  // measure 61
0000
0100
0010
0000
0001
0000
0000
1000
0000
0010
1000
0000
0001
0000
0010
0100
,  // measure 62
0000
0010
0001
0000
1000
0100
0000
1000
0000
0000
0001
0000
0010
0100
0000
1000
,  // measure 63
0001
0000
1001
0000
1000
0100
0001
0100
,  // measure 64
2000
3001
0000
0000
;

//---------------dance-single - ----------------
#NOTEDATA:;
#CHARTNAME:X-Scale 13;
#STEPSTYPE:dance-single;
#DESCRIPTION:;
#CHARTSTYLE:;
#DIFFICULTY:Hard;
#METER:9;
#RADARVALUES:0.581465,0.625359,0.168119,0.265451,0.583993,460.000000,441.000000,19.000000,30.000000,0.000000,0.000000,2.000000,0.000000,0.000000,0.581465,0.625359,0.168119,0.265451,0.583993,460.000000,441.000000,19.000000,30.000000,0.000000,0.000000,2.000000,0.000000,0.000000;
#CREDIT:iamthek3n;
#NOTES:
// measure 0
0000
0000
0000
0000
,  // measure 1
0000
0000
0000
0000
,  // measure 2
0000
0000
0000
0000
,  // measure 3
0000
0000
0000
0000
,  // measure 4
0000
0000
0000
0000
1001
0000
0000
0000
1000
0000
0000
0001
0000
0001
0000
0001
,  // measure 5
0010
0000
0100
0000
1000
0000
0000
0000
0001
0000
0000
0100
0000
0100
0000
0100
,  // measure 6
0010
0100
0001
0010
1000
0010
0001
0010
,  // measure 7
0100
1000
2100
0001
0000
0001
0000
0002
,  // measure 8
0000
0000
3003
0000
1001
0000
0000
0000
0100
0000
0000
0000
1000
0000
0000
1000
,  // measure 9
0010
0000
0100
0000
0001
0000
0010
0000
0010
0000
0200
0000
1000
0000
0000
1000
,  // measure 10
0000
0000
1300
0000
0100
0000
0010
0000
0001
0000
0000
0000
0001
0000
0000
0100
,  // measure 11
0001
1000
0010
1000
1000
0100
0001
0100
,  // measure 12
1000
0001
0200
0010
0000
0320
0000
0031
,  // measure 13
0010
0000
2000
0000
0000
0000
0001
0000
3001
0000
1000
0000
0010
0000
0000
1000
,  // measure 14
0001
0000
1000
0000
0010
0000
0100
0000
0001
0000
0000
0000
0010
0000
0000
0010
,  // measure 15
0100
1000
1100
0000
0110
0000
0101
0000
,  // measure 16
0001
1000
0001
1000
0001
0000
0000
0000
0100
0000
0001
0000
1000
0000
0000
0000
,  // measure 17
0100
0010
0000
0010
0001
0200
1000
0000
,  // measure 18
0010
0000
0000
0000
0301
0000
0100
0000
0001
0000
0000
0000
1000
0000
0000
1000
,  // measure 19
0001
0000
1000
0000
0100
0000
0001
0000
1000
0000
0010
0000
0001
0000
0000
0001
,  // measure 20
1000
0000
0010
0000
0100
0000
1000
0000
0100
0000
0010
0000
1000
0000
0000
1000
,  // measure 21
0001
0000
0010
0000
0100
0000
0010
0000
0010
0000
0001
0000
1000
0000
0000
1000
,  // measure 22
0100
0010
0001
0100
1000
0100
0001
0101
,  // measure 23
0000
1100
0000
0000
2001
0000
0000
0000
0020
0000
0030
0000
3004
0000
1003
0100
,  // measure 24
0010
0000
0000
0000
0011
0000
0001
0000
0010
0000
0001
1000
0000
0100
0000
0010
,  // measure 25
0000
0010
0100
0010
0100
0000
1000
0000
0001
0000
0100
0010
0000
1000
0000
0001
,  // measure 26
0100
0001
0000
0010
0000
0000
0100
0000
0000
0000
0100
0010
0001
0000
0000
1000
,  // measure 27
0000
0000
0100
0000
0001
0000
0000
1000
0000
0000
0010
0000
0001
0000
0000
0100
,  // measure 28
0000
0000
0010
0000
1000
0000
0001
0000
1000
0000
0010
0100
0000
0010
0000
1000
,  // measure 29
0000
0001
0010
0100
1000
0000
1000
0020
0030
0010
0001
0000
1000
0000
0001
0200
,  // measure 30
0300
0100
1000
0000
0002
0000
0000
0000
0100
0000
0000
0000
1000
0000
0000
0000
,  // measure 31
0100
0000
0003
0000
1001
0000
0000
0000
0100
0000
0000
1000
0000
1000
0002
0000
,  // measure 32
0000
0000
0000
0000
0013
0100
0000
0010
0000
0000
1000
0000
0010
0001
0000
0100
,  // measure 33
0000
0000
0010
0000
1000
0100
0000
1000
0000
0000
0001
0000
0010
0000
0100
1000
,  // measure 34
0000
0001
0000
0000
0001
1000
0000
1000
0000
0000
0100
0000
0010
0001
0000
0001
,  // measure 35
0000
0000
0100
0000
0001
1000
0000
1000
0000
0000
0010
0000
0100
0010
0000
0100
,  // measure 36
0000
0000
0001
0000
0010
1000
0000
0010
0000
0000
0001
0000
1000
0100
0000
0010
,  // measure 37
0000
0000
0001
0000
0100
0001
0000
1000
0000
0000
0001
0000
0010
0000
0100
1000
,  // measure 38
0000
0001
0100
0000
0001
0010
0000
0100
0000
0000
1000
0000
0100
0010
0000
0001
,  // measure 39
0000
1000
2002
3003
0220
0000
0330
2200
,  // measure 40
0000
0000
3300
0000
1000
0000
0001
0000
1000
0100
0000
0001
0000
0100
0000
0010
,  // measure 41
0001
0000
1000
0001
1000
0000
0001
0000
0010
1000
0000
0010
0000
0001
0000
0100
,  // measure 42
0001
0000
1000
0001
1000
0000
0010
0000
0100
0010
0000
1000
0000
0001
0000
0010
,  // measure 43
0100
0000
1000
0100
1000
0000
0001
0000
0100
0001
0000
1000
0000
0100
1000
0001
,  // measure 44
1000
0000
0001
0000
0100
0000
0001
0000
1000
0001
0000
0001
0000
0010
0000
0010
,  // measure 45
0100
0000
1000
0100
1000
0000
0001
0000
0010
1000
0000
0010
0000
0100
0000
1000
,  // measure 46
0001
0000
1000
0100
0010
0000
0100
0000
1000
0001
0000
0010
0000
0100
0000
0010
,  // measure 47
0001
0000
1000
0001
1000
0000
0010
0000
0100
0010
0000
1000
0000
0001
1000
0001
,  // measure 48
0100
0001
0102
0000
1000
0000
0100
0000
,  // measure 49
1000
0000
0203
0000
1000
1000
0000
0010
,  // measure 50
0000
0001
0302
0000
0100
0000
1000
0000
,  // measure 51
0010
0000
2003
0000
0100
0100
0000
0001
,  // measure 52
0000
3010
2010
0000
0000
3002
0000
1003
,  // measure 53
0100
0010
0000
0000
0000
0001
0000
1000
,  // measure 54
0000
0001
1000
0000
0100
0000
0010
0000
,  // measure 55
0001
0000
0000
0000
1001
0000
0000
0000
0100
0000
0100
0000
4000
0000
3001
0010
,  // measure 56
0100
0000
0000
0000
1100
0000
0000
1000
0001
0000
1000
0000
0100
1000
0000
0001
,  // measure 57
0100
0000
0001
0000
0010
0000
0000
0010
0100
0000
1000
0000
0001
0000
1000
0200
,  // measure 58
0300
0100
0001
0000
1000
0000
0000
0001
0100
0000
0001
0000
0010
0100
0000
0010
,  // measure 59
0001
0000
1000
0000
0100
0000
0000
0010
0001
0000
1000
0000
0001
0020
0030
0010
,  // measure 60
1000
0000
0001
0000
1000
0000
0000
0100
0010
0000
0100
0000
1000
0001
0000
0100
,  // measure 61
0010
0000
0100
0000
0001
0000
0000
0010
0100
0000
1000
0000
0001
0000
1000
0020
,  // measure 62
0030
0010
0001
0000
1000
0000
0000
0100
1000
0000
0001
0000
0010
0100
0000
0010
,  // measure 63
0001
0000
0021
0000
0100
0100
0000
0001
,  // measure 64
0002
0033
0000
0000
;
