#TITLE:Apollo;
#SUBTITLE:;
#ARTIST:Astronaut;
#TITLETRANSLIT:;
#SUBTITLETRANSLIT:;
#ARTISTTRANSLIT:;
#GENRE:Complextro;
#CREDIT:;
#BANNER:Apollo-bn.png;
#BACKGROUND:Apollo-bg.png;
#LYRICSPATH:;
#CDTITLE:cdtitle.png;
#MUSIC:Apollo.ogg;
#OFFSET:-0.006000;
#SAMPLESTART:61.881001;
#SAMPLELENGTH:15.000000;
#SELECTABLE:YES;
#BPMS:0.000000=128.000000
;
#STOPS:
;
#BGCHANGES:4.000=Apollo.avi=1.000=1=0=0=StretchNoLoop==CrossFade==,
292.000=Apollo-bg.png=1.000=1=0=1===CrossFade==,
99999=-nosongbg-=1.000=0=0=0 // don't automatically add -songbackground-
;
#KEYSOUNDS:;
#ATTACKS:;

//---------------dance-single - ----------------
#NOTES:
     dance-single:
     X-Scale 12:
     Hard:
     8:
     0.505439,0.664298,0.378559,0.444079,0.105560,486.000000,434.000000,52.000000,61.000000,24.000000,0.000000,0.505439,0.664298,0.378559,0.444079,0.105560,486.000000,434.000000,52.000000,61.000000,24.000000,0.000000:
// measure 0
0000
0000
0000
0000
,  // measure 1
0000
0000
0000
0000
,  // measure 2
0000
0000
0000
0000
,  // measure 3
0000
0000
0000
0000
,  // measure 4
0000
0000
0000
0000
,  // measure 5
1000
1010
0010
0011
,  // measure 6
0001
0101
0100
1100
,  // measure 7
0001
0101
0100
0110
,  // measure 8
0010
1001
1000
1100
,  // measure 9
0200
0000
0000
0000
,  // measure 10
2300
0000
0000
0000
3000
0000
0001
0000
0020
0000
0030
0002
0000
0003
0200
0000
,  // measure 11
0000
0300
0010
0000
0000
0000
0100
0000
0000
0000
0001
0000
0000
0000
1000
0000
,  // measure 12
0000
0000
0100
1000
0000
0001
0010
1000
,  // measure 13
0000
0001
0100
1000
0000
0001
0010
0200
,  // measure 14
0000
0300
0020
0000
0000
0030
0002
0000
0000
0000
0000
0000
0003
0000
0000
0000
,  // measure 15
1000
0100
0010
0001
0100
0010
1000
0000
,  // measure 16
0002
0000
0103
0020
0000
0000
0000
0000
,  // measure 17
0230
1000
0010
1000
,  // measure 18
0302
0000
0000
0000
1003
0000
0001
0000
0200
0000
0300
0002
0000
0003
2000
0000
,  // measure 19
0100
0100
0001
3001
1000
0001
0100
0000
,  // measure 20
0010
0000
0100
0001
0000
1000
0100
0001
,  // measure 21
0000
1000
0010
0001
0000
1000
0001
0200
,  // measure 22
0000
0300
0020
0000
0000
0030
0200
0000
0000
0000
0000
0000
0000
0000
0300
0000
,  // measure 23
0001
0100
0010
1000
0100
0010
0001
0000
,  // measure 24
1000
0000
0000
0000
0010
0000
1000
0000
0002
0000
0003
0200
0000
0300
0020
0030
,  // measure 25
0110
0100
0001
0010
0101
0000
1010
0000
,  // measure 26
0101
0100
0010
1000
1100
0000
0101
0000
,  // measure 27
1100
0100
0001
0100
1000
0100
1010
0000
,  // measure 28
0101
0000
0000
0000
0011
0000
0010
0000
0101
0000
0000
0000
1001
0000
1000
0001
,  // measure 29
1000
0001
0010
0001
1000
0001
0010
0001
,  // measure 30
1000
0010
0001
0010
1000
0010
0001
0010
,  // measure 31
1000
0001
1000
0001
1000
0001
1000
0001
1000
0001
1000
0001
1000
0001
1000
0001
,  // measure 32
4000
0004
0000
0000
0000
0000
0000
0003
3001
0000
0001
0000
0001
0000
0001
0000
,  // measure 33
0022
0000
0000
0033
0010
0000
0100
0000
1000
0001
1000
0000
0010
0000
0100
0000
,  // measure 34
0010
0000
0001
0000
0010
0000
0010
0000
1000
0100
0010
0000
0100
1000
0000
0000
,  // measure 35
1100
1000
0001
0010
1000
0010
0001
0100
,  // measure 36
0440
0000
0000
0330
0110
0000
0001
0000
0020
0030
MMMM
0000
0020
0030
MMMM
0000
,  // measure 37
2000
0000
0000
0000
3100
0000
0010
0000
0001
0100
0001
0000
0010
0000
0100
0000
,  // measure 38
1000
0000
0001
0000
0010
0000
0010
0000
0100
0010
0100
0000
1000
0100
0000
0000
,  // measure 39
MMMM
0001
0011
0010
0100
0010
0001
0000
,  // measure 40
1000
0000
0400
0300
0040
0030
0004
0003
0101
0000
0000
0004
0000
0003
2000
3000
,  // measure 41
2002
0000
0000
3003
0001
0000
0100
0000
0010
0100
0001
0000
1000
0000
0100
0000
,  // measure 42
0010
0000
0001
0000
0100
0000
0100
0000
0010
0100
0001
0000
1000
0100
0000
0000
,  // measure 43
1010
0001
1000
0010
0100
0010
0001
0010
,  // measure 44
4040
0000
0000
3030
1010
0000
1000
0000
0200
0300
MMMM
0000
0200
0300
MMMM
0000
,  // measure 45
0002
0000
0000
0000
0013
0000
0100
0000
0010
0001
1000
0000
0001
0000
0100
0000
,  // measure 46
0010
0000
1000
0000
0100
0000
0100
0000
0010
0001
0010
0000
0100
1000
0000
0000
,  // measure 47
MMMM
0100
0101
0001
1000
0100
0010
0100
,  // measure 48
1100
0000
4000
3000
0004
0003
0040
0030
0100
0000
0000
0010
0100
0000
1000
0000
,  // measure 49
1001
0001
0010
0001
0100
0010
0110
0100
,  // measure 50
0001
1000
0100
0010
0100
1000
2100
0000
,  // measure 51
3001
1000
0001
0100
0010
0100
0101
0001
,  // measure 52
1000
0100
0001
0100
0010
0001
0011
1000
,  // measure 53
0001
0010
1000
0010
0001
0100
0101
0001
,  // measure 54
1000
0100
0010
0100
1000
0001
1002
0000
,  // measure 55
0013
0100
1000
0010
0001
0010
1010
1000
,  // measure 56
1001
0000
0011
0020
0000
0130
0010
0100
,  // measure 57
1020
0001
0100
0001
,  // measure 58
2030
0000
3100
0010
0002
0203
0300
0020
,  // measure 59
1030
0010
0100
0010
0001
0010
1000
0000
,  // measure 60
0100
0000
1010
0000
0002
1003
0002
0023
,  // measure 61
0000
1030
0010
0002
0000
0103
0001
2000
,  // measure 62
0000
3000
0200
0000
0000
0300
0020
0000
0000
0000
0000
0000
0001
0000
0030
0000
,  // measure 63
0001
0100
1000
0100
0010
1000
0100
0010
,  // measure 64
0012
0000
0000
0000
1003
0000
0001
0040
0130
0000
0100
0000
1100
0000
0100
0000
,  // measure 65
1020
0001
0100
0001
,  // measure 66
2030
0000
0000
0000
3100
0000
1000
0000
0002
0000
0003
0020
0000
0030
0200
0000
,  // measure 67
1000
1000
0010
0310
0100
1000
1100
0000
,  // measure 68
1000
0000
0101
0000
0002
1003
0002
0023
,  // measure 69
0000
1030
0010
0002
0000
0103
0001
0020
,  // measure 70
0000
0030
0200
0000
0000
0300
2000
0000
0000
0000
0000
0000
0001
0000
3000
0000
,  // measure 71
1000
0010
0001
0010
1000
0001
0100
0010
,  // measure 72
0110
0000
0100
0001
1000
1100
1100
0200
,  // measure 73
0300
0000
0000
0000
;

//---------------dance-single - ----------------
#NOTES:
     dance-single:
     X-Scale 10:
     Medium:
     7:
     0.451359,0.582580,0.269359,0.247519,0.043680,434.000000,397.000000,37.000000,34.000000,0.000000,2.000000,0.451359,0.582580,0.269359,0.247519,0.043680,434.000000,397.000000,37.000000,34.000000,0.000000,2.000000:
// measure 0
0000
0000
0000
0000
,  // measure 1
0000
0000
0000
0000
,  // measure 2
0000
0000
0000
0000
,  // measure 3
0000
0000
0000
0000
,  // measure 4
0000
0000
0000
0000
,  // measure 5
0000
2000
3000
0002
0003
0000
0101
0000
,  // measure 6
0000
0002
0003
0020
0030
0000
1100
0000
,  // measure 7
1000
0100
0001
0000
0100
0010
0001
0000
,  // measure 8
1000
0000
0010
1000
0001
0000
1001
0000
,  // measure 9
2000
0000
0000
0000
,  // measure 10
3200
0000
0000
0000
0300
0000
0000
0000
0010
0000
0000
0100
0000
0000
1000
0000
,  // measure 11
0000
0001
0000
1000
0000
0001
0000
0010
,  // measure 12
0000
0000
0100
1000
0000
0001
0010
0100
,  // measure 13
0000
0010
0100
1000
0000
0010
1000
0002
,  // measure 14
0000
0203
0000
0302
0000
0000
0003
0000
,  // measure 15
1000
0001
0100
0000
0010
0100
0001
0000
,  // measure 16
0020
0000
0100
0032
0000
0000
0000
0000
,  // measure 17
2003
0001
0000
0001
0000
0000
0000
0000
,  // measure 18
3020
0000
1000
0000
0030
0000
1000
0000
0100
0000
0000
0010
0000
0000
0002
0000
,  // measure 19
1000
0000
0010
0000
1003
0001
0100
0010
,  // measure 20
0000
0000
1000
0100
0000
0010
0100
1000
,  // measure 21
0000
0001
0010
0100
0000
1000
0001
0020
,  // measure 22
0000
0230
0000
0320
0000
0000
0000
0030
,  // measure 23
0001
0010
0100
0000
0010
0100
1000
0000
,  // measure 24
0001
0000
0000
0000
0100
0000
0010
0000
1000
0000
0000
0001
0000
0000
1000
0000
,  // measure 25
1001
1000
1100
0100
0110
0000
1001
0000
,  // measure 26
0110
0010
0101
0001
1001
0000
1100
0000
,  // measure 27
0101
0001
0100
1000
0100
0001
0010
0100
,  // measure 28
1100
0000
1001
0001
0011
0000
0110
0000
,  // measure 29
0001
0010
0001
0010
0100
0010
0100
0010
,  // measure 30
0001
1000
0001
1000
0100
1000
0100
1000
,  // measure 31
0010
0001
1000
0100
0001
1000
0010
0100
,  // measure 32
0002
0000
0010
0010
0013
0100
0010
0100
,  // measure 33
0110
0000
0010
0100
1000
0000
0010
0100
,  // measure 34
0001
0000
0000
0000
1000
0000
1000
0000
0100
0000
0010
0000
0000
0100
0000
0000
,  // measure 35
1000
0010
0001
0010
0100
0010
1000
0000
,  // measure 36
2200
0000
3301
0001
0011
0000
0110
0000
,  // measure 37
0011
0000
0001
1000
0010
0000
0100
0010
,  // measure 38
1000
0000
0000
0000
0001
0000
0001
0000
0010
0000
0100
0000
0000
0010
0000
0000
,  // measure 39
0001
0100
1000
0100
0010
0100
0001
0000
,  // measure 40
2010
0000
0000
0000
0100
0000
0000
0000
3010
0000
0000
1000
0000
0000
0100
0000
,  // measure 41
1100
0000
0001
0010
1000
0000
0010
0100
,  // measure 42
1000
0000
0000
0000
0001
0000
0001
0000
0010
0000
0100
0000
0000
0010
0000
0000
,  // measure 43
0001
0100
1000
0100
0010
0100
0001
0000
,  // measure 44
0022
0000
0133
0100
1010
0000
0110
0000
,  // measure 45
1010
0000
1000
0100
0010
0000
0001
1000
,  // measure 46
0010
0000
0000
0000
1000
0000
1000
0000
0100
0000
1000
0000
0000
0001
0000
0000
,  // measure 47
0100
0010
0001
0010
1000
0001
0010
0000
,  // measure 48
0220
0000
0000
0000
0300
0000
0100
0000
0130
0000
0000
0010
0000
0000
0001
0000
,  // measure 49
0011
0010
0100
0010
0001
0010
0100
0010
,  // measure 50
0001
1000
0100
1000
0001
1000
0100
1000
,  // measure 51
0001
0100
1000
0100
0001
0100
1000
0100
,  // measure 52
0001
1000
0010
1000
0001
1000
0010
1000
,  // measure 53
0001
0100
1000
0100
0001
0100
1000
0100
,  // measure 54
0001
0010
1000
0010
0001
0010
1000
0010
,  // measure 55
0001
0100
0010
0100
0001
1000
0100
0000
,  // measure 56
1000
0000
0001
0100
0010
0100
0001
0000
,  // measure 57
0101
0001
1000
0001
0010
0000
0101
0000
,  // measure 58
1000
0000
0100
0000
0001
0000
0100
0000
1000
0000
0000
0100
0000
0000
0010
0000
,  // measure 59
0100
1000
0001
0100
0010
1000
0001
0000
,  // measure 60
0100
0000
0110
0000
0002
0003
0002
0003
,  // measure 61
1001
1000
0100
0010
0000
0100
0010
0001
,  // measure 62
0000
0100
0010
0100
0001
0000
1001
0000
,  // measure 63
1000
0001
0100
0000
0010
0100
0001
0000
,  // measure 64
0010
0000
0000
0000
0100
0000
0010
0000
0002
0000
0003
0020
0000
0030
0200
0000
,  // measure 65
1300
0100
0001
0010
1000
0000
0001
0000
,  // measure 66
0100
0000
0010
0000
0001
0000
0010
0000
1000
0000
0000
0100
0000
0000
0010
0000
,  // measure 67
0100
1000
0001
0010
1000
0100
0001
0000
,  // measure 68
0010
0000
0101
0000
2000
3000
2000
3000
,  // measure 69
1001
0001
0010
0100
0000
0010
0100
1000
,  // measure 70
0000
0001
0100
0001
1000
0000
1100
0000
,  // measure 71
0100
0010
0001
1000
0020
0030
0020
0000
,  // measure 72
0100
0030
0010
1000
0001
0010
0010
0000
;

//---------------dance-single - ----------------
#NOTES:
     dance-single:
     X-Scale 7:
     Easy:
     5:
     0.304719,0.370733,0.152880,0.080080,0.000000,293.000000,272.000000,21.000000,11.000000,0.000000,0.000000,0.304719,0.370733,0.152880,0.080080,0.000000,293.000000,272.000000,21.000000,11.000000,0.000000,0.000000:
// measure 0
0000
0000
0000
0000
,  // measure 1
0000
0000
0000
0000
,  // measure 2
0000
0000
0000
0000
,  // measure 3
0000
0000
0000
0000
,  // measure 4
0000
0000
0000
0000
,  // measure 5
0001
0100
0010
1000
,  // measure 6
0001
0100
0010
1000
,  // measure 7
0001
0010
0100
1000
,  // measure 8
0001
0010
0100
1000
,  // measure 9
0001
0000
0000
0000
,  // measure 10
0100
0000
0010
0000
,  // measure 11
0100
0000
0000
0001
0000
1000
0000
0001
,  // measure 12
0000
0000
0000
0100
0000
0000
0000
0000
,  // measure 13
0000
0001
0000
0100
0000
0000
0000
0000
,  // measure 14
0000
1000
0000
0010
0000
0000
0000
0000
,  // measure 15
0100
0010
1000
0001
,  // measure 16
0020
0000
0100
0130
0000
0000
0000
0000
,  // measure 17
1000
0000
0000
0000
,  // measure 18
0100
0000
0010
0000
,  // measure 19
0100
1000
0001
1000
,  // measure 20
0000
0000
0010
0100
0000
0000
0000
0000
,  // measure 21
0000
0001
0000
0100
0000
0000
0000
0000
,  // measure 22
0000
1000
0000
0010
0000
0000
0000
0000
,  // measure 23
1000
0000
0001
0000
0200
0300
0002
0000
,  // measure 24
0000
0003
1000
0001
0000
0000
0000
0000
,  // measure 25
1001
1000
0100
0010
,  // measure 26
0001
0100
0010
1000
,  // measure 27
0001
0010
0100
0010
,  // measure 28
0001
1000
0010
0100
,  // measure 29
0001
1000
0001
1000
,  // measure 30
0010
0100
0010
0100
,  // measure 31
0001
0010
0100
1000
0001
0010
0100
1000
,  // measure 32
0002
0000
0013
0000
,  // measure 33
0101
0000
0100
0000
0001
0000
1000
0001
,  // measure 34
1000
0000
0100
0000
0010
0100
0010
0000
,  // measure 35
0001
1000
0010
0100
,  // measure 36
0002
0013
0110
1001
,  // measure 37
0110
0000
1000
0000
0010
0000
0100
0010
,  // measure 38
0100
0000
0001
0000
0010
0100
0010
0000
,  // measure 39
0001
1001
1000
0100
,  // measure 40
0020
0001
0130
0000
,  // measure 41
1100
0000
0100
0000
0010
0000
0001
0100
,  // measure 42
0001
0000
1000
0000
0010
0100
0010
0000
,  // measure 43
1000
0100
0010
0100
,  // measure 44
2000
3010
0110
1001
,  // measure 45
0110
0000
0010
0000
0001
0000
1000
0010
,  // measure 46
1000
0000
0100
0000
0010
0001
0010
0000
,  // measure 47
0100
1010
0001
1000
,  // measure 48
0200
0000
0000
0000
0310
0000
0100
0010
,  // measure 49
0011
0000
0001
0000
0100
0010
0100
0000
,  // measure 50
0001
0000
1000
0000
0100
0010
0100
0000
,  // measure 51
1000
0000
0001
0000
0100
0001
0100
0000
,  // measure 52
0010
0000
1000
0000
0100
1000
0100
0000
,  // measure 53
0010
0000
0001
0000
0100
0001
0100
0000
,  // measure 54
0010
0000
0100
0000
0001
0010
0001
0000
,  // measure 55
1000
0000
0100
0000
0010
0100
0010
0000
,  // measure 56
0001
0000
0100
0010
0100
0000
0001
0000
,  // measure 57
1001
1000
0000
0100
1000
0000
0001
0000
,  // measure 58
0100
0010
0000
0100
0001
0000
0010
0000
,  // measure 59
0001
1000
0100
1000
,  // measure 60
0001
0010
0110
1001
,  // measure 61
0110
0010
0000
1000
0001
0000
1000
0000
,  // measure 62
0100
0010
0000
0001
0010
0000
0100
0000
,  // measure 63
0010
0001
1000
0001
,  // measure 64
0100
0000
0010
0100
0001
0000
1000
0000
,  // measure 65
1001
0001
0000
0010
0100
0000
0010
0000
,  // measure 66
0001
1000
0000
0010
0100
0000
0010
0000
,  // measure 67
1000
0001
0100
0001
,  // measure 68
1000
0100
0110
1001
,  // measure 69
0110
0000
0100
0000
0001
0000
0010
0200
,  // measure 70
0000
2300
0000
3002
0000
0000
0010
0003
,  // measure 71
0001
0000
0010
0100
1000
0000
1000
0000
,  // measure 72
0001
0000
0100
0010
1000
0000
1010
0000
;

//---------------dance-single - ----------------
#NOTES:
     dance-single:
     X-Scale 2:
     Beginner:
     2:
     0.130000,0.211847,0.029120,0.000000,0.000000,125.000000,121.000000,4.000000,0.000000,0.000000,0.000000,0.130000,0.211847,0.029120,0.000000,0.000000,125.000000,121.000000,4.000000,0.000000,0.000000,0.000000:
// measure 0
0000
0000
0000
0000
,  // measure 1
0000
0000
0000
0000
,  // measure 2
0000
0000
0000
0000
,  // measure 3
0000
0000
0000
0000
,  // measure 4
0000
0000
0000
0000
,  // measure 5
0000
1000
0000
0001
,  // measure 6
0000
0100
0000
0010
,  // measure 7
0000
1000
0000
0001
,  // measure 8
0000
0100
0000
0010
,  // measure 9
0010
0000
0000
0000
,  // measure 10
1000
0000
0000
0000
,  // measure 11
0100
0000
0000
0000
,  // measure 12
0000
0000
0000
0000
,  // measure 13
0010
0000
0000
0000
,  // measure 14
0100
0000
0000
0000
,  // measure 15
1000
0000
0000
0000
,  // measure 16
0100
0000
0000
0000
,  // measure 17
0010
0000
0000
0000
,  // measure 18
0001
0000
0000
0000
,  // measure 19
1000
0000
0000
0000
,  // measure 20
0000
0000
0000
0000
,  // measure 21
0010
0000
0000
0000
,  // measure 22
0100
0000
0000
0000
,  // measure 23
0001
0000
0000
0000
,  // measure 24
0000
0000
0000
0000
,  // measure 25
0101
0000
0100
0000
,  // measure 26
0010
0000
1000
0000
,  // measure 27
0001
0000
0100
0000
,  // measure 28
0010
0000
1000
0000
,  // measure 29
0001
0000
0010
0000
,  // measure 30
0100
0000
1000
0000
,  // measure 31
0100
0010
0100
0010
,  // measure 32
0100
0000
1000
0000
,  // measure 33
1001
0000
1000
0000
,  // measure 34
0100
0000
0010
0000
,  // measure 35
0100
0000
1000
0000
,  // measure 36
0001
0000
0010
0001
,  // measure 37
0010
0000
0100
0000
,  // measure 38
1000
0000
0001
0000
,  // measure 39
0000
1000
0000
0100
,  // measure 40
0000
1000
0000
0000
,  // measure 41
1001
0000
0001
0000
,  // measure 42
0010
0000
0001
0000
,  // measure 43
1000
0000
0010
0000
,  // measure 44
0100
0000
0001
0010
,  // measure 45
0001
0000
1000
0000
,  // measure 46
0010
0000
1000
0000
,  // measure 47
0000
0100
0000
0010
,  // measure 48
0000
0000
0000
0000
,  // measure 49
1001
0000
0001
0000
,  // measure 50
0010
0000
0001
0000
,  // measure 51
1000
0000
0010
0000
,  // measure 52
1000
0000
0001
0000
,  // measure 53
0100
0000
0010
0000
,  // measure 54
0100
0000
0001
0000
,  // measure 55
0010
0000
0100
0000
,  // measure 56
1000
0000
0001
0000
,  // measure 57
1000
0000
0100
0000
,  // measure 58
0010
0000
0001
0000
,  // measure 59
1000
0000
0100
0000
,  // measure 60
0010
0000
0001
0010
,  // measure 61
0001
0000
0100
0000
,  // measure 62
0010
0000
1000
0000
,  // measure 63
0001
0000
0100
0000
,  // measure 64
0010
0000
1000
0000
,  // measure 65
0001
0000
0010
0000
,  // measure 66
0100
0000
1000
0000
,  // measure 67
0001
0000
0010
0000
,  // measure 68
0100
0000
1000
0001
,  // measure 69
1000
0000
0010
0000
,  // measure 70
0100
0000
0001
0000
,  // measure 71
1000
0000
0010
0000
,  // measure 72
0100
0000
0001
0001
;
