#TITLE:Apollo feat. Amba Shepherd;
#SUBTITLE:;
#ARTIST:Hardwell;
#TITLETRANSLIT:;
#SUBTITLETRANSLIT:;
#ARTISTTRANSLIT:;
#GENRE:Big Room House;
#CREDIT:;
#BANNER:Apollo feat. Amba Shepherd-bn.png;
#BACKGROUND:Apollo feat. Amba Shepherd-bg.png;
#LYRICSPATH:;
#CDTITLE:cdtitle.png;
#MUSIC:Apollo feat. Amba Shepherd.ogg;
#OFFSET:-0.004000;
#SAMPLESTART:67.503998;
#SAMPLELENGTH:15.000000;
#SELECTABLE:YES;
#DISPLAYBPM:64.000000:128.000000;
#BPMS:0.000000=128.000000
,16.000000=64.000000
,72.000000=128.000000
,84.000000=64.000000
,85.000000=256.000000
,85.500000=128.000000
,85.750000=64.000000
,86.000000=256.000000
,86.250000=128.000000
,86.375000=64.000000
,86.500000=256.000000
,86.750000=128.000000
,86.875000=64.000000
,87.000000=128.000000
,119.000000=64.000000
,127.000000=128.000000
,139.000000=64.000000
,140.000000=256.000000
,140.500000=128.000000
,140.750000=64.000000
,141.000000=256.000000
,141.250000=128.000000
,141.375000=64.000000
,141.500000=256.000000
,141.750000=128.000000
,141.875000=64.000000
,142.000000=128.000000
,206.000000=64.000000
;
#STOPS:
;
#BGCHANGES:0.000=Apollo feat. Amba Shepherd.avi=1.000=1=0=0=StretchNoLoop==CrossFade==,
99999=-nosongbg-=1.000=0=0=0 // don't automatically add -songbackground-
;
#KEYSOUNDS:;
#ATTACKS:;

//---------------dance-single - ----------------
#NOTES:
     dance-single:
     X-Scale 2:
     Beginner:
     1:
     0.101602,0.175026,0.000000,0.000000,0.000000,96.000000,96.000000,0.000000,0.000000,0.000000,0.000000,0.101602,0.175026,0.000000,0.000000,0.000000,96.000000,96.000000,0.000000,0.000000,0.000000,0.000000:
0000
0000
0000
0000
,
0000
0000
0000
0000
,
0000
0000
0000
0000
,
0000
0000
0000
0000
,
1000
0000
0001
0000
,
0100
0000
0010
0000
,
1000
0000
0100
0000
,
0010
0000
0001
0000
,
1000
0000
0001
0000
,
0100
0000
0010
0000
,
1000
0000
0001
0000
,
0010
0000
0100
0000
,
1000
0000
0000
0000
,
0001
0000
0000
0000
,
1000
0000
0000
0000
,
0001
0000
0000
0000
,
1000
0100
1000
0001
,
1000
0100
1000
0001
,
0100
0000
0010
0000
,
1000
0000
0001
0000
,
0010
0000
0100
0000
,
1000
0000
0000
0001
,
0000
1000
0000
0001
,
0000
0100
0000
0001
,
0000
1000
0000
0100
,
0000
0010
0000
0001
,
0000
1000
0000
0001
,
0000
0100
0000
0010
,
0000
0100
0000
0001
,
0000
0010
0000
0100
,
0000
1000
0000
0001
,
0000
0100
0000
0001
,
0000
0100
0000
0001
,
0000
1000
0000
0100
,
0000
0010
0000
0001
,
0000
0000
1000
0000
,
0001
0000
0100
0000
,
0001
0000
1000
0000
,
0100
0000
0010
0000
,
0100
0000
1000
0000
,
0001
0000
0100
0000
,
0001
0000
0010
0000
,
0100
0000
0010
0000
,
0001
0000
1000
0000
,
0001
0000
0100
0000
,
0010
0000
1000
0000
,
0100
0000
1000
0000
,
0001
0000
0010
0000
,
0001
0000
1000
0000
,
0010
0000
1000
0000
,
0001
0000
0100
0000
,
0001
0000
1000
0000
,
0000
0000
0001
0000
;

//---------------dance-single - ----------------
#NOTES:
     dance-single:
     X-Scale 6:
     Easy:
     4:
     0.233897,0.294488,0.051860,0.088902,0.029634,221.000000,214.000000,7.000000,12.000000,0.000000,0.000000,0.233897,0.294488,0.051860,0.088902,0.029634,221.000000,214.000000,7.000000,12.000000,0.000000,0.000000:
0000
0000
0000
0000
,
0000
0000
0000
0000
,
0000
0000
0000
0000
,
0000
0000
0000
0000
,
1000
0100
0010
0001
,
1000
0010
0100
0001
,
1000
0001
0100
0001
,
1000
0100
0010
0100
,
1000
0001
0100
0002
0000
0003
0020
0230
,
0000
0300
0020
0230
0000
0300
2000
0000
,
3001
1000
0001
0200
0000
0300
0020
0230
,
0000
0300
0020
0230
0000
0000
0000
0000
,
0301
0000
0000
0000
0000
0000
1000
0001
0000
0000
0000
0000
0000
0000
0000
0001
,
0100
0000
0000
0000
0000
0010
0000
0010
0000
0000
0000
0000
0000
0000
0000
0000
,
1000
0000
0000
0000
0000
0001
0100
0000
0000
0000
0000
0000
0000
0000
0000
0001
,
1000
0000
0000
0000
0000
0100
0000
0010
0000
0000
0000
0000
0000
0000
0000
0000
,
1001
1000
0010
1000
,
0001
0100
0001
1000
,
0001
0010
0100
1000
,
0010
0100
0001
1000
,
0100
0010
0100
0010
0001
0010
0001
0010
,
0000
0011
1001
1010
,
1000
0010
0000
1000
0001
0100
0010
0000
,
1000
0000
0001
0000
0100
0010
0100
0000
,
0001
0100
0000
0001
0000
1000
0000
0100
,
0000
0000
0100
0000
1000
0100
1000
0000
,
1000
0001
0000
0100
0001
1000
0000
0000
,
0010
0100
0001
0010
,
0100
1000
0000
0001
0000
0100
0000
0010
,
0000
1000
0100
0010
0002
0000
0103
0000
,
0001
1000
0001
0100
,
0001
0010
0100
0010
,
0001
1000
0001
0100
,
0001
0000
0010
0000
0100
0000
0010
0001
,
0010
0001
0010
0100
0010
0100
0000
0000
,
0110
1001
1100
0100
,
1000
0001
0100
0001
,
0010
0000
0100
0010
0100
0000
1000
0000
,
0001
0100
0001
1000
,
0010
1000
0010
0000
0100
0000
0001
0000
,
1000
0100
0010
0001
,
0100
0000
0001
1000
0001
0000
0100
0000
,
0001
0010
0100
1000
,
0010
0000
0100
0010
0100
0000
0001
0000
,
0010
0100
0010
0001
,
1000
0000
0010
0100
0010
0000
1000
0000
,
0001
0100
0010
1000
,
0100
0010
0100
0000
1000
0000
0001
0000
,
0100
0001
0010
0100
,
1000
0000
0001
1000
0001
0000
0100
0000
,
0010
1000
0100
0010
,
0100
0000
1000
0100
1000
0000
0000
0000
,
0001
0000
0010
0000
,
0100
0000
0000
0000
;

//---------------dance-single - ----------------
#NOTES:
     dance-single:
     X-Scale 10:
     Medium:
     7:
     0.389476,0.494286,0.185213,0.214847,0.166691,368.000000,343.000000,25.000000,29.000000,0.000000,0.000000,0.389476,0.494286,0.185213,0.214847,0.166691,368.000000,343.000000,25.000000,29.000000,0.000000,0.000000:
// measure 0
0000
0000
0000
0000
,  // measure 1
0000
0000
0000
0000
,  // measure 2
0000
0000
0000
0000
,  // measure 3
0000
0000
0000
0000
,  // measure 4
1000
0000
0001
0000
0100
0000
0001
0020
0000
0000
0130
0000
0010
0000
0002
0000
,  // measure 5
0003
1000
0001
0200
1000
0000
0301
0100
,  // measure 6
0001
0000
0010
0000
0100
0010
0001
2000
0000
3000
0100
0000
1000
0000
0002
0000
,  // measure 7
0003
0100
0001
0020
0100
0000
0031
1000
,  // measure 8
0001
0010
0100
0000
1000
0001
0200
0000
0010
0000
0301
0000
0100
0000
0001
0000
,  // measure 9
1000
0000
0001
0000
0010
0000
0200
0000
1000
0000
0310
0000
0001
0020
0000
0000
,  // measure 10
0130
0010
0001
0000
1000
0001
0200
0000
1000
0000
0301
0000
0100
0000
0010
0000
,  // measure 11
1000
0000
0001
0000
0010
0000
0200
1000
0000
1000
0000
0000
0010
0000
1000
0000
,  // measure 12
0310
0000
0010
0001
0000
0000
0010
0100
0000
0000
1000
0100
0001
0000
1000
0010
,  // measure 13
0001
0000
0010
0100
0000
0110
0000
1002
0000
0100
0000
0013
0100
1000
0010
0100
,  // measure 14
0001
0000
1000
0010
0000
0000
0100
0001
0000
0000
1000
0100
0001
0000
1000
0010
,  // measure 15
0001
0000
0100
0001
0000
0101
0000
1200
0000
0010
0000
0310
0100
1000
0001
0000
,  // measure 16
1002
0100
0010
0100
1000
0100
0010
0100
,  // measure 17
1003
0001
0100
0001
1000
0100
0010
0100
,  // measure 18
1000
0001
1000
0000
0010
0100
0010
0000
,  // measure 19
1000
0100
1000
0000
0001
0100
0001
0000
,  // measure 20
1000
0010
0100
0001
0010
0100
1000
0001
,  // measure 21
0100
0101
1001
1100
,  // measure 22
1000
0100
1000
0000
0001
0100
0001
0000
,  // measure 23
0010
0000
0000
0100
0010
0100
0000
0000
1000
0000
1000
0000
0001
0000
0000
0000
,  // measure 24
0100
0000
0001
0000
1000
0000
0010
1000
0000
0000
0001
0000
0000
0000
0100
0000
,  // measure 25
0000
0001
0010
1000
0010
0100
1000
0000
,  // measure 26
1100
0000
0100
0000
0000
0000
0001
0000
1001
0000
1000
0000
0010
0100
0010
0000
,  // measure 27
0110
0000
0000
0000
0000
0000
0000
0000
0000
0001
0000
0000
1000
0000
0000
0000
0001
0000
0000
0000
0100
0000
0000
0000
0001
0000
0000
0000
0010
0000
0000
0000
0100
0000
0000
0000
1000
0000
0000
0000
0000
0000
0000
0000
0000
0000
0000
0000
,  // measure 28
1010
0000
1000
0000
0001
0000
0100
0001
0000
0000
1000
0000
0000
0000
0001
0000
,  // measure 29
0000
0000
1000
0100
1000
0000
0001
0000
0200
0000
0000
0000
0301
0010
0200
0000
,  // measure 30
0301
0100
2000
0000
0100
0000
3001
0000
1000
0000
0200
0000
0010
0000
1300
0000
,  // measure 31
0001
0000
0200
0000
1000
0000
0301
0000
1000
0002
0010
0000
1003
0000
0001
0000
,  // measure 32
0200
0000
1300
0100
0002
0000
0100
0000
,  // measure 33
1003
0000
0001
0010
0200
0000
0001
0000
,  // measure 34
2300
0100
0002
3000
,  // measure 35
0100
0000
0100
0000
0103
0000
0001
0100
,  // measure 36
0000
1000
0100
0001
0000
0100
0001
1000
,  // measure 37
0010
0001
0010
1000
0100
0000
0010
0001
,  // measure 38
1000
1001
0000
0110
0000
1100
0000
1000
,  // measure 39
0010
1000
0001
0100
0001
0000
0010
0100
,  // measure 40
0000
1000
0010
0100
0000
1000
0100
0001
,  // measure 41
1000
0001
0010
0100
1000
0000
0001
0100
,  // measure 42
0000
0101
0000
0110
0000
1001
0000
1000
,  // measure 43
0001
0100
0001
1000
1001
0000
0001
0100
,  // measure 44
1000
0100
0001
1000
0100
1000
0010
0100
,  // measure 45
1000
0100
0001
1000
0001
0000
0010
0100
,  // measure 46
0000
0110
0000
1001
0000
1100
0000
0100
,  // measure 47
1000
0001
1000
0100
0010
0000
0001
0100
,  // measure 48
1000
0001
0100
0010
0001
1000
0010
0100
,  // measure 49
1000
0100
0001
1000
0001
0000
0010
0100
,  // measure 50
0000
0110
0000
1001
0000
1100
0000
0100
,  // measure 51
1000
0001
0100
0010
2000
0000
0000
0000
,  // measure 52
3002
0000
0000
0000
0203
0000
0000
0010
,  // measure 53
0020
0000
0000
0330
0000
0000
0000
0000
;

//---------------dance-single - ----------------
#NOTES:
     dance-single:
     X-Scale 13:
     Hard:
     9:
     0.505895,0.612915,0.237072,0.244481,0.414876,478.000000,446.000000,32.000000,33.000000,0.000000,0.000000,0.505895,0.612915,0.237072,0.244481,0.414876,478.000000,446.000000,32.000000,33.000000,0.000000,0.000000:
// measure 0
0000
0000
0000
0000
,  // measure 1
0000
0000
0000
0000
,  // measure 2
0000
0000
0000
0000
,  // measure 3
0000
0000
0000
0000
,  // measure 4
2000
0000
3020
0000
0031
0010
0100
0020
1000
0000
0230
0000
0302
0000
0023
0000
,  // measure 5
0130
1000
0002
0000
2003
0000
3200
0000
0010
0000
1000
0000
0010
0000
1300
0000
,  // measure 6
0200
0000
0320
0000
0031
0010
0100
2000
0100
3000
2000
0000
3002
0000
0203
0000
,  // measure 7
0310
0000
2000
0000
3002
0000
0023
0000
0100
0000
0001
0000
0130
0010
0001
0000
,  // measure 8
1000
0010
0100
1000
0000
1000
0100
0001
0000
1000
0001
0100
0010
1000
0100
0010
,  // measure 9
0001
0100
0001
0010
0000
1000
0000
0100
0000
0001
0000
1000
0001
1000
0100
1000
,  // measure 10
0001
0010
0100
1000
0000
0100
0010
0001
0000
0010
1000
0010
0001
0010
0100
1000
,  // measure 11
0001
0000
0100
0000
0010
0000
1000
0000
0000
0000
0100
0000
0000
0000
0001
0000
0000
0000
0010
0000
0000
0000
1000
0000
0001
0000
0100
0000
0001
0000
1000
0001
,  // measure 12
2000
0000
0100
0100
0000
3001
0100
0101
0000
0001
1000
0010
0100
0001
1000
0100
,  // measure 13
2100
0000
0000
0000
0010
0000
3010
0000
0000
0000
1001
0000
0000
0000
0101
0000
0000
0000
0100
0000
0000
0000
0001
0000
0010
0000
0010
0000
0100
0000
0010
0100
,  // measure 14
2000
0000
0010
0010
0000
3001
1000
1001
0000
0001
1000
0010
0001
0010
1000
0100
,  // measure 15
0120
0000
0000
0000
0001
0000
0031
0000
0000
0000
0011
0000
0000
0000
1001
0000
0000
0000
0100
0000
0000
0000
1000
0000
0001
0000
0001
0000
0100
0000
0010
0100
,  // measure 16
0010
0100
1000
0100
0001
1000
0100
0001
,  // measure 17
0100
0000
1000
0100
0010
0000
0100
0010
0001
0000
1000
0010
0100
0000
0010
0100
,  // measure 18
0001
0100
1000
0100
0001
0100
0010
1000
,  // measure 19
0010
0100
0010
0001
0010
1000
0010
0100
,  // measure 20
0001
1000
0001
1000
0001
1000
0001
1000
0010
1000
0010
1000
0010
1000
0010
1000
,  // measure 21
0010
0000
1001
0000
0101
1000
1001
0000
,  // measure 22
0001
0100
0001
0010
0100
1000
0010
0000
,  // measure 23
0100
0000
0001
0100
0001
1000
0000
0000
0100
0000
0100
0000
0100
0000
0000
0000
,  // measure 24
0010
0000
0100
0000
1000
0000
0001
0100
0001
0000
0010
0000
0100
0000
0010
0000
,  // measure 25
0001
0010
0100
1000
0010
0010
0010
0000
,  // measure 26
1010
0000
1000
0000
0001
0000
0100
0000
0101
0000
0001
0000
0010
0100
1000
0000
,  // measure 27
0001
0000
0000
0000
0000
0000
0000
0000
0000
0100
0000
0000
0001
0000
0000
0000
0100
0000
0000
0000
0010
0000
0000
0000
1000
0000
0000
0000
0100
0000
0000
0000
0010
0000
0000
0000
0001
0000
0000
0000
0000
0000
0000
0000
0000
0000
0000
0000
,  // measure 28
0101
0000
0001
0000
1000
0000
0100
0010
0001
0000
1000
0000
0010
0000
1000
0000
,  // measure 29
0010
0000
0100
0010
0100
0000
0001
0000
0020
0000
0100
0000
0130
0010
0002
0000
,  // measure 30
1003
0001
0200
0000
1000
0000
0301
0000
0020
0000
0230
0000
1000
0000
0310
0000
,  // measure 31
0002
0000
0203
0000
1000
0000
0301
0000
0100
0010
1000
0000
0001
0000
0100
0000
,  // measure 32
1000
0100
0010
0100
0001
1000
0010
0100
,  // measure 33
0001
0000
0010
0000
0100
0000
1000
0000
0001
0000
0010
0000
0100
0010
0100
0010
,  // measure 34
0100
0010
0100
0010
0001
1000
0001
1000
0001
1000
0001
1000
0001
0000
0000
0000
,  // measure 35
1001
0000
1100
0100
1001
0000
0001
0100
,  // measure 36
0010
0100
1000
0100
0010
1000
0001
0100
,  // measure 37
1000
0100
0001
1000
0100
0000
0010
0001
,  // measure 38
1000
1001
0000
1100
0000
0101
0000
0011
,  // measure 39
0010
0010
0001
0001
1000
0000
0010
1000
,  // measure 40
0001
0100
1000
0100
0001
1000
0010
0100
,  // measure 41
1000
0001
0010
0100
0001
0000
1000
0010
,  // measure 42
0100
0110
0000
1001
0000
0101
0000
1100
,  // measure 43
1000
0000
1000
0000
0001
0000
0001
0000
0101
0000
0100
0000
0010
0000
0100
0001
,  // measure 44
0100
0000
0010
0000
1000
0000
0100
0010
0100
0000
1000
0000
0001
0000
0010
0100
,  // measure 45
0010
0000
0001
0000
1000
0000
0001
0000
0100
0000
0010
0000
1000
0000
0010
0100
,  // measure 46
0010
0110
0000
1001
1000
1100
0000
0100
,  // measure 47
1000
0000
0010
0000
0001
0000
0010
0000
1000
0000
0100
0000
0010
0000
0001
0010
,  // measure 48
0001
0000
1000
0000
0010
0000
0100
0010
0100
0000
0001
0000
0010
0000
0100
1000
,  // measure 49
0100
0000
0001
0000
0100
0000
1000
0000
0010
0000
0100
0000
0001
0000
0010
0100
,  // measure 50
0010
0110
0000
0011
0001
1001
0000
1000
,  // measure 51
0010
0000
0100
0000
0001
0000
0010
0100
0020
0000
0000
0000
0000
0000
0000
0000
,  // measure 52
0002
0000
0000
0033
2000
0000
0000
0010
,  // measure 53
0020
0000
0000
3030
0000
0000
0000
0000
;

//---------------dance-single - DANCERUSH Special----------------
#NOTES:
     dance-single:
     X-Scale 12:
     Challenge:
     8:
     0.307982,0.415200,0.155579,0.200030,0.100015,291.000000,270.000000,21.000000,27.000000,206.000000,0.000000,0.307982,0.415200,0.155579,0.200030,0.100015,291.000000,270.000000,21.000000,27.000000,206.000000,0.000000:
// measure 0
0000
0000
0000
0000
,  // measure 1
0000
0000
0000
0000
,  // measure 2
0000
0000
0000
0000
,  // measure 3
0000
0000
0000
0000
,  // measure 4
1000
0000
0001
0010
0100
0000
0010
0000
,  // measure 5
0001
1000
0100
0020
0001
0000
1030
MMMM
,  // measure 6
1000
0000
0010
1000
0001
0000
0100
0000
,  // measure 7
0001
1000
0100
0020
0001
0000
1030
MMMM
,  // measure 8
1000
0000
0010
0100
000M
0100
1000
0001
0000
0010
0001
0000
0200
0000
0020
0000
,  // measure 9
0000
0330
0MM0
0000
0002
0000
2000
0000
0000
0000
3003
M00M
0100
2000
0000
0000
,  // measure 10
3001
0000
0100
0010
M000
0010
0001
1000
0000
0100
1000
0000
0001
0000
0010
0000
,  // measure 11
1000
0000
0010
0100
2000
0000
3002
1000
0000
0010
0000
0000
0100
0000
1003
0000
,  // measure 12
1001
0000
0000
0000
0000
0000
0000
1100
0000
0000
0000
0000
0000
0000
0000
0000
,  // measure 13
0101
0000
0000
0000
0000
0110
0000
1001
0000
0000
0000
0000
1000
0000
0001
0000
,  // measure 14
1001
0000
0000
0000
0000
0000
0000
0110
0000
0000
0000
0000
0000
0000
0000
0000
,  // measure 15
1100
0000
0000
0000
0000
0101
0000
0011
0000
0000
0000
0000
0010
0000
0100
0000
,  // measure 16
1000
MMMM
1000
MMMM
1000
MMMM
0100
0001
,  // measure 17
0001
MMMM
0001
MMMM
0001
MMMM
0010
1000
,  // measure 18
1000
0100
0010
0001
,  // measure 19
0100
0010
1000
0001
,  // measure 20
0010
1000
0010
0001
0010
1000
0010
0001
,  // measure 21
0000
0000
0000
0000
2002
3003
M00M
0000
0220
0330
0MM0
0000
1000
0000
MMMM
0000
,  // measure 22
1000
MMMM
1000
MMMM
1000
MMMM
2000
0000
,  // measure 23
3010
0000
0000
0100
0010
0100
0000
0000
0010
0000
1000
0000
0001
0000
MMMM
0000
,  // measure 24
0001
MMMM
0001
MMMM
0001
MMMM
0001
MMMM
,  // measure 25
1000
MMMM
0001
0100
0010
1000
0001
MMMM
,  // measure 26
0001
MMMM
0001
MMMM
0001
MMMM
0001
0000
,  // measure 27
0110
0000
0000
0000
0000
0000
0000
0000
0000
0010
0000
0000
1000
0000
0000
0000
0010
0000
0000
0000
0100
0000
0000
0000
0001
0000
0000
0000
0010
0000
0000
0000
0100
0000
0000
0000
1000
0000
0000
0000
0000
0000
MMMM
0000
0000
0000
0000
0000
,  // measure 28
1000
MMMM
1000
MMMM
1000
MMMM
1000
MMMM
,  // measure 29
0001
MMMM
1000
0100
0020
0000
0031
0100
,  // measure 30
0010
0001
1000
0100
0010
1000
0001
0010
,  // measure 31
1000
0010
0100
0010
0001
1000
0010
0100
,  // measure 32
0020
0000
0031
0010
0200
0000
1000
0000
,  // measure 33
0310
0000
0200
0000
0302
0000
0013
1000
,  // measure 34
0010
0001
0010
1000
0010
0001
0000
0000
,  // measure 35
2200
3300
MM00
0000
0022
0033
00MM
0000
1000
0000
MMMM
0000
1000
0000
MMMM
0000
,  // measure 36
1000
MMMM
1000
MMMM
1000
0000
0010
0000
,  // measure 37
0001
0010
0100
0010
1000
0000
0100
0000
,  // measure 38
1000
MMMM
0001
MMMM
1000
MMMM
0001
0100
,  // measure 39
1000
0100
0010
0100
0001
MMMM
0001
MMMM
,  // measure 40
0001
MMMM
0001
MMMM
0001
0000
0100
0000
,  // measure 41
1000
0100
0010
0100
0001
0000
0010
0000
,  // measure 42
0001
MMMM
1000
MMMM
0001
MMMM
1000
0010
,  // measure 43
0001
0010
1000
0100
0010
0000
0011
0001
,  // measure 44
0100
0000
1001
0100
0001
0000
1100
0000
,  // measure 45
1000
0100
0001
0100
1000
0000
0010
1000
,  // measure 46
0001
MMMM
0001
MMMM
0001
MMMM
1000
0000
,  // measure 47
0100
1000
0001
1000
0010
0000
1010
0001
,  // measure 48
1000
0000
0011
1000
0001
0000
0101
0000
,  // measure 49
0001
0100
1000
0100
0001
0000
0100
0001
,  // measure 50
1000
MMMM
1000
MMMM
1000
MMMM
0001
0000
,  // measure 51
0100
0000
0010
0000
1000
0000
0001
1000
0002
0000
0000
0000
0000
0000
0000
0000
,  // measure 52
0020
0000
0000
0033
2000
0000
0000
0100
,  // measure 53
0200
0000
0000
3300
0000
0000
0000
0000
;
