#VERSION:0.83;
#TITLE:Antidote;
#SUBTITLE:;
#ARTIST:Swedish House Mafia vs Knife Party;
#TITLETRANSLIT:;
#SUBTITLETRANSLIT:;
#ARTISTTRANSLIT:;
#GENRE:Electro House;
#ORIGIN:;
#CREDIT:;
#BANNER:Antidote-bn.png;
#BACKGROUND:Antidote-bg.png;
#PREVIEWVID:;
#JACKET:Antidote-jacket.png;
#CDIMAGE:;
#DISCIMAGE:;
#LYRICSPATH:;
#CDTITLE:cdtitle.png;
#MUSIC:antidote.ogg;
#OFFSET:-0.002000;
#SAMPLESTART:75.001999;
#SAMPLELENGTH:15.000000;
#SELECTABLE:YES;
#BPMS:0.000=128.000;
#STOPS:;
#DELAYS:;
#WARPS:;
#TIMESIGNATURES:0.000=4=4;
#TICKCOUNTS:0.000=4;
#COMBOS:0.000=1;
#SPEEDS:0.000=1.000=0.000=0;
#SCROLLS:0.000=1.000;
#FAKES:;
#LABELS:0.000=Song Start;
#BGCHANGES:;
#KEYSOUNDS:;
#ATTACKS:
;

//---------------dance-single - ----------------
#NOTEDATA:;
#CHARTNAME:X-Scale 2;
#STEPSTYPE:dance-single;
#DESCRIPTION:;
#CHARTSTYLE:;
#DIFFICULTY:Beginner;
#METER:1;
#RADARVALUES:0.113053,0.144511,0.025806,0.000000,0.000000,92.000000,89.000000,3.000000,0.000000,0.000000,0.000000,0.000000,0.000000,0.000000,0.113053,0.144511,0.025806,0.000000,0.000000,92.000000,89.000000,3.000000,0.000000,0.000000,0.000000,0.000000,0.000000,0.000000;
#CREDIT:iamthek3n;
#NOTES:
0000
0000
0000
0000
,
0000
0000
0000
0000
,
0000
0000
0000
0000
,
0000
0000
0000
0000
,
1000
0000
0000
0000
,
0100
0000
0000
0000
,
0010
0000
0000
0000
,
0001
0000
0000
0000
,
1000
0000
0001
0000
,
0100
0000
0001
0000
,
1000
0000
0100
0000
,
0010
0000
0100
0000
,
1000
0000
0001
0000
,
0010
0000
0001
0000
,
1000
0000
0010
0000
,
1000
0000
0001
0000
,
1001
0000
1000
0000
,
0010
0000
1000
0000
,
0001
0000
0010
0000
,
0100
0000
0010
0000
,
0001
0000
1000
0000
,
0001
0000
0010
0000
,
0100
0000
1000
0000
,
0001
0000
0000
0000
,
1000
0000
0001
0000
,
0100
0000
0001
0000
,
1000
0000
0010
0000
,
1000
0000
0100
0000
,
0010
0000
0100
0000
,
1000
0000
0001
0000
,
0010
0000
0100
0000
,
1000
0000
0000
0000
,
0001
0000
0000
0000
,
1000
0000
0000
0000
,
0010
0000
0000
0000
,
1000
0000
0000
0000
,
0001
0000
0000
0000
,
0010
0000
0000
0000
,
0100
0000
0000
0000
,
0010
0000
0000
0000
,
0001
0000
1000
0000
,
0010
0000
1000
0000
,
0001
0000
0010
0000
,
0100
0000
0010
0000
,
0001
0000
1000
0000
,
0100
0000
0010
0000
,
0100
0000
1000
0000
,
0001
0000
0000
0000
,
1001
0000
1000
0000
,
0001
0000
0100
0000
,
0001
0000
0010
0000
,
0100
0000
0010
0000
,
0001
0000
1000
0000
,
0010
0000
1000
0000
,
0001
0000
0010
0000
,
0100
0000
0000
0000
,
1001
0000
0000
0000
;

//---------------dance-single - ----------------
#NOTEDATA:;
#CHARTNAME:X-Scale 6;
#STEPSTYPE:dance-single;
#DESCRIPTION:;
#CHARTSTYLE:;
#DIFFICULTY:Easy;
#METER:4;
#RADARVALUES:0.271573,0.289022,0.086019,0.060213,0.000000,221.000000,211.000000,10.000000,7.000000,0.000000,0.000000,0.000000,0.000000,0.000000,0.271573,0.289022,0.086019,0.060213,0.000000,221.000000,211.000000,10.000000,7.000000,0.000000,0.000000,0.000000,0.000000,0.000000;
#CREDIT:iamthek3n;
#NOTES:
0000
0000
0000
0000
,
0000
0000
0000
0000
,
0000
0000
0000
0000
,
0000
0000
0000
0000
,
1001
0000
0100
0000
1000
0000
0001
0010
,
0100
0000
1000
0000
0001
0000
0100
0001
,
1000
0000
0001
0000
0010
0000
0100
0010
,
0001
0000
1000
0000
0001
0000
0010
0100
,
1000
0100
0000
1000
0000
0001
0000
0100
,
0001
1000
0000
0001
0000
0010
0000
0100
,
1000
0001
0000
1000
0000
0010
0000
0100
,
0001
1000
0000
0100
0000
0010
0000
0001
,
0010
0100
0000
1000
0000
0001
0000
0100
,
0001
1000
0000
0001
0000
0010
0000
0100
,
0010
0001
1000
0001
,
0200
0010
0301
1001
,
0110
0100
0001
1000
,
0001
0010
0100
0010
,
0001
1000
0001
0100
,
0001
1000
0100
0010
,
0001
0100
0010
1000
,
0001
0100
0001
1000
,
0010
0100
0001
0010
,
0012
0000
0000
1003
,
1010
0000
0010
0000
1000
0000
0100
0010
,
0001
0000
1000
0000
0001
0000
0010
0100
,
1000
0000
0001
0000
0100
0000
0001
0010
,
0100
0000
1000
0000
0001
1000
0002
0000
,
0103
0000
0001
0000
1000
0000
0100
0010
,
0001
0000
1000
0000
0001
0000
0010
0100
,
1000
0000
0001
0000
0100
0000
0010
1000
,
0001
0100
0010
1000
,
2002
0000
0000
0000
,
0000
0000
0000
0000
0000
0000
0000
3003
,
0001
0000
0000
0000
,
1000
0000
0000
0000
,
0001
0000
1000
0000
,
0010
0000
1000
0000
,
0001
0000
0010
0000
,
0100
0000
1000
1100
,
0100
0000
0010
0000
0001
0000
1000
0001
,
0010
0000
0100
0000
0010
0000
0100
1000
,
0001
0000
0100
0000
0001
0000
0010
0100
,
1000
0000
0010
0000
1000
0000
0001
1000
,
0010
0000
0100
0000
0001
0000
1000
0100
,
0010
0000
0100
0000
1000
0000
0001
0100
,
0010
0000
1000
0000
0001
0010
0100
0000
,
1002
0000
0000
0103
,
1001
0000
1000
0000
0001
0000
0100
0001
,
1000
0000
0100
0000
0010
0000
0100
0010
,
0001
0000
0010
0000
0100
0000
1000
0001
,
0010
0000
0100
0000
0010
0000
0001
1000
,
0010
0100
0001
1000
,
0001
0010
0100
1000
,
0001
1000
0010
1000
,
0002
0000
0000
0013
,
0101
0000
0000
0000
;

//---------------dance-single - ----------------
#NOTEDATA:;
#CHARTNAME:X-Scale 11;
#STEPSTYPE:dance-single;
#DESCRIPTION:;
#CHARTSTYLE:;
#DIFFICULTY:Medium;
#METER:8;
#RADARVALUES:0.449754,0.478048,0.206445,0.146232,0.296764,366.000000,342.000000,24.000000,17.000000,0.000000,0.000000,0.000000,0.000000,0.000000,0.449754,0.478048,0.206445,0.146232,0.296764,366.000000,342.000000,24.000000,17.000000,0.000000,0.000000,0.000000,0.000000,0.000000;
#CREDIT:iamthek3n;
#NOTES:
0000
0000
0000
0000
,
0000
0000
0000
0000
,
0000
0000
0000
0000
,
0000
0000
0000
0000
,
1001
0000
1000
0100
0010
0000
0001
0100
,
0010
0000
1000
0100
0010
0000
0001
0100
,
0010
0000
1000
0001
0010
0000
0001
0100
,
0010
0000
1000
0100
0010
0000
0001
0100
,
0101
0001
1000
0001
0100
0010
0001
0010
,
0100
0001
1000
0100
0001
0100
0010
0001
,
0100
0001
0010
0001
1000
0100
0001
0100
,
1000
0001
0010
0001
1000
0100
0010
0100
,
1000
0010
1000
0010
0100
0001
0100
0001
,
0010
0100
0010
0100
1000
0001
1000
0001
,
0020
0000
0000
1000
0000
0000
0100
0000
0000
0001
0000
0000
0100
0000
0000
1000
,
0000
0000
0100
0000
0000
0001
0000
0000
0031
0000
0010
0000
0011
0000
0000
0000
,
1001
0000
0000
1000
0000
0000
0001
0000
0000
0000
0010
0000
0000
0010
0000
0000
,
0001
0000
0000
0000
0100
0000
0000
0000
0010
0000
0000
0000
1000
0000
0000
0000
0100
0000
0000
0000
0010
0000
0000
0000
0001
0000
0000
0000
0000
0000
0010
0000
0000
0000
0000
0000
0000
0000
0000
0010
0000
0000
0000
0000
0000
0000
0000
0000
,
0011
0000
0000
0001
0000
0000
1000
0000
0000
0000
0100
0000
0000
0100
0000
0000
,
1000
0000
0000
0000
0010
0000
0000
0000
0100
0000
0000
0000
0001
0000
0000
0000
0010
0000
0000
0000
0100
0000
0000
0000
1000
0000
0000
0000
0000
0000
0010
0000
0000
0000
0000
0000
0000
0000
0000
0010
0000
0000
0000
0000
0000
0000
0000
0000
,
1010
0000
0000
1000
0000
0000
0100
0000
0000
0000
0010
0000
0000
0010
0000
0000
,
0001
0000
0000
0000
0010
0000
0000
0000
0100
0000
0000
0000
1000
0000
0000
0000
0010
0000
0000
0000
0100
0000
0000
0000
0001
0000
0000
0000
0000
0000
1000
0000
0000
0000
0000
0000
0000
0000
0000
1000
0000
0000
0000
0000
0000
0000
0000
0000
,
1001
0000
0000
0010
0000
0000
0001
0000
0000
0000
1000
0000
0000
1000
0000
0000
,
1100
0000
0001
0010
1000
0100
0001
0000
,
1001
0000
1000
0000
0001
0000
1000
0000
0100
0000
0010
0000
0000
0010
0000
0000
,
0001
1000
0001
1000
0100
0010
0100
0010
0000
0120
0000
0000
,
0031
0000
0010
0000
0100
0000
1000
0000
0010
0000
0100
0000
0000
0100
0000
0000
,
0001
0010
0001
0010
0100
1000
0100
1000
0000
2100
0000
0000
,
3001
0000
0100
0000
1000
0000
0100
0000
0001
0000
0010
0000
0000
0010
0000
0000
,
0100
0010
0001
1000
0001
0010
0100
0010
0000
0021
0000
0000
,
0130
0000
0010
0000
0001
0000
0010
0000
0100
0000
1000
0000
0000
1000
0000
0000
,
0001
0100
0010
1000
0100
0010
0001
1000
0010
0100
0000
0000
,
0110
0000
0000
0000
0010
0000
0000
0000
1000
0000
0000
0100
0000
0000
0010
0000
,
0000
0001
0000
0010
0200
0000
0020
0330
,
1001
0000
0000
0000
1000
0000
0000
0000
0010
0000
0000
0100
0000
0000
0010
0000
,
0000
1000
0000
0001
0200
0000
0002
0303
,
1001
0000
0000
0000
1000
0000
0000
0000
0010
0000
0000
0100
0000
0000
0001
0000
,
0000
1000
0000
0010
2000
0000
0200
3300
,
1001
0000
0000
0000
0001
0000
0000
0000
0010
0000
0000
0100
0000
0000
1000
0000
,
0000
0001
0000
0100
0002
0000
0020
0033
,
0101
0000
0000
0000
0001
0000
1000
0000
0001
0000
0010
0000
0000
0010
0000
0000
,
0001
1000
0100
1000
0010
0001
0010
1000
,
0001
0000
0000
0000
1000
0000
0010
0000
1000
0000
0100
0000
0000
0100
0000
0000
,
0010
0100
1000
0001
0100
0010
1000
0100
,
1000
0000
0000
0000
0001
0000
0100
0000
0001
0000
0010
0000
0000
0010
0000
0000
,
0100
0010
0001
1000
0010
1000
0001
0010
,
0100
0000
0000
0000
1000
0000
0010
0000
1000
0000
0100
0000
0000
0100
0000
0000
,
0120
0000
0000
0031
,
1001
0000
1000
0000
0010
0000
1000
0000
0001
0000
0010
0000
0000
0010
0000
0000
,
1000
0000
0001
0000
0100
0000
0010
0000
1000
0000
0100
0000
0010
0000
0000
0001
,
1000
0000
0001
0000
0100
0000
0001
0000
1000
0000
0100
0000
0000
0100
0000
0000
,
0001
1000
0001
0010
0100
1000
2001
0000
,
3010
0000
0000
0100
0010
0000
1000
0000
0000
0001
0100
0000
0001
0000
0000
0000
,
0010
0000
0000
0100
1000
0000
0001
0000
0000
0100
0001
0000
1002
0000
0000
0000
,
0103
0000
0000
0010
0000
0000
0100
0000
0000
0001
0100
0000
0001
0000
1000
0000
,
1100
0100
0010
0101
,
2002
0000
0000
0000
,
0000
0000
0000
0000
,
0000
0000
3003
0000
;

//---------------dance-single - ----------------
#NOTEDATA:;
#CHARTNAME:X-Scale 13;
#STEPSTYPE:dance-single;
#DESCRIPTION:;
#CHARTSTYLE:;
#DIFFICULTY:Hard;
#METER:9;
#RADARVALUES:0.597215,0.655891,0.189241,0.283861,0.524713,486.000000,464.000000,22.000000,33.000000,0.000000,0.000000,17.000000,0.000000,0.000000,0.597215,0.655891,0.189241,0.283861,0.524713,486.000000,464.000000,22.000000,33.000000,0.000000,0.000000,17.000000,0.000000,0.000000;
#CREDIT:iamthek3n;
#NOTES:
// measure 0
0000
0000
0000
0000
,  // measure 1
0000
0000
0000
0000
,  // measure 2
0000
0000
0000
0000
,  // measure 3
0000
0000
0000
0000
,  // measure 4
1000
0000
0010
0000
1000
0000
0100
0000
0010
0001
1000
0000
0001
0000
0100
0000
,  // measure 5
0010
0000
1000
0000
0001
0000
0100
0000
0001
0010
0100
0000
1000
0000
0010
0000
,  // measure 6
0100
0000
1000
0000
0100
0000
0010
0000
1000
0001
0100
0000
0010
0000
0001
0000
,  // measure 7
0010
0000
1000
0000
0001
0000
0100
0000
0001
0100
0010
0000
1000
0000
0100
0000
,  // measure 8
1100
0000
1000
0000
0001
0000
1000
0000
0100
0000
0010
0001
0010
0000
0001
0000
,  // measure 9
1000
0000
0010
0000
0100
0000
0001
0000
0010
0001
0010
0000
0001
0000
1000
0100
,  // measure 10
0010
0000
0100
0000
1000
0000
0010
0000
0100
0000
0001
0010
0001
0000
1000
0000
,  // measure 11
0010
0000
0100
0000
0001
0000
0010
0100
1000
0000
0100
0000
0010
0000
0001
1000
,  // measure 12
0100
1000
0100
0001
0100
1000
0100
0010
,  // measure 13
0001
0100
1000
0100
0001
0100
1000
0100
,  // measure 14
0010
1000
0010
1000
0010
1000
0010
1000
0001
0010
0001
0010
0001
0010
0001
0010
,  // measure 15
0400
0000
0000
0000
0000
0000
0000
0000
4300
3000
0004
0003
4004
3003
0000
0000
,  // measure 16
1001
0000
0000
1000
0100
0000
1000
0000
0001
0000
0010
0000
0001
0010
0000
0000
,  // measure 17
0100
0000
0000
0000
1000
0000
0000
0000
0001
0000
0000
0000
0100
0000
0000
0000
1000
0000
0000
0000
0100
0000
0000
0000
0001
0000
0000
0000
0010
0000
0001
0000
0000
0000
0000
0000
1000
0000
0000
0001
0000
0000
0000
0000
0000
0000
0000
0000
,  // measure 18
1001
0000
0000
1000
0010
0000
1000
0000
0001
0000
0010
0000
0100
0010
0000
0000
,  // measure 19
0001
0000
0000
0000
0100
0000
0000
0000
1000
0000
0000
0000
0001
0000
0000
0000
0010
0000
0000
0000
1000
0000
0000
0000
0001
0000
0000
0000
1000
0000
0100
0000
0000
0000
0000
0000
1000
0000
0000
0100
0000
0000
0000
0000
0000
0000
0000
0000
,  // measure 20
1100
0000
0000
1000
0001
0000
0010
0000
0001
0000
0100
0000
0010
0100
0000
0000
,  // measure 21
0001
0000
0000
0000
0100
0000
0000
0000
1000
0000
0000
0000
0100
0000
0000
0000
0001
0000
0000
0000
1000
0000
0000
0000
0001
0000
0000
0000
0010
0000
0001
0000
0000
0000
0000
0000
1000
0000
0000
0010
0000
0000
0000
0000
0000
0000
0000
0000
,  // measure 22
1010
0000
0000
0001
0010
0000
0001
0000
1000
0000
0100
0000
0010
0001
0000
0000
,  // measure 23
0011
0000
0000
0000
4000
3000
0400
0300
0040
0030
0004
0003
0044
0033
0000
0000
,  // measure 24
1010
0000
1000
0000
0001
0000
1000
0000
0100
0010
0001
0000
1000
0001
0000
0000
,  // measure 25
0100
0000
0000
0000
0010
0000
0000
0000
1000
0000
0000
0000
0001
0000
0000
0000
0010
0000
0000
0000
0100
0000
0000
0000
1000
0000
0000
0000
0001
0000
0100
0000
0000
0000
0000
0000
0001
0000
0000
0100
0000
0000
0000
0000
0000
0000
0000
0000
,  // measure 26
0010
0000
0001
0000
0010
0000
1000
0000
0010
0100
0001
0000
1000
0001
0000
0000
,  // measure 27
1000
0000
0100
0000
0010
0000
0001
0000
1000
0000
0010
0000
0100
0000
0001
1000
0000
0000
1200
0000
0000
0000
0000
0000
,  // measure 28
0310
0000
0100
0000
0001
0000
0100
0000
1000
0010
1000
0000
0100
1000
0000
0000
,  // measure 29
0001
0000
0000
0000
0010
0000
0000
0000
1000
0000
0000
0000
0001
0000
0000
0000
0100
0000
0000
0000
1000
0000
0000
0000
0001
0000
0000
0000
0010
0000
0100
0000
0000
0000
0000
0000
0010
0000
0000
0100
0000
0000
0000
0000
0000
0000
0000
0000
,  // measure 30
1000
0000
0010
0000
0100
0000
0001
0000
1000
0001
0100
0000
0010
0100
0000
0000
,  // measure 31
0001
0010
1000
0010
0100
0010
0001
1000
0010
0200
0000
0000
,  // measure 32
0301
0000
0000
0000
0100
0000
0000
0000
0010
0000
0000
1000
0010
0000
1000
0000
,  // measure 33
0000
0001
0000
0010
0200
0000
2000
3300
,  // measure 34
1001
0000
0000
0000
0100
0000
0000
0000
0001
0000
0000
0010
0001
0000
1000
0000
,  // measure 35
0000
0100
0000
1000
0020
0000
0200
0330
,  // measure 36
1001
0000
0000
0000
1000
0000
0000
0000
0100
0000
0000
1000
0010
0000
1000
0000
,  // measure 37
0000
0001
0000
0010
0200
0000
2000
3300
,  // measure 38
1001
0000
0000
0000
0100
0000
0000
0000
0001
0000
0000
0010
0100
0000
1000
0000
,  // measure 39
0000
0000
0001
0000
1000
0000
0010
0000
2000
0000
3000
0020
0000
0030
2000
3000
,  // measure 40
1010
0010
1000
0001
0010
0100
0010
0001
,  // measure 41
1000
0000
0000
0000
0010
0000
0000
0000
0100
0000
0000
0000
0001
0000
0000
0000
0010
0000
0000
0000
0001
0000
0000
0000
1000
0000
0000
0000
0000
0000
0100
0000
0000
0000
0000
0000
1000
0000
0000
0001
0000
0000
0000
0000
0000
0000
0000
0000
,  // measure 42
0100
0010
1000
0001
0010
1000
0001
0100
,  // measure 43
1000
0000
0100
0000
0010
0000
0001
0000
0100
0000
0001
0000
0010
0000
0000
0100
0000
0000
1100
0000
0000
0000
0000
0000
,  // measure 44
0101
0100
0001
1000
0100
0001
0100
1000
,  // measure 45
0001
0000
0000
0000
0010
0000
0000
0000
1000
0000
0000
0000
0010
0000
0000
0000
0100
0000
0000
0000
1000
0000
0000
0000
0001
0000
0000
0000
0000
0000
0010
0000
0000
0000
0000
0000
0001
0000
0000
1000
0000
0000
0000
0000
0000
0000
0000
0000
,  // measure 46
0100
0000
1000
0000
0001
0000
0100
0000
0010
0000
1000
0000
0100
0010
0000
0000
,  // measure 47
2001
0000
0000
0000
0100
0000
0000
0000
0010
0000
0001
3000
1001
0000
0000
0000
,  // measure 48
1001
0000
1000
0000
0001
0000
0010
0000
0100
0010
0001
0000
1000
0001
0000
0000
,  // measure 49
0100
0000
0000
0000
0010
0000
0000
0000
1000
0000
0000
0000
0001
0000
0000
0000
0100
0000
0000
0000
0001
0000
0000
0000
0010
0000
0000
0000
0100
0000
0010
0000
0000
0000
0000
0000
0010
0000
0000
0001
0000
0000
0000
0000
0000
0000
0000
0000
,  // measure 50
0001
0000
0100
0000
0010
0000
1000
0000
0100
0010
0001
0000
0100
0001
0000
0000
,  // measure 51
1000
0000
0000
0000
0010
0000
0000
0000
0100
0000
0000
0000
0001
0000
0000
0000
1000
0000
0000
0000
0100
0000
0000
0000
0010
0000
0000
0000
0001
0000
0010
0000
0000
0000
0000
0000
0100
0000
0000
0010
0000
0000
0000
0000
0000
0000
0000
0000
,  // measure 52
0010
0000
0000
0100
1000
0000
1000
0000
0001
0100
0001
0000
0100
0010
0000
0000
,  // measure 53
1000
0000
0000
0000
0001
0000
0000
0000
0100
0000
0000
0000
0010
0000
0000
0000
0001
0000
0000
0000
0010
0000
0000
0000
1000
0000
0000
0000
0010
0000
0100
0000
0000
0000
0000
0000
0010
0000
0000
1000
0000
0000
0000
0000
0000
0000
0000
0000
,  // measure 54
1000
0000
0000
0001
0100
0000
0001
0000
0010
0100
1000
0000
0001
0000
1000
0000
,  // measure 55
1001
0000
0001
0000
0040
0030
0400
0300
4000
3000
0040
0030
4004
3003
0000
0000
,  // measure 56
0021
0002
0003
0200
0300
2000
3000
0200
,  // measure 57
0300
0002
0003
0200
0300
2000
3000
0200
,  // measure 58
0300
0002
0003
0200
0330
0020
0030
0002
,  // measure 59
0003
2000
3000
0002
0003
0020
0030
0200
,  // measure 60
0300
2000
3000
0020
0030
0200
0300
0002
,  // measure 61
0003
0000
0000
0000
;
