#TITLE:All the Lovers;
#SUBTITLE:;
#ARTIST:Kylie Minogue;
#TITLETRANSLIT:;
#SUBTITLETRANSLIT:;
#ARTISTTRANSLIT:;
#GENRE:Synthpop;
#CREDIT:;
#BANNER:All the Lovers-bn.png;
#BACKGROUND:All the Lovers-bg.png;
#LYRICSPATH:;
#CDTITLE:cdtitle.png;
#MUSIC:All the Lovers.ogg;
#OFFSET:-0.002000;
#SAMPLESTART:32.001999;
#SAMPLELENGTH:16.000000;
#SELECTABLE:YES;
#BPMS:0.000000=120.000000
;
#STOPS:
;
#BGCHANGES:0.000=All the Lovers.avi=1.000=1=0=0=StretchNoLoop==CrossFade==,
99999=-nosongbg-=1.000=0=0=0 // don't automatically add -songbackground-
;
#KEYSOUNDS:;
#ATTACKS:;

//---------------dance-single - ----------------
#NOTES:
     dance-single:
     X-Scale 11:
     Hard:
     8:
     0.442636,0.535071,0.234954,0.345088,0.124819,422.000000,390.000000,32.000000,47.000000,0.000000,0.000000,0.442636,0.535071,0.234954,0.345088,0.124819,422.000000,390.000000,32.000000,47.000000,0.000000,0.000000:
// measure 0
0000
0000
0000
0000
,  // measure 1
0000
0000
0000
0000
,  // measure 2
0000
0000
0000
0000
,  // measure 3
0000
0000
0000
0000
,  // measure 4
0000
0000
0000
0000
0000
0000
0000
0000
0002
0000
0000
0000
0000
0000
0000
1000
,  // measure 5
0000
0000
1000
0000
1000
0000
0010
0000
0023
0000
0000
0000
0000
0000
0000
1000
,  // measure 6
0000
0100
0100
0001
0032
0000
1003
0200
,  // measure 7
0000
2000
3300
2000
0000
0002
3003
0002
,  // measure 8
0000
1003
0010
1000
1100
0000
1000
0100
,  // measure 9
0010
0000
0011
0000
0001
0000
0100
0001
,  // measure 10
1000
0000
0000
0000
1100
0000
1000
0001
1000
0000
0000
0000
0010
0000
0100
0000
,  // measure 11
0001
0000
0101
0000
0001
0000
0010
0100
,  // measure 12
1000
0000
0000
0000
1001
0000
0001
0100
0001
0000
0000
0000
1000
0000
0001
0000
,  // measure 13
0100
0000
0101
0000
0001
0000
0010
0100
,  // measure 14
1000
0000
1001
0002
0000
0103
0010
0200
,  // measure 15
0000
1300
0100
0002
0000
0013
0100
1000
,  // measure 16
1100
0000
0101
0000
1001
2000
0001
0000
,  // measure 17
0100
0000
3001
1000
0100
0000
0100
0001
,  // measure 18
1000
0000
1001
0000
0001
0000
0100
0002
,  // measure 19
1000
0000
0013
0001
0100
0000
0100
1000
,  // measure 20
1100
0000
0000
0000
0101
0000
0001
0100
0001
0000
0000
0000
0001
0000
0200
0000
,  // measure 21
0010
0000
0301
1000
0010
0000
0010
0002
,  // measure 22
0100
0000
1003
0020
0001
0000
1030
0001
,  // measure 23
0100
0000
0100
1000
0001
0000
1001
1000
,  // measure 24
0001
0000
0000
0000
0001
0010
0001
0010
0001
0000
1000
0000
0010
0000
0100
0000
,  // measure 25
1000
0100
1000
0100
0002
0000
0100
0000
,  // measure 26
1003
0010
1000
0000
0100
0010
0001
0000
,  // measure 27
1001
0000
1000
0002
0100
0000
1003
0001
,  // measure 28
0010
0000
0010
1000
0001
0000
1001
0000
,  // measure 29
1000
0100
0001
0100
2000
0000
0010
0000
,  // measure 30
3001
0000
1001
0000
0100
1000
0001
0200
,  // measure 31
1000
0000
0301
0000
0100
0010
1000
0002
,  // measure 32
0010
0100
2003
0100
,  // measure 33
0010
0000
0000
0000
3001
0000
1000
0000
0010
0000
0100
0000
0001
0010
0000
0001
,  // measure 34
0000
1000
0001
0010
0200
0000
0001
0000
,  // measure 35
0010
0000
0000
0000
1300
0000
0100
0000
1000
0000
0001
0000
0100
0000
0010
0100
,  // measure 36
0000
0001
0010
0100
2000
0000
0010
0000
,  // measure 37
0001
0000
0000
0000
3100
0000
0000
0000
1000
0010
0000
0100
0000
0000
0001
0010
,  // measure 38
0000
0000
0100
0000
0010
0001
0000
1000
0001
0000
0010
0000
0100
0000
1000
0100
,  // measure 39
1000
0000
0001
0100
0001
0000
0010
0000
1000
0000
0010
0000
0100
0000
0010
0000
,  // measure 40
0001
0100
0001
0000
1000
0100
1000
0000
2100
0000
0000
0000
3001
0000
0020
0000
,  // measure 41
1000
0000
0230
0000
2300
0000
3010
0200
,  // measure 42
0001
0000
0000
0000
0310
0100
0010
0100
0010
0000
1000
0000
0100
0000
1100
0000
,  // measure 43
0000
0101
0001
1001
0000
1010
1000
1001
,  // measure 44
0000
0001
0200
0000
0310
0100
0010
1001
,  // measure 45
0000
0101
0001
0011
0000
1100
1000
1020
,  // measure 46
0000
0000
0031
0000
0010
0000
1000
0100
0010
0000
0001
0000
0010
0000
0200
0000
,  // measure 47
1000
0000
2300
0000
0000
0000
3001
1000
0010
0000
0100
0000
1000
0000
0200
0000
,  // measure 48
0001
0000
0302
0000
0000
0000
0103
0001
1000
0000
0010
0000
0001
0000
0020
0000
,  // measure 49
1000
0000
2030
0000
0000
0000
3001
1000
0010
0000
0100
0000
1000
0000
0100
0000
,  // measure 50
0001
0000
0000
0000
1000
0001
1000
0001
1000
0000
0000
0000
1000
0000
0100
0000
,  // measure 51
0001
0100
0001
0100
2000
0000
0010
0000
,  // measure 52
3001
0000
0000
0000
1000
0000
0010
1000
0001
0000
1000
0000
0100
0000
0010
0100
,  // measure 53
1000
0000
1000
0020
0100
0000
1030
0001
,  // measure 54
0100
0000
0000
0000
0100
0000
1000
0100
1000
0000
0000
0000
1001
0000
0000
0000
,  // measure 55
0001
0100
1000
0100
0002
0000
0010
0000
,  // measure 56
1003
0000
0000
0000
0100
0000
0010
0000
0001
0000
1000
0000
0010
0000
0100
0010
,  // measure 57
0100
0000
0001
0000
0010
0000
1000
0000
0010
0000
0100
0000
1000
0000
0001
0100
,  // measure 58
0001
0010
0100
0000
1010
0010
1000
0100
,  // measure 59
0001
0100
0001
0100
2000
0010
0000
0001
,  // measure 60
3000
0000
0010
0000
1000
0000
0010
0100
0010
0000
1000
0000
0001
0000
0010
0000
,  // measure 61
0000
0010
1000
0100
0000
0100
0001
0010
,  // measure 62
0002
0000
0000
0000
0103
0000
0001
1000
0001
0000
0000
0000
0010
0000
0200
0000
,  // measure 63
0000
0000
2300
0000
3002
0000
1003
0100
,  // measure 64
1100
0000
1001
0000
0002
0200
0000
0000
,  // measure 65
0000
0000
0300
0000
,  // measure 66
0000
0003
0000
0000
;

//---------------dance-single - ----------------
#NOTES:
     dance-single:
     X-Scale 8:
     Medium:
     6:
     0.323061,0.437785,0.146846,0.381800,0.033040,308.000000,288.000000,20.000000,52.000000,0.000000,0.000000,0.323061,0.437785,0.146846,0.381800,0.033040,308.000000,288.000000,20.000000,52.000000,0.000000,0.000000:
// measure 0
0000
0000
0000
0000
,  // measure 1
0000
0000
0000
0000
,  // measure 2
0000
0000
0000
0000
,  // measure 3
0000
0000
0000
0000
,  // measure 4
0000
0000
0000
0000
2000
0000
0000
3020
,  // measure 5
0000
0100
0000
1000
1000
0000
0000
0100
,  // measure 6
0000
1000
0000
1000
2030
0000
0000
3200
,  // measure 7
0000
0010
0000
1000
0000
0010
0000
1000
,  // measure 8
0000
0010
0000
0000
1300
0000
0001
0100
,  // measure 9
0001
0000
0000
0000
0010
0000
0000
0000
0100
0000
1000
0001
0000
1000
0000
0100
,  // measure 10
0000
0010
0100
1000
0001
0000
0100
0001
,  // measure 11
0010
0000
0000
0000
0100
0000
0000
0000
1000
0001
0000
0010
0000
0001
0100
0000
,  // measure 12
0000
0010
0100
0001
1000
0000
0100
0010
,  // measure 13
0001
0000
0000
0000
1000
0000
0000
0000
0010
1000
0000
0001
0000
0100
0001
0000
,  // measure 14
0000
0100
0010
2000
0000
0002
3003
0020
,  // measure 15
0000
0200
0330
2000
0000
0200
3300
0020
,  // measure 16
0000
0002
0033
0000
0101
0000
0001
2000
,  // measure 17
0010
0000
3001
0000
0010
0000
0100
0020
,  // measure 18
0001
0000
0130
0000
1000
0000
0100
0020
,  // measure 19
1000
0000
0100
0000
0031
0000
0001
0200
,  // measure 20
1000
0000
0010
0000
0301
0000
0001
0200
,  // measure 21
1000
0000
0301
0000
0010
0000
0100
2000
,  // measure 22
0010
0000
3001
0000
1000
0000
0001
0020
,  // measure 23
1000
0000
0100
0000
0031
0000
0010
0200
,  // measure 24
0001
0010
1300
0100
,  // measure 25
1000
0001
1000
0001
1000
0000
0001
0010
,  // measure 26
0100
0000
0010
0000
0001
0000
1000
0001
,  // measure 27
0010
0000
0010
0200
1000
0000
0001
0000
,  // measure 28
2300
0000
3002
0000
0000
0203
0000
0000
,  // measure 29
0310
0100
0010
0100
0010
0000
1000
0001
,  // measure 30
0101
0000
0110
0000
1010
2000
0010
0000
,  // measure 31
0001
0000
0010
0000
3001
0000
0010
0100
,  // measure 32
1000
0001
1001
1000
,  // measure 33
0100
0001
0010
1000
,  // measure 34
0002
0000
0103
0001
,  // measure 35
0100
1000
0100
0010
,  // measure 36
2000
0000
3001
0010
,  // measure 37
0100
1000
0010
0100
,  // measure 38
0001
0000
0010
0100
0000
1000
0000
0100
,  // measure 39
0000
0010
0000
0100
0000
1000
0000
0100
,  // measure 40
0000
0010
0000
0000
0011
0000
0001
0000
,  // measure 41
1000
0010
0100
0001
,  // measure 42
0010
0000
0200
0000
1300
0100
1000
0002
,  // measure 43
0000
0203
0000
2300
0000
3020
0000
0032
,  // measure 44
0000
1003
0002
0000
0103
0001
0010
0200
,  // measure 45
0000
2300
0000
3200
0000
0302
0000
0203
,  // measure 46
0000
0000
1300
0100
0010
0100
1000
1100
,  // measure 47
0000
0101
0000
0001
0100
0010
1000
1010
,  // measure 48
0000
0011
0000
0001
0010
0100
1000
1100
,  // measure 49
0000
0101
0000
0100
0001
1000
0010
1010
,  // measure 50
0000
0011
0000
0000
1001
0000
1000
0010
,  // measure 51
1000
0000
0001
0000
0010
0000
0100
0010
,  // measure 52
0100
0000
1000
0000
0001
0000
0100
0001
,  // measure 53
0100
0000
0010
0000
1000
0000
0001
0010
,  // measure 54
0001
0000
1000
0000
0100
0000
0010
0100
,  // measure 55
0010
0000
0001
0000
1000
0000
0010
0100
,  // measure 56
0010
0000
1000
0000
0001
0000
0010
0100
,  // measure 57
0010
0000
0001
0000
1000
0000
0001
0100
,  // measure 58
0101
0000
1100
0000
1010
1000
0001
0020
,  // measure 59
0000
0230
0000
2300
0000
3002
0000
0203
,  // measure 60
0000
0310
0200
0000
1300
0100
0010
0200
,  // measure 61
0000
0302
0000
2003
0000
3200
0000
2300
,  // measure 62
0000
0000
3001
1000
1001
0000
0000
0000
,  // measure 63
0000
0000
0100
0000
,  // measure 64
1000
0001
2002
0000
,  // measure 65
0000
0000
0000
0000
,  // measure 66
0000
3003
0000
0000
;

//---------------dance-single - ----------------
#NOTES:
     dance-single:
     X-Scale 5:
     Easy:
     3:
     0.216074,0.291857,0.014685,0.227611,0.000000,206.000000,204.000000,2.000000,31.000000,0.000000,0.000000,0.216074,0.291857,0.014685,0.227611,0.000000,206.000000,204.000000,2.000000,31.000000,0.000000,0.000000:
0000
0000
0000
0000
,
0000
0000
0000
0000
,
0000
0000
0000
0000
,
0000
0000
0000
0000
,
0000
0000
1000
0000
,
0000
0000
0000
0000
,
0000
0000
0001
0000
,
0000
0000
0000
0000
,
0000
0000
1000
0000
,
0100
0000
0010
0000
,
0001
0000
0100
0000
,
0010
0000
1000
0000
,
0001
0000
0010
0000
,
0100
0000
1000
0000
,
0010
0000
0100
0000
,
0001
0000
2000
0010
,
0000
0010
3010
1000
,
0001
1000
0010
1000
,
0001
0010
0100
0010
,
0001
0010
0100
0010
,
0001
1000
0100
1000
,
0001
0100
0010
0100
,
0001
0010
0100
1000
,
0010
0100
0001
1000
,
0100
0010
0001
1000
,
0010
1000
0001
0010
,
0100
1000
0010
1000
,
0100
0010
0001
0100
,
0001
1000
0001
0100
,
0001
0010
0100
1000
,
0010
0100
0010
1000
,
0100
0010
0001
1000
,
0010
1000
0002
0000
,
1003
0100
2000
0000
,
3002
0000
0023
0000
,
0130
0010
0200
0000
,
2300
0000
3020
0000
,
0230
0000
0301
0100
,
0001
1000
0100
0010
,
0100
0010
0001
0100
,
0001
0000
0100
0000
0010
0000
1000
0002
,
0000
0000
0013
0000
0100
0000
1000
0002
,
0000
0000
0103
0000
1001
0000
1000
0100
,
0000
1000
0000
0001
0000
0100
0000
0001
,
0000
0010
0000
0000
0100
0000
0010
0001
,
0000
1000
0000
0010
0000
1000
0000
0001
,
0000
0000
0010
0000
0100
0000
0000
1000
,
0000
0010
0000
1000
0001
0000
0000
0100
,
0000
0010
0000
0100
0001
0000
0000
0010
,
0000
0100
0000
0010
0001
0000
0100
0000
,
0002
0000
2003
0000
3100
0020
0001
0000
,
0100
0001
0130
1000
,
0002
0000
2003
0000
3200
0000
0310
0002
,
1000
0000
0010
0000
1003
0000
0001
0010
,
0200
0000
2300
0000
0000
3020
1000
0000
,
0000
1030
0001
0100
,
0001
0000
1000
0200
0000
0000
0310
0100
,
1000
0000
0001
0000
1000
0000
0010
1000
,
0002
0000
0203
0000
0301
0020
0100
0000
,
0001
0000
0100
0000
0031
0000
0010
0100
,
2000
0000
3002
0000
1003
0010
2000
0000
,
3002
0100
1000
0103
,
0001
1000
1002
0000
,
0000
0000
0000
0000
,
0000
0000
0200
0000
,
0000
0000
0000
0000
,
0000
0303
0000
0000
;

//---------------dance-single - ----------------
#NOTES:
     dance-single:
     X-Scale 1:
     Beginner:
     1:
     0.094401,0.137668,0.007342,0.000000,0.000000,90.000000,89.000000,1.000000,0.000000,0.000000,0.000000,0.094401,0.137668,0.007342,0.000000,0.000000,90.000000,89.000000,1.000000,0.000000,0.000000,0.000000:
0000
0000
0000
0000
,
0000
0000
0000
0000
,
0000
0000
0000
0000
,
0000
0000
0000
0000
,
0000
0000
1000
0000
,
0000
0000
0000
0000
,
0000
0000
0001
0000
,
0000
0000
0000
0000
,
0000
0000
0100
0000
,
0000
0000
0001
0000
,
0000
0000
1000
0000
,
0000
0000
0001
0000
,
0000
0000
0010
0000
,
0000
0000
0001
0000
,
0000
0000
1000
0000
,
0000
0000
0001
0000
,
0000
0000
0000
0001
,
0000
0100
0000
0001
,
0000
1000
0000
0100
,
0000
0010
0000
0001
,
0000
1000
0000
0001
,
0000
0100
0000
0001
,
0000
0010
0000
0100
,
0000
1000
0000
0001
,
0000
1000
0000
0100
,
0000
0010
0000
0001
,
0000
1000
0000
0001
,
0000
0100
0000
0001
,
0000
0010
0000
0100
,
0000
1000
0000
0001
,
0000
0100
0000
0001
,
0000
1000
0000
0001
,
0000
1000
1000
0000
,
0000
0000
0000
0000
,
0000
0000
0100
0000
,
0000
0000
0000
0000
,
0000
0000
0010
0000
,
0000
0000
0000
0000
,
0000
0000
0001
0000
,
0000
0000
0000
0000
,
0000
0000
1000
0000
,
0000
0000
0001
0000
,
0000
0000
0000
0001
,
0000
1000
0000
0010
,
0000
1000
0000
0001
,
0000
0010
0000
0100
,
0000
1000
0000
0010
,
0000
1000
0000
0100
,
0000
0010
0000
0001
,
0000
1000
0000
0010
,
0000
1000
0000
0001
,
0000
0100
0000
0001
,
0000
0010
0000
0100
,
0000
1000
0000
0001
,
0000
1000
0000
0010
,
0000
1000
0000
0001
,
0000
0010
0000
0001
,
0000
1000
0000
0100
,
0000
0010
0000
0001
,
0000
1000
0000
0001
,
0000
0010
0000
0100
,
0000
1000
0000
0001
,
0000
1000
1001
0000
;

//---------------dance-single - Summer Contest Chart----------------
#NOTES:
     dance-single:
     X-Scale 11 (SC Version):
     Edit:
     8:
     0.438441,0.535071,0.176215,0.323061,0.117477,418.000000,394.000000,24.000000,44.000000,0.000000,0.000000,0.438441,0.535071,0.176215,0.323061,0.117477,418.000000,394.000000,24.000000,44.000000,0.000000,0.000000:
// measure 0
0000
0000
0000
0000
,  // measure 1
0000
0000
0000
0000
,  // measure 2
0000
0000
0000
0000
,  // measure 3
0000
0000
0000
0000
,  // measure 4
0000
0000
0000
0000
0000
0000
0000
0000
0002
0000
0000
0000
0000
0000
0000
1000
,  // measure 5
0000
0000
1000
0000
1000
0000
0010
0000
0023
0000
0000
0000
0000
0000
0000
1000
,  // measure 6
0000
0100
0100
0001
0032
0000
1003
0200
,  // measure 7
0000
2000
3300
2000
0000
0002
3003
0002
,  // measure 8
0000
0000
0013
0000
0010
0100
1000
0000
1100
0000
0000
0000
1000
0000
0001
0000
,  // measure 9
0100
0000
0101
0000
0001
0000
0010
0100
,  // measure 10
1000
0000
0000
0000
1100
0000
1000
0010
1000
0000
0000
0000
1000
0000
0001
0000
,  // measure 11
0010
0000
0101
0000
0001
0000
0010
0100
,  // measure 12
1000
0000
0000
0000
1001
0000
0001
0100
0001
0000
0000
0000
1000
0000
0100
0000
,  // measure 13
0010
0000
0011
0000
0001
0000
0010
0100
,  // measure 14
1000
0000
1001
0002
0000
0103
0010
0200
,  // measure 15
0000
1300
0100
0002
0000
0013
0100
1000
,  // measure 16
1100
0000
0101
0000
1001
2000
0001
0000
,  // measure 17
0100
0000
3001
1000
0100
0000
0100
0001
,  // measure 18
1000
0000
1001
0000
0001
0000
0010
0200
,  // measure 19
1000
0000
0301
0100
1000
0000
0010
1000
,  // measure 20
0001
0000
0000
0000
0100
0000
0010
0100
0010
0000
0000
0000
1000
0000
0200
0000
,  // measure 21
0010
0000
1300
0100
0001
0100
0010
0002
,  // measure 22
0100
0000
1003
0020
0001
0000
1030
0001
,  // measure 23
0100
0000
0100
1000
0001
1000
0010
0100
,  // measure 24
0001
0000
0000
0000
1000
0010
1000
0010
1000
0000
0001
0000
1000
0000
0000
0000
,  // measure 25
0001
0100
0001
1000
0200
0000
0001
0000
,  // measure 26
1300
0010
1000
0000
0100
1000
0010
0000
,  // measure 27
1001
0000
1000
0002
0100
0000
1003
0001
,  // measure 28
0010
0000
0010
1000
0001
0000
0100
0010
,  // measure 29
1000
0100
0001
0100
2000
0000
0010
0000
,  // measure 30
3001
0000
0010
0000
0100
1000
0001
0200
,  // measure 31
1000
0000
0301
0000
0100
0010
1000
0002
,  // measure 32
0100
0010
2003
0100
,  // measure 33
0010
0000
0000
0000
3001
0000
1000
0000
0010
0000
0100
0000
0001
0010
0000
0001
,  // measure 34
0000
1000
0001
0010
0200
0000
0001
0000
,  // measure 35
0010
0000
0000
0000
1300
0000
0100
0000
1000
0000
0001
0000
0100
0000
0010
0100
,  // measure 36
0000
0001
0010
0100
2000
0000
0010
0000
,  // measure 37
0001
0000
0000
0000
3100
0000
0000
0000
1000
0010
0000
0100
0000
0001
0010
0000
,  // measure 38
0000
0000
0100
0000
0010
0001
0000
1000
0001
0000
0010
0000
0100
0000
1000
0100
,  // measure 39
1000
0000
0001
0100
0001
0000
0010
0000
1000
0000
0010
0000
0100
0000
0010
0000
,  // measure 40
0001
0100
0001
0000
1000
0100
1000
0000
2100
0000
0000
0000
3001
0000
0020
0000
,  // measure 41
1000
0000
0230
0000
2300
0000
3010
0200
,  // measure 42
0001
0000
0000
0000
0310
0100
0010
0100
0010
0000
1000
0000
0100
0000
1100
0000
,  // measure 43
0000
0101
0001
0011
0000
1010
1000
1001
,  // measure 44
0000
0001
0200
0000
0310
0100
0010
0110
,  // measure 45
0000
1001
0001
0011
0000
1100
1000
1020
,  // measure 46
0000
0000
1030
0000
0010
0000
1000
0001
1000
0000
0001
0000
0010
0000
0200
0000
,  // measure 47
1000
0000
2300
0000
0000
0000
3001
1000
0001
0000
1000
0000
0100
0000
0020
0000
,  // measure 48
0001
0000
0032
0000
0000
0000
0103
0001
0100
0000
0010
0000
0001
0000
0020
0000
,  // measure 49
1000
0000
2030
0000
0000
0000
3001
1000
0001
0000
0010
0000
1000
0000
0010
0000
,  // measure 50
0001
0000
0000
0000
1000
0001
0100
0001
1000
0000
0000
0000
0100
0000
1000
0000
,  // measure 51
0001
0100
1000
0100
0002
0000
0010
0000
,  // measure 52
1003
0001
0100
0010
0001
1000
0100
0010
,  // measure 53
1000
0001
1000
0020
0100
0000
1030
0001
,  // measure 54
0100
0000
0100
1000
0010
0000
1000
0000
,  // measure 55
0010
0100
1000
0100
0002
0000
0010
0000
,  // measure 56
1003
0000
0000
0000
0100
0000
0010
0000
0001
0000
1000
0000
0010
0000
0100
0010
,  // measure 57
0100
0000
0001
0000
0010
0000
1000
0000
0010
0000
0100
0000
1000
0000
0001
0100
,  // measure 58
0001
0010
0100
0000
1010
0010
1000
0100
,  // measure 59
0010
1000
0010
0001
0200
0000
0010
0000
,  // measure 60
0301
0000
0100
0000
0001
0000
0010
0100
0010
0000
0001
0000
1000
0000
0100
0000
,  // measure 61
1000
0001
0010
0200
0001
0000
1300
0100
,  // measure 62
1000
0000
0001
0000
0100
0000
0001
1000
0001
0000
0000
0000
0001
0000
1000
0000
,  // measure 63
0000
0000
0010
0000
0100
0000
0001
1000
,  // measure 64
0100
0000
1000
0000
0002
0200
0000
0000
,  // measure 65
0000
0000
0300
0000
,  // measure 66
0000
0003
0000
0000
;
