#TITLE:All The Way;
#SUBTITLE:;
#ARTIST:Hellberg;
#TITLETRANSLIT:;
#SUBTITLETRANSLIT:;
#ARTISTTRANSLIT:;
#GENRE:Commercial House;
#CREDIT:;
#BANNER:all the way-bn.png;
#BACKGROUND:all the way-bg.png;
#LYRICSPATH:;
#CDTITLE:cdtitle.png;
#MUSIC:all the way.ogg;
#OFFSET:-0.100000;
#SAMPLESTART:49.042999;
#SAMPLELENGTH:12.000000;
#SELECTABLE:YES;
#BPMS:0.000000=65.000000
,17.000000=130.000000
,81.000000=65.000000
,85.000000=130.000000
,113.000000=65.000000
,115.000000=130.000000
,143.000000=65.000000
;
#STOPS:
;
#BGCHANGES:;
#KEYSOUNDS:;
#ATTACKS:;

//---------------dance-single - ----------------
#NOTES:
     dance-single:
     :
     Medium:
     6:
     0.332133,0.375477,0.127871,0.081373,0.092997,200.000000,189.000000,11.000000,7.000000,0.000000,0.000000,0.332133,0.375477,0.127871,0.081373,0.092997,200.000000,189.000000,11.000000,7.000000,0.000000,0.000000:
// measure 0
0000
0000
0000
0000
1100
0000
0000
0100
0100
0000
0010
0000
0000
0000
0000
0100
,  // measure 1
0100
0000
1000
0000
1010
0000
0000
0010
0010
0000
0100
0000
0000
0000
0000
0010
,  // measure 2
0000
1000
0000
0000
0110
0000
0000
0010
0010
0000
0100
0000
0000
0000
0000
0010
,  // measure 3
0010
0000
1000
0000
1001
0000
0000
0100
0100
0000
0001
0000
2000
0000
0000
0000
,  // measure 4
3020
0130
0010
0100
,  // measure 5
0001
1000
0100
0010
,  // measure 6
0100
1000
0100
0010
,  // measure 7
0001
0010
1000
0100
,  // measure 8
0010
0100
0010
1000
,  // measure 9
0001
0010
1000
0100
,  // measure 10
0010
0100
0001
0010
,  // measure 11
0001
1000
0100
0010
,  // measure 12
0100
1000
1100
0000
0010
1000
0100
0000
,  // measure 13
1000
0000
0001
0000
0100
0010
0100
0000
,  // measure 14
0001
0010
0100
0000
0010
0000
0001
0000
,  // measure 15
0100
0010
1000
0010
,  // measure 16
0100
0001
0010
0001
,  // measure 17
0100
0001
1000
0001
,  // measure 18
0010
1000
0100
0010
,  // measure 19
0100
0000
1000
0000
0001
0010
0100
0010
,  // measure 20
0001
0000
1001
1000
0010
0100
0220
0000
,  // measure 21
0000
0330
1010
0000
1000
0100
1000
0000
,  // measure 22
0010
0000
0100
0000
0001
0010
0001
0000
,  // measure 23
0100
0010
0100
0000
0001
1000
0001
0000
,  // measure 24
0001
0000
0000
0010
0000
0000
0100
0000
0000
0010
0000
0000
0001
0000
0000
0010
,  // measure 25
0000
0100
0110
0000
0100
1000
0001
0000
,  // measure 26
0100
0000
0010
0000
1000
0100
0010
0000
,  // measure 27
0010
0100
0010
0000
0001
1000
0001
0000
,  // measure 28
0100
0000
0200
0000
0301
0100
0100
0000
,  // measure 29
0100
0010
1000
0000
0010
0000
0100
0000
,  // measure 30
0001
0010
0002
0000
0103
0000
0101
0000
,  // measure 31
0100
0000
0010
0000
0100
0000
0000
0000
0100
0000
0000
0001
0000
0000
0100
0000
,  // measure 32
0000
1000
0000
0000
0100
0000
0000
0001
0000
0000
0010
0000
0011
0000
0000
0000
,  // measure 33
0010
0100
0010
0000
0100
0000
1000
0000
,  // measure 34
0010
1000
0010
0000
0100
0000
0001
0000
,  // measure 35
1000
0000
0001
0000
0100
0000
0000
0000
0010
0000
0000
0000
0200
0000
0000
0010
,  // measure 36
0000
0010
0000
0000
0310
0000
0000
0000
1000
0000
0000
0000
0100
0000
0000
0000
,  // measure 37
0001
0010
0100
1000
,  // measure 38
0100
0000
0000
0000
;

//---------------dance-single - ----------------
#NOTES:
     dance-single:
     :
     Hard:
     8:
     0.430113,0.465350,0.185995,0.034874,0.290617,259.000000,243.000000,16.000000,3.000000,0.000000,0.000000,0.430113,0.465350,0.185995,0.034874,0.290617,259.000000,243.000000,16.000000,3.000000,0.000000,0.000000:
// measure 0
0000
0000
0000
0000
1100
0000
0000
1000
0100
0000
0010
0000
0000
0000
0000
0010
,  // measure 1
0001
0000
0100
0001
0101
0000
0000
0010
1000
0000
0100
0000
0010
0000
0000
0010
,  // measure 2
0100
0010
0000
0000
0110
0000
0000
0010
0001
0000
0100
0000
0000
0000
0000
0010
,  // measure 3
1000
0000
0001
1000
1001
0000
0000
0010
0100
0000
0001
0000
0010
0000
0000
0001
,  // measure 4
0010
0100
0000
0000
1100
0000
0000
0000
0100
0000
0010
0000
0100
0000
0000
0000
,  // measure 5
0100
0000
1000
0000
0100
1000
0010
0000
,  // measure 6
0100
0010
1000
0000
0001
0100
0010
0000
,  // measure 7
0010
0000
0010
0000
1000
0100
0001
0100
,  // measure 8
1000
0100
0010
0000
0100
0010
0001
0000
,  // measure 9
0010
0000
0100
0000
0010
0001
1000
0000
,  // measure 10
0100
1000
0010
0000
1000
0100
0010
0000
,  // measure 11
0001
0000
1000
0000
0001
0010
1000
0010
,  // measure 12
0001
0000
0001
0000
0101
0000
0000
0001
1000
0000
0001
0000
1000
0000
0000
0000
,  // measure 13
0100
0000
0000
0010
0000
0000
0001
0000
0000
0010
0000
0000
0100
0000
0000
0000
,  // measure 14
1000
0100
1000
0000
0001
0000
0000
0001
0010
0000
0001
0000
1000
0000
0000
0000
,  // measure 15
0100
0000
0000
0001
0000
0000
0100
0000
0000
1000
0000
0000
0001
0000
0000
0000
,  // measure 16
1000
0000
0001
1000
0001
0000
0000
0100
0010
0000
1000
0000
0001
0000
0000
0000
,  // measure 17
0010
0000
0000
1000
0000
0000
0010
0000
0000
0001
0000
0000
0100
0000
0000
0000
,  // measure 18
0010
0000
0100
0010
0100
0000
0000
0001
1000
0000
0010
0000
1000
0000
0000
0000
,  // measure 19
0010
0000
0000
0100
0000
0000
0010
0000
0000
0001
0000
0000
0010
0000
0100
0000
,  // measure 20
0001
0000
0000
0000
1001
1000
0001
0001
0100
0100
0001
0001
4004
0000
0000
0000
,  // measure 21
0000
0003
3001
0000
1010
0000
0000
0010
1000
0000
0100
0000
0100
0000
0000
0000
,  // measure 22
1000
0000
0000
0001
0000
0000
1000
0000
0001
0000
0010
0000
0100
0000
0000
0000
,  // measure 23
0100
0010
0110
0000
1000
0010
0010
0000
,  // measure 24
0100
0000
0000
0001
0000
0000
0100
0000
0000
1000
0000
0000
0100
0000
0000
0001
,  // measure 25
0000
0000
0100
0000
0101
0000
0000
0001
0100
0000
0001
0000
1000
0000
0000
0000
,  // measure 26
0100
0000
0000
1000
0000
0000
0001
0000
1000
0000
0010
0000
0100
0000
0000
0000
,  // measure 27
0100
0000
0001
0000
0011
0000
0000
0000
0010
0000
0100
0000
1000
0000
0000
0001
,  // measure 28
0000
0000
0010
0000
0020
0000
0000
0130
0000
0100
0010
0100
0110
0000
0000
0000
,  // measure 29
0100
0000
0010
0000
0001
0000
0000
0000
0010
0000
0000
0001
0000
0000
1000
0000
,  // measure 30
0000
0001
0000
0000
0004
0000
0000
0000
0103
0000
0000
0000
0101
0000
0000
0000
,  // measure 31
0100
0000
0010
0000
0100
0000
0000
0000
0100
0000
0000
1000
0000
0000
0100
0000
,  // measure 32
0000
0010
0000
0000
0100
0000
0000
0001
0000
0000
0010
0000
0011
0000
0000
0000
,  // measure 33
0010
0000
0100
0000
0010
0000
0000
0000
0100
0000
0000
1000
0000
0000
0001
0000
,  // measure 34
1000
0001
0010
0000
0100
0010
0011
0000
,  // measure 35
0100
0000
0001
0000
0010
0000
0000
0000
0010
0000
0000
0000
0200
0000
0000
0010
,  // measure 36
0000
0020
0000
0000
0330
0000
1000
0000
0001
0000
0100
0000
0001
0000
0010
0000
,  // measure 37
1000
0010
0001
0010
0100
1000
0100
0010
,  // measure 38
0100
0010
0000
0000
0000
0000
0000
0000
;

//---------------dance-single - ----------------
#NOTES:
     dance-single:
     :
     Easy:
     4:
     0.205923,0.222322,0.116247,0.139496,0.000000,124.000000,114.000000,10.000000,12.000000,0.000000,0.000000,0.205923,0.222322,0.116247,0.139496,0.000000,124.000000,114.000000,10.000000,12.000000,0.000000,0.000000:
// measure 0
0000
0000
1001
0000
0000
0010
0000
0000
,  // measure 1
1000
0000
1010
0000
0000
0100
0002
0000
,  // measure 2
2003
0000
3001
0000
0000
0100
0000
0000
,  // measure 3
0010
0000
0110
0000
0000
0001
0020
0000
,  // measure 4
0230
1300
0000
0010
,  // measure 5
0100
0010
0000
0001
,  // measure 6
1000
0001
0000
0010
,  // measure 7
0001
0100
0000
1000
,  // measure 8
0100
0010
0000
0010
,  // measure 9
0001
0100
0000
0001
,  // measure 10
1000
0100
0000
0010
,  // measure 11
0100
1000
0000
0010
,  // measure 12
0100
0010
0110
0000
0000
0000
0010
0000
,  // measure 13
1000
0001
0000
0100
,  // measure 14
0010
0001
0000
0010
,  // measure 15
0100
1000
0000
0010
,  // measure 16
0100
0001
0000
0010
,  // measure 17
0100
1000
0000
0100
,  // measure 18
0010
0001
0000
1000
,  // measure 19
0010
0100
0000
0001
,  // measure 20
1000
1001
0010
0200
,  // measure 21
0000
0300
0110
0000
0000
0000
0100
0000
,  // measure 22
0010
1000
0000
0010
,  // measure 23
0100
0001
0000
0010
,  // measure 24
0100
0000
1000
0000
0000
1000
0000
1000
,  // measure 25
0000
1100
0000
0100
,  // measure 26
1000
0001
0000
0010
,  // measure 27
0100
0010
0000
0100
,  // measure 28
0000
0000
0020
0000
0100
0130
0110
0000
,  // measure 29
0000
1000
0100
0010
,  // measure 30
0000
0002
1003
1001
,  // measure 31
0000
0100
0010
0000
,  // measure 32
0000
0001
0000
0001
0000
0000
1001
0000
,  // measure 33
0000
0010
0100
0001
,  // measure 34
0000
1000
0010
1000
,  // measure 35
0000
0001
1000
0002
,  // measure 36
0000
0023
0000
0230
,  // measure 37
0000
0320
0000
0032
,  // measure 38
0000
0003
0000
0000
;
