#TITLE:All I Want;
#SUBTITLE:;
#ARTIST:longstoryshort;
#TITLETRANSLIT:;
#SUBTITLETRANSLIT:;
#ARTISTTRANSLIT:;
#GENRE:Future Garage;
#CREDIT:;
#BANNER:All I Want-bn.png;
#BACKGROUND:All I Want-bg.png;
#LYRICSPATH:;
#CDTITLE:cdtitle.png;
#MUSIC:All I Want.ogg;
#OFFSET:-0.003000;
#SAMPLESTART:42.355999;
#SAMPLELENGTH:14.118000;
#SELECTABLE:YES;
#BPMS:0.000000=68.000000
,32.000000=136.000000
,60.000000=68.000000
,62.000000=136.000000
,126.000000=68.000000
;
#STOPS:
;
#BGCHANGES:;
#KEYSOUNDS:;
#ATTACKS:;

//---------------dance-single - ----------------
#NOTES:
     dance-single:
     X-Scale 1:
     Beginner:
     1:
     0.085610,0.093977,0.000000,0.000000,0.000000,55.000000,55.000000,0.000000,0.000000,0.000000,0.000000,0.085610,0.093977,0.000000,0.000000,0.000000,55.000000,55.000000,0.000000,0.000000,0.000000,0.000000:
0000
0000
0000
0000
,
0000
0000
0000
0000
,
0000
0000
0000
0000
,
0000
0000
0000
0000
,
1000
0000
0000
0000
,
0100
0000
0000
0000
,
0010
0000
0000
0000
,
0001
0000
0000
0000
,
1000
0000
0001
0000
,
1000
0000
0001
0000
,
0010
0000
0100
0000
,
0010
0000
0100
0000
,
1000
0000
0001
0000
,
1000
0000
0010
0000
,
1000
0000
0001
0000
,
1000
0000
0010
0000
,
1000
0000
0001
0000
,
1000
0000
0010
0000
,
1000
0000
0001
0000
,
0010
0000
0001
0000
,
1000
0000
0010
0000
,
1000
0000
0100
0000
,
0010
0000
0100
0000
,
1000
0000
0001
0000
,
0010
0000
0001
0000
,
1000
0000
0001
0000
,
0100
0000
0001
0000
,
0010
0000
0100
0000
,
1000
0000
0100
0000
,
0010
0000
0001
0000
,
1000
0000
0001
0000
,
0010
0000
0001
0000
,
0000
0000
0100
0000
,
0000
0000
0010
0000
,
0000
0000
1000
0000
;

//---------------dance-single - ----------------
#NOTES:
     dance-single:
     X-Scale 5:
     Easy:
     3:
     0.197682,0.289081,0.010896,0.000000,0.000000,127.000000,126.000000,1.000000,0.000000,0.000000,0.000000,0.197682,0.289081,0.010896,0.000000,0.000000,127.000000,126.000000,1.000000,0.000000,0.000000,0.000000:
// measure 0
0000
0000
0000
0000
,  // measure 1
0000
0000
0000
0000
,  // measure 2
0000
0000
0000
0000
,  // measure 3
0000
0000
0000
0000
,  // measure 4
0001
0000
0100
0010
0100
0000
0001
0000
,  // measure 5
1000
0000
0100
0010
0100
0000
1000
0000
,  // measure 6
0010
0000
0100
0010
0100
0000
0001
0000
,  // measure 7
0100
0000
0010
0100
0010
0000
1000
0000
,  // measure 8
0001
0010
0100
1000
,  // measure 9
0000
0100
1000
0001
,  // measure 10
0100
0010
1000
0001
,  // measure 11
0000
0100
0001
1000
,  // measure 12
0010
1000
0001
0010
,  // measure 13
0000
0100
1000
0001
,  // measure 14
0100
0010
0100
0001
,  // measure 15
1000
0000
1001
0000
,  // measure 16
1000
0010
1000
0000
,  // measure 17
0001
0000
0100
0000
,  // measure 18
0010
0100
0010
0000
,  // measure 19
1000
0000
0100
0000
,  // measure 20
0010
0001
0010
0000
,  // measure 21
0100
0000
1000
0000
,  // measure 22
0001
0100
0001
0000
,  // measure 23
1000
0000
0010
0100
,  // measure 24
0010
1000
0001
1000
,  // measure 25
0100
1000
0001
0100
,  // measure 26
0001
1000
0010
0100
,  // measure 27
0010
1000
0001
0010
,  // measure 28
0100
0010
0001
1000
,  // measure 29
0100
0010
0100
1000
,  // measure 30
0001
0100
0001
1000
,  // measure 31
0100
0000
0010
0000
0001
0010
0100
1000
,  // measure 32
0000
1000
0010
0100
0001
0010
0100
1000
,  // measure 33
0000
0001
0100
0001
1000
0010
0100
0001
,  // measure 34
0000
0001
0100
0010
1000
0100
0010
0001
,  // measure 35
0000
1000
0001
1000
0000
0000
0000
0000
;

//---------------dance-single - ----------------
#NOTES:
     dance-single:
     X-Scale 8:
     Medium:
     6:
     0.326876,0.367463,0.010896,0.174334,0.114407,210.000000,209.000000,1.000000,16.000000,0.000000,0.000000,0.326876,0.367463,0.010896,0.174334,0.114407,210.000000,209.000000,1.000000,16.000000,0.000000,0.000000:
0000
0000
0000
0000
,
0000
0000
0000
0000
,
0000
0000
0000
0000
,
0000
0000
0000
0000
,
1000
0100
0010
0002
0000
1003
0020
0000
,
0031
0010
1000
0002
0000
0103
0001
1000
,
0010
0000
0100
0000
1000
0000
0100
0000
0001
0000
1000
0000
0100
0000
0010
0100
,
0020
0000
0000
0000
0031
0000
0000
1000
0020
0000
0000
0130
0002
0000
0000
0000
,
0013
0100
1000
0000
0001
0000
1000
0000
,
0100
0010
0001
0000
0100
0000
0001
0000
,
0010
0100
1000
0000
0001
0000
0100
0000
,
0001
0010
0100
0000
0010
0000
0001
0000
,
1000
0010
0001
0000
0010
0000
1000
0000
,
0100
0010
0001
0000
1000
0000
0010
0000
,
0001
0010
1000
0000
0001
0000
0100
0000
,
0001
0001
0001
0001
1002
0000
1003
0100
,
1000
0000
0000
0000
0001
0000
0010
0000
0100
0000
0000
0100
0000
0000
0100
0010
,
0000
0001
1000
0010
0002
0000
1003
0100
,
0001
0000
0000
0000
0001
0000
0100
0000
0001
0000
0000
0001
0000
0000
0001
0010
,
0000
0000
0001
1000
0200
0000
0301
0100
,
1000
0000
0000
0000
0001
0000
1000
0000
0010
0000
0000
0010
0000
0000
0010
0100
,
0000
0010
1000
0001
0200
0000
1300
0100
,
0001
0000
0000
0000
1000
0000
0100
0000
0010
0000
0000
0010
0000
0000
0010
0001
,
0000
1000
0001
0100
0001
0010
1000
0001
,
0100
0000
1000
0000
0020
0000
0000
0000
0001
0000
0000
1000
0030
0000
0100
0010
,
0000
0100
0001
0100
1000
0001
1000
0010
,
0100
0000
0001
0000
0020
0000
0000
0000
0100
0000
0000
0001
0030
0000
0010
0100
,
0000
0100
1000
0001
1000
0100
0001
1000
,
0100
0000
0010
0000
0002
0000
0000
0000
0100
0000
0000
1000
0003
0000
0001
0100
,
0000
0010
0100
0010
1000
0010
0001
0010
,
0100
0000
0010
0000
2000
0000
0000
0000
0100
0000
0000
0001
3000
0000
1000
0000
,
0100
0001
1000
0010
0001
0010
1000
0010
,
0100
0000
1000
0000
0100
0010
0001
0000
1000
0000
0001
0000
0010
0000
0001
0000
,
1000
0000
0100
0000
0010
0100
1000
0000
0001
0000
0100
0000
0001
0000
1000
0000
,
0010
0000
0100
0000
1000
0100
0001
0000
1000
0000
0100
0000
0001
0000
0100
0000
,
0010
0100
2000
0002
3003
0000
0000
0000
;

//---------------dance-single - ----------------
#NOTES:
     dance-single:
     X-Scale 12:
     Hard:
     8:
     0.426495,0.483504,0.054479,0.163438,0.305084,274.000000,269.000000,5.000000,15.000000,0.000000,0.000000,0.426495,0.483504,0.054479,0.163438,0.305084,274.000000,269.000000,5.000000,15.000000,0.000000,0.000000:
0000
0000
0000
0000
,
0000
0000
0000
0000
,
0000
0000
0000
0000
,
0000
0000
0000
0000
,
0001
0000
1000
0010
2000
0000
3100
0020
0000
0000
1030
0010
0002
0000
0003
0000
,
0010
0000
0100
1000
0002
0000
0103
0020
0000
0000
0031
0010
2000
0000
3001
0000
,
1000
0000
0100
0010
0002
0000
1003
0200
0000
0000
0301
0100
2000
0000
3001
0100
,
0002
0000
0010
0000
1003
0000
0001
0010
0200
0000
1300
0100
0020
0000
0031
0000
,
0001
0000
1000
0000
0001
0000
0100
0010
0000
0010
0001
0010
1000
0000
0001
0000
,
0100
0000
0001
0000
1000
0000
0010
0100
0000
0001
1000
0000
0001
0000
0100
0000
,
0001
0000
0000
0000
1000
0000
0001
0100
0000
0100
1000
0100
0010
0000
1000
0000
,
0001
0000
0100
0000
0010
0000
0100
0001
0000
1000
0001
0000
0100
0000
0001
0000
,
0010
0000
0100
0000
1000
0000
0001
0010
0000
0010
1000
0010
0001
0000
0010
0000
,
0100
0000
0010
0000
0001
0000
1000
0100
0000
0100
0010
0000
0100
0000
1000
0000
,
0100
0000
1000
0000
0001
0000
0010
0100
0000
0100
1000
0001
0100
0000
0001
0000
,
1000
0000
1000
0100
0020
0000
0031
1000
1001
0000
0001
0000
0100
0000
0001
0000
,
1000
0000
0000
0000
0001
0000
0100
0000
0010
0000
0000
1001
0000
0000
1000
0000
,
0001
0000
0010
0100
1000
0001
0100
0010
,
0001
0000
0000
0000
0001
0000
0010
0000
1000
0000
0000
1100
0000
0000
0001
0000
,
1000
0000
0010
0100
1000
0001
0010
0100
,
0001
0000
0000
0000
1000
0000
0001
0000
0010
0000
0000
0110
0000
0000
0100
0000
,
1000
0000
0001
0100
0010
0001
0010
1000
,
0001
0000
0000
0000
0100
0000
0001
0000
1000
0000
0000
0101
0000
0000
0001
0000
,
1000
0000
0010
1000
0001
0010
1000
0010
,
0100
0000
0010
0000
0001
0000
0000
0000
0001
0000
0000
0001
0010
0000
0001
0000
,
1000
0000
0100
0010
0001
0100
1000
0100
,
0001
0000
0010
0000
0100
0000
0000
0000
1000
0000
0000
1000
0010
0000
1000
0000
,
0001
0000
0100
0001
0010
1000
0001
0100
,
0010
0000
0001
0000
1000
0000
0000
0000
0010
0000
0000
0010
0100
0000
0010
0000
,
0001
0000
0001
0010
1000
0100
0001
0100
,
1000
0000
0000
0000
0010
0000
1000
0000
0001
0000
0000
0010
0100
0000
0010
0000
,
0001
0000
0100
0000
0010
0000
1000
0000
0100
0000
1000
0100
0001
0100
1000
0000
,
0010
0000
0001
0010
0100
0010
1000
0000
0100
0000
0010
0100
1000
0001
0100
0000
,
0001
0000
1000
0001
0100
0010
0100
0000
0001
0000
0010
0001
1000
0010
0100
0000
,
1000
0000
0100
0010
0100
0001
1000
0000
0001
0000
0100
0010
1000
0001
0010
0000
,
0100
0000
0100
0010
0001
2000
0200
0000
3300
0000
0000
0000
0000
0000
0000
0000
;
