#TITLE:All I Ever Wanted;
#SUBTITLE:;
#ARTIST:Basshunter;
#TITLETRANSLIT:;
#SUBTITLETRANSLIT:;
#ARTISTTRANSLIT:;
#GENRE:Hands Up;
#CREDIT:;
#BANNER:All I Ever Wanted-bn.png;
#BACKGROUND:All I Ever Wanted-bg.png;
#LYRICSPATH:;
#CDTITLE:cdtitle.png;
#MUSIC:All I Ever Wanted.ogg;
#OFFSET:-0.210000;
#SAMPLESTART:39.106998;
#SAMPLELENGTH:13.241000;
#SELECTABLE:YES;
#DISPLAYBPM:72.500000:145.000000;
#BPMS:0.000000=72.500000
,19.000000=36.250000
,20.000000=145.000000
,68.000000=72.500000
,70.000000=145.000000
,102.000000=72.500000
,140.000000=145.000000
,188.000000=72.500000
,190.000000=145.000000
;
#STOPS:
;
#BGCHANGES:-0.510=All I Ever Wanted.avi=1.000=1=0=0=StretchNoLoop==CrossFade==,
99999=-nosongbg-=1.000=0=0=0 // don't automatically add -songbackground-
;
#KEYSOUNDS:;
#ATTACKS:;

//---------------dance-single - ----------------
#NOTES:
     dance-single:
     X-Scale 14:
     Hard:
     9:
     0.580988,0.637361,0.178439,0.118959,0.527881,547.000000,523.000000,24.000000,16.000000,0.000000,0.000000,0.580988,0.637361,0.178439,0.118959,0.527881,547.000000,523.000000,24.000000,16.000000,0.000000,0.000000:
0000
0000
0000
0000
,
0000
0000
0000
0000
,
0000
0000
0000
0000
0000
0000
0000
0000
0000
0000
0000
0000
0000
0000
1000
0000
0001
0000
0100
0000
0020
0000
0000
0000
0031
0000
0000
0010
0000
0000
1000
0000
,
0100
0000
0001
0000
0100
0000
0010
0000
0001
0000
0000
1000
0000
0000
0000
0000
0010
0000
0000
1000
0000
0000
0000
0000
0100
0000
0010
0000
0000
0000
0100
0000
,
0000
1000
0000
0001
1000
0100
0000
1000
0000
0001
0000
1000
2002
0000
0000
3003
,
0110
0000
0000
0010
0100
0000
0001
0000
2000
0000
0000
0000
3100
0000
0010
0000
,
0001
0000
0000
0100
0001
0000
1000
0000
0010
0000
0001
0000
1000
0000
0100
0000
,
0001
0000
0000
0100
0010
0000
0100
0000
0002
0000
0000
0000
0013
0000
0100
0000
,
1000
0001
0000
0100
0001
1000
0100
1000
,
0001
0000
1001
1000
0100
0001
0100
1000
,
0010
0000
0000
0100
0001
0000
1000
0000
0001
0000
0010
0000
0100
0000
1000
0000
,
1100
0000
1000
0001
1001
0000
0001
0010
,
0011
0000
0010
0100
0110
0000
0010
0001
,
0011
0000
0001
0000
1000
0000
0100
0000
0000
0000
1000
0000
0000
0000
0001
1000
,
0001
0010
0000
0100
1000
0001
0000
1000
,
0100
0001
0100
1000
0100
0010
0001
0100
,
0001
0000
0010
0001
0000
1000
0010
0000
1000
0100
0000
0010
0001
0000
1000
0001
,
2000
0000
0010
0000
0100
0000
3010
0000
1010
0000
0000
1000
0000
0010
0100
0000
,
0010
0000
1000
0000
0001
0000
0010
0000
0100
0000
0000
1000
0000
0001
0010
0000
,
1000
0000
0010
0000
0001
0000
1000
0000
0001
0000
0000
0100
0000
0001
1000
0000
,
0010
0000
0100
0000
0010
0000
0001
0000
0010
0000
0000
0100
0000
0010
0100
0000
,
0001
0000
0010
0000
1000
0000
0010
0000
0001
0000
0000
1000
0000
0010
1000
0000
,
0001
0000
0100
0000
1000
0000
0100
0000
0001
0000
0000
0100
0000
0001
0010
0000
,
0001
0000
1000
0000
0100
0000
1000
0000
0001
0000
0000
0010
0000
0001
1000
0000
,
0100
0000
0000
0000
0000
0000
0001
0000
0000
0000
0000
0000
0100
0000
0000
0000
0000
0000
1000
0000
0000
0000
0000
0000
1001
0000
0000
0000
0000
0000
0000
0000
0000
1100
0000
0000
0000
0000
0000
0000
0000
0000
0100
0000
0010
0000
0100
0000
,
0010
0000
0000
0100
0000
0000
1000
0000
0000
0001
0100
0001
0200
0000
0000
0000
0000
0000
0000
0000
0000
0000
0000
0000
,
0000
0000
1000
0000
0010
0000
0001
0000
0301
0100
0001
1000
0000
0000
0000
0000
,
0100
0010
0001
1000
0000
0000
0000
0000
0010
1000
0001
0010
0000
0100
0000
0000
,
1000
0001
0100
0001
0000
1000
0100
0001
0100
0010
0100
1000
0000
0000
0000
0000
,
0100
0010
0001
1000
0000
0000
0000
0000
0010
1000
0001
0100
0000
0010
0000
0000
,
1000
0001
0100
0001
0000
0000
1000
0010
0001
1000
0100
0001
0000
0000
0000
0000
,
0010
0100
1000
0001
0000
0000
0100
0000
0010
0100
0001
0010
0100
0000
1000
0000
,
0001
0100
0001
1000
0000
0100
0010
0001
1000
0001
0100
0010
0000
1000
0010
0001
,
0010
0100
0010
1000
0000
0000
0001
0010
0100
0001
0100
1000
0002
0000
2003
0000
,
3200
0000
0000
0000
0000
0000
0000
0000
0300
0000
1000
0000
0100
0000
1000
0000
1100
0000
0000
0000
0000
0000
1000
0100
1000
0000
0001
0000
0100
0000
0001
0000
,
0101
0000
0000
0001
1000
0000
0001
0000
0010
0000
1000
0000
0010
0000
0100
0000
,
1000
0000
0000
0100
0010
0000
0100
0000
1000
0000
0001
0000
0100
0000
0001
0000
,
1000
0000
0000
0001
0100
0000
0001
0000
0020
0000
0000
0000
1030
0000
0010
0000
,
0001
1000
0001
0100
0010
1000
0020
0000
,
0130
0000
0000
0010
1000
0000
0100
0000
0001
0000
0100
0000
0010
0000
0001
0000
,
1000
0000
0000
0100
1000
0000
0001
0000
0010
0000
0001
0000
1000
0000
0100
0000
,
1000
0000
0000
0001
0100
0000
0001
0000
2000
0000
0000
0000
3100
0000
0010
0000
,
0002
0000
0013
0100
2000
0000
3100
0010
,
0011
0000
0000
0000
1010
0000
0000
0000
1100
0000
0000
0000
0101
0000
0001
1000
,
0001
0000
0000
0000
1001
0000
0000
0000
0110
0000
0000
0000
1010
0000
1000
0001
,
1000
0010
0001
0010
1000
0100
0001
0100
,
1000
0100
1000
0100
1000
0100
1000
0100
0010
0001
0010
0001
0010
0001
0010
0001
,
0020
0000
0400
0000
0000
0000
0330
0000
1100
0000
1000
0001
0000
0010
0100
0000
,
0010
0000
0001
0000
1000
0000
0001
0000
0100
0000
0010
0100
0000
0001
0010
0000
,
1000
0000
0010
0000
0001
0000
0010
0000
0100
0000
1000
0100
0000
1000
0001
0000
,
0100
0000
0010
0000
0001
0000
0010
0000
1000
0000
0100
0010
0000
0001
0100
0000
,
0001
0000
1000
0000
0001
0000
0010
0000
0100
0000
0010
0001
0000
1000
0001
0000
,
0100
0000
0010
0000
0100
0000
0001
0000
0010
0000
0100
1000
0000
0001
1000
0000
,
0100
0000
0001
0000
0100
0000
1000
0000
0001
0000
0100
0001
0000
0010
0100
0000
,
0010
0000
0001
0000
0010
0000
0100
0000
1000
0000
0100
1000
0000
0001
0100
0001
,
1000
0000
1000
0000
0001
0000
0001
0000
1001
0000
1000
0001
0000
0010
0100
0000
,
0010
0000
0001
0000
1000
0000
0001
0000
0010
0000
0100
0010
0000
0001
0010
0000
,
1000
0000
0010
0000
0100
0000
1000
0000
0001
0000
0100
0001
0000
0010
0100
0000
,
1000
0000
0000
0000
0010
0000
1000
0000
0001
0000
0100
0001
0000
0010
0100
0000
,
1000
0000
0100
0000
0001
0000
0100
0000
1000
0000
0100
0010
0000
0001
0010
0000
,
1000
0000
0010
0000
0001
0000
0010
0000
0100
0000
1000
0100
0000
0010
0001
0000
,
0100
0000
0001
0000
1000
0000
0010
0000
1000
0000
0100
0010
0000
0100
1000
0000
,
0001
0000
0100
0000
0010
0000
1000
0000
1100
0000
0000
1001
0000
0000
0001
0100
,
0001
0000
0010
0000
0100
1000
0100
1000
0100
0000
0000
0000
0000
0000
0000
0000
;

//---------------dance-single - ----------------
#NOTES:
     dance-single:
     X-Scale 11:
     Medium:
     8:
     0.497079,0.637361,0.245353,0.252788,0.342007,468.000000,435.000000,33.000000,34.000000,0.000000,0.000000,0.497079,0.637361,0.245353,0.252788,0.342007,468.000000,435.000000,33.000000,34.000000,0.000000,0.000000:
0000
0000
0000
0000
,
0000
0000
0000
0000
,
0000
0000
0000
0000
0000
0000
0000
0000
0000
0000
0000
0000
1100
0000
0000
1000
,
0100
0001
0100
0010
0001
0100
0001
0010
1000
0010
0100
1000
0001
1000
0000
0100
,
0000
1000
0000
0100
0010
0001
0000
0010
0000
0001
0000
0010
0011
0000
0000
0000
,
1001
0000
1000
0010
0200
0000
1300
0100
,
0001
0000
0000
0010
0001
0000
1000
0000
0010
0000
0000
0000
0100
0000
0001
0000
,
0010
0000
0100
1000
0020
0000
0031
0010
,
1000
0000
0010
1000
0001
0000
0010
0001
,
1000
0001
0100
0010
0001
0010
1000
0001
,
0100
0001
1000
0100
0010
0100
1000
0001
,
0011
0000
1000
0001
1001
0000
0100
1000
,
1100
0000
0100
0010
0110
0000
0100
1000
,
1001
0001
0000
0010
0000
0001
0000
0010
,
0100
1000
0000
0001
0000
1000
0000
0100
,
0010
0001
1000
0010
0001
0010
1000
0100
,
1000
0000
0000
0100
0000
0000
0010
0000
0000
0001
0000
0000
1000
0000
0001
1000
,
0002
0000
0000
0000
0000
0000
0003
0000
1001
0000
0000
1000
0000
0100
1000
0000
,
0010
0000
0001
0000
1000
0000
0100
0000
0001
0000
0000
0010
0000
0001
1000
0000
,
0100
0000
0001
0000
0100
0000
1000
0000
0100
0000
0000
0010
0000
0001
0100
0000
,
0001
0000
1000
0000
0001
0000
0010
0000
0100
0000
0000
1000
0000
0010
1000
0000
,
0001
0000
1000
0000
0100
0000
0010
0000
0001
0000
0000
0100
0000
0010
0100
0000
,
0010
0000
0001
0000
0010
0000
1000
0000
0001
0000
0000
0100
0000
0010
0100
0000
,
0001
0000
1000
0000
0100
0000
0010
0000
0001
0000
0000
0001
0000
0010
0100
0000
,
1000
0000
0100
0000
0001
0000
0100
0000
1000
0000
0000
1000
0000
0010
1000
0000
,
0100
0001
0100
1000
2100
0000
0000
0000
,
0000
0000
3001
0000
0010
0000
0100
2000
0000
0000
0000
3000
0000
0100
1000
0001
,
0200
0000
0000
0000
0300
0010
0200
0000
0301
0100
0010
0000
1000
0000
0100
0000
,
0020
0000
0000
0000
0000
0000
0000
0000
0030
0000
0001
0000
0010
0000
0001
0000
2000
0000
0000
0000
0000
0000
0000
0000
3000
0000
0100
0000
0010
0000
0000
0001
,
0020
0000
0000
0000
0030
0000
0100
1000
0001
0100
0020
0000
0032
0000
0023
0000
,
2030
0000
0000
0000
3000
0100
1000
0001
0020
0000
0000
0000
0030
0100
0010
0001
,
2000
0000
0000
0000
3000
0000
0200
0000
0310
0100
1000
0001
0200
0000
0302
0000
,
2003
0000
0000
0000
3000
0100
0010
0001
0200
0000
0000
0000
0300
1000
0100
0010
,
2000
0000
0000
0000
3000
0000
0001
0100
0001
0010
0100
1000
0020
0000
2030
0000
,
3002
0000
0000
0000
0003
0000
0000
0000
1001
0000
0000
1000
0100
0001
0100
0010
,
0001
0000
0000
1000
0000
0000
0010
0000
2000
0000
0000
0000
3100
0000
0010
0000
,
0001
0000
0000
0100
0010
0000
0100
0000
1000
0000
0100
0000
0010
0000
0100
0000
,
0001
0000
0000
0010
0100
0000
0010
0000
0002
0000
0000
0000
1003
0000
0001
0000
,
0200
0000
0310
0100
1000
0100
0002
0000
,
1003
0000
1001
0001
1000
0100
1000
0001
,
0010
0000
0000
0100
1000
0000
0001
0000
1000
0000
0100
0000
0010
0000
0001
0000
,
0011
0000
0000
0001
0000
0000
1000
0000
0010
0000
0000
0000
1010
0000
1000
0000
,
0001
0000
0011
0010
0100
0000
1000
0100
,
1100
0101
1100
0101
,
1001
0110
1001
0110
,
0010
0100
1000
0001
1000
0100
1000
0001
,
0011
0000
0000
1001
0000
0000
1010
0000
0000
0110
0000
0000
1001
0000
1000
0001
,
2000
0000
0000
0000
0000
0000
3000
0000
1100
0000
0000
0100
0000
1000
0001
0000
,
0010
0000
1000
0000
0010
0000
0100
0000
1000
0000
0000
0001
0000
0010
0001
0000
,
1000
0000
0100
0000
0001
0000
0100
0000
1000
0000
0000
0100
0000
0100
0010
0000
,
0100
0000
1000
0000
0001
0000
0100
0000
0001
0000
0000
0010
0000
0010
0100
0000
,
0010
0000
0001
0000
1000
0000
0010
0000
0100
0000
0000
0001
0000
0001
1000
0000
,
0100
0000
0001
0000
0100
0000
0010
0000
0001
0000
0000
1000
0000
0100
1000
0000
,
0001
0000
0100
0000
1000
0000
0100
0000
0001
0000
0000
0010
0000
0001
0010
0000
,
0100
0000
1000
0000
0001
0000
1000
0000
0010
0000
0000
0100
0000
0000
0001
0000
,
0100
0000
1000
0000
0100
0000
0001
0000
0010
0000
0000
0001
0000
0000
1000
0000
,
0020
0000
0000
0000
0031
0000
0010
0000
1000
0000
0000
0100
0010
0000
0100
0000
,
1000
0000
0001
0000
0100
0000
0001
0000
1000
0000
0000
0100
0000
0000
0010
0000
,
0002
0000
1003
0001
0100
0000
0010
0100
,
0001
0000
0010
0000
0200
0000
0000
0000
1300
0000
0000
0100
0000
0000
1000
0000
,
0001
0000
0100
0000
0001
0000
1000
0000
0010
0000
0000
1000
0000
0000
0001
0000
,
0010
0000
1000
0000
0010
0000
0100
0000
1000
0000
0000
0010
0000
0000
1000
0000
,
0200
0000
0000
0000
0301
0000
0100
0000
1100
0000
0000
1001
0000
0000
0101
0000
,
0100
0001
1000
0001
1001
0000
0000
0000
;

//---------------dance-single - ----------------
#NOTES:
     dance-single:
     X-Scale 7:
     Easy:
     5:
     0.330324,0.354089,0.282528,0.044610,0.000000,311.000000,273.000000,38.000000,6.000000,0.000000,0.000000,0.330324,0.354089,0.282528,0.044610,0.000000,311.000000,273.000000,38.000000,6.000000,0.000000,0.000000:
// measure 0
0000
0000
0000
0000
,  // measure 1
0000
0000
0000
0000
,  // measure 2
0000
0000
0000
0001
,  // measure 3
0010
0100
1000
0002
,  // measure 4
0000
0000
0000
0000
2000
0000
0000
0000
0000
0000
0000
3003
1001
0000
0000
0000
,  // measure 5
0110
0000
0100
0000
0010
0000
1000
0100
,  // measure 6
1000
0000
0001
0000
0100
0000
0001
0010
,  // measure 7
0001
0000
0100
0000
0001
0000
1000
0010
,  // measure 8
1000
0100
0010
0001
,  // measure 9
0100
0101
0001
1001
,  // measure 10
1000
1100
0100
0110
,  // measure 11
0101
0000
1001
0000
,  // measure 12
1010
1000
0001
1000
,  // measure 13
1001
0001
0000
0010
0000
0100
0000
1000
,  // measure 14
0000
0010
0000
0100
0000
0001
0000
1000
,  // measure 15
1001
0000
0110
0000
,  // measure 16
1001
0000
0000
0000
,  // measure 17
1001
0000
1010
1000
,  // measure 18
0010
0100
0001
0010
,  // measure 19
0001
1000
0010
1000
,  // measure 20
0100
0010
0100
1000
,  // measure 21
0001
0100
0001
0101
,  // measure 22
0100
0110
0010
1001
,  // measure 23
1000
1100
0100
0110
,  // measure 24
0010
0011
0002
0000
,  // measure 25
1003
0001
0100
0001
0101
0000
0000
0000
,  // measure 26
0000
0001
0010
0100
1000
0000
0000
1000
,  // measure 27
0001
0000
0000
0100
0001
1000
0010
1000
,  // measure 28
0001
0000
0000
0010
0100
0000
0000
1000
,  // measure 29
0100
0000
0000
0010
0100
1000
0001
0100
,  // measure 30
0001
0000
0000
1000
1100
0000
0000
0100
,  // measure 31
0010
0000
0000
0001
0100
0001
1000
0100
,  // measure 32
1000
0000
0000
0100
0010
0000
0000
0001
,  // measure 33
0100
0000
0000
0001
0010
0100
1000
0001
,  // measure 34
2000
3000
1001
0000
,  // measure 35
0110
0000
0100
0000
0010
0000
0001
0100
,  // measure 36
0001
0000
1000
0000
0010
0000
1000
0100
,  // measure 37
1000
0000
0100
0000
0010
0000
0001
0010
,  // measure 38
0001
1000
0010
1000
,  // measure 39
0001
1001
1000
1100
,  // measure 40
0100
0110
0010
0011
,  // measure 41
0001
0000
1001
0000
1000
0000
0010
1000
,  // measure 42
0001
0000
0010
0001
1000
0000
0100
0010
,  // measure 43
0110
0010
0100
1000
,  // measure 44
1001
0001
0100
0001
,  // measure 45
0101
0001
1001
1000
,  // measure 46
2010
0000
0000
0000
,  // measure 47
3002
0000
0000
0003
0101
0000
0100
0000
,  // measure 48
0001
1000
0001
1000
0001
0000
0010
0000
,  // measure 49
0100
1000
0100
1000
0100
0000
0010
0000
,  // measure 50
0001
0100
0001
0100
0001
0000
1000
0000
,  // measure 51
0100
0010
0100
0010
0100
0000
1000
0000
,  // measure 52
0010
1000
0010
1000
0010
0000
0100
0000
,  // measure 53
0001
1000
0001
1000
0001
0000
0010
0000
,  // measure 54
0100
0010
0100
0010
0100
0000
1000
0010
,  // measure 55
0100
0001
0010
0100
0110
0000
0010
0000
,  // measure 56
0001
0000
1000
0010
1000
0000
0100
0000
,  // measure 57
0010
0000
0100
1000
0100
0000
1000
0000
,  // measure 58
0001
0000
0100
0001
0100
0000
0010
0000
,  // measure 59
0100
0010
0100
0000
0001
0000
1000
0000
,  // measure 60
0001
0000
0010
0100
0010
0000
0001
0000
,  // measure 61
1000
0000
0100
0010
0100
0000
1000
0000
,  // measure 62
0001
0000
0100
0010
0100
0000
0000
0001
,  // measure 63
1000
0010
1000
0001
1001
0000
0000
0000
;

//---------------dance-single - ----------------
#NOTES:
     dance-single:
     X-Scale 3:
     Beginner:
     2:
     0.138078,0.165242,0.096654,0.000000,0.000000,130.000000,117.000000,13.000000,0.000000,0.000000,0.000000,0.138078,0.165242,0.096654,0.000000,0.000000,130.000000,117.000000,13.000000,0.000000,0.000000,0.000000:
// measure 0
0000
0000
0000
0000
,  // measure 1
0000
0000
0000
0000
,  // measure 2
0000
0000
0000
1000
,  // measure 3
0000
0100
0000
0010
,  // measure 4
0000
0001
0000
1001
,  // measure 5
1000
0000
0100
0000
,  // measure 6
1000
0000
0100
0000
,  // measure 7
0010
0000
0001
0000
,  // measure 8
0010
0000
0001
0000
,  // measure 9
0100
0000
0010
0000
,  // measure 10
0100
0000
0010
0000
,  // measure 11
1000
0000
0001
0000
,  // measure 12
1000
0001
1000
0000
,  // measure 13
1001
0000
0000
0000
,  // measure 14
0110
0000
0000
0000
,  // measure 15
1001
0000
0001
0000
,  // measure 16
1000
0000
0000
0000
,  // measure 17
0001
0000
1001
0000
,  // measure 18
1000
0000
0100
0000
,  // measure 19
0010
0000
0001
0000
,  // measure 20
0100
0000
0010
0000
,  // measure 21
1000
0000
0001
0000
,  // measure 22
0100
0000
0001
0000
,  // measure 23
1000
0000
0100
0000
,  // measure 24
0010
0000
0001
0000
,  // measure 25
1000
0000
1001
0000
,  // measure 26
0000
0000
1000
0000
,  // measure 27
0001
0000
0100
0000
,  // measure 28
0010
0000
0100
0000
,  // measure 29
0001
0000
0010
0000
,  // measure 30
0100
0000
1000
0000
,  // measure 31
0001
0000
1000
0000
,  // measure 32
0010
0000
1000
0000
,  // measure 33
0001
0000
0010
0000
,  // measure 34
0100
0000
1000
0000
,  // measure 35
1001
0000
1000
0000
,  // measure 36
0001
0000
0100
0000
,  // measure 37
0001
0000
0010
0000
,  // measure 38
0100
0000
1000
0000
,  // measure 39
0001
0000
1000
0000
,  // measure 40
0010
0000
1000
0000
,  // measure 41
0001
0000
0010
0000
,  // measure 42
0001
0000
1000
0000
,  // measure 43
1001
0000
0000
0000
,  // measure 44
0110
0000
0000
0000
,  // measure 45
1001
0000
1000
0000
,  // measure 46
0001
0000
0000
0000
,  // measure 47
1000
0000
1001
0000
,  // measure 48
0001
0000
0010
0000
,  // measure 49
0100
0000
1000
0000
,  // measure 50
0010
0000
0100
0000
,  // measure 51
0001
0000
1000
0000
,  // measure 52
0001
0000
0010
0000
,  // measure 53
0100
0000
1000
0000
,  // measure 54
0010
0000
1000
0000
,  // measure 55
0100
0000
0110
0000
,  // measure 56
0010
0000
0100
0000
,  // measure 57
1000
0000
0001
0000
,  // measure 58
1000
0000
0010
0000
,  // measure 59
0100
0000
0010
0000
,  // measure 60
1000
0000
0001
0000
,  // measure 61
0010
0000
0100
0000
,  // measure 62
1000
0000
0001
0000
,  // measure 63
1000
0000
1001
0000
;
