#VERSION:0.83;
#TITLE:Accidents Happen;
#SUBTITLE:;
#ARTIST:Zoƫ Badwi;
#TITLETRANSLIT:;
#SUBTITLETRANSLIT:;
#ARTISTTRANSLIT:;
#GENRE:Dance;
#ORIGIN:;
#CREDIT:;
#BANNER:Accidents Happen-bn.png;
#BACKGROUND:Accidents Happen-bg.png;
#PREVIEWVID:;
#JACKET:Accidents Happen-jacket.png;
#CDIMAGE:;
#DISCIMAGE:;
#LYRICSPATH:;
#CDTITLE:cdtitle.png;
#MUSIC:Accidents Happen.ogg;
#OFFSET:-0.233000;
#SAMPLESTART:35.771000;
#SAMPLELENGTH:14.769000;
#SELECTABLE:YES;
#BPMS:0.000=130.000;
#STOPS:75.000=1.385;
#DELAYS:;
#WARPS:;
#TIMESIGNATURES:0.000=4=4;
#TICKCOUNTS:0.000=4;
#COMBOS:0.000=1;
#SPEEDS:0.000=1.000=0.000=0;
#SCROLLS:0.000=1.000;
#FAKES:;
#LABELS:0.000=Song Start;
#BGCHANGES:-0.533=Accidents Happen.avi=1.000=1=0=0=StretchNoLoop==CrossFade==,
99999=-nosongbg-=1.000=0=0=0 // don't automatically add -songbackground-
;
#KEYSOUNDS:;
#ATTACKS:
;

//---------------dance-single - ----------------
#NOTEDATA:;
#CHARTNAME:X-Scale 2;
#STEPSTYPE:dance-single;
#DESCRIPTION:;
#CHARTSTYLE:;
#DIFFICULTY:Beginner;
#METER:1;
#RADARVALUES:0.126173,0.148885,0.016823,0.000000,0.000000,105.000000,103.000000,2.000000,0.000000,0.000000,0.000000,0.000000,0.000000,0.000000,0.126173,0.148885,0.016823,0.000000,0.000000,105.000000,103.000000,2.000000,0.000000,0.000000,0.000000,0.000000,0.000000,0.000000;
#CREDIT:iamthek3n;
#NOTES:
0000
0000
0000
0000
,
0000
0000
0000
0000
,
0000
0000
0000
0000
,
0000
0000
0000
0000
,
0000
0000
0000
0000
,
0000
0000
0000
0000
,
0000
0000
0000
0000
,
0000
0000
0000
1000
,
0000
0001
0000
1000
,
0000
0001
0000
0010
,
0000
0100
0000
0010
,
0000
0100
0000
1000
,
0000
0001
0000
0100
,
0000
0010
0000
1000
,
0000
0100
0000
0010
,
0000
0100
0000
1000
,
0000
0001
0000
0010
,
0000
0100
0000
1000
,
0000
0001
0000
1000
,
1001
0000
1000
0000
,
0010
0000
1000
0000
,
0001
0000
0010
0000
,
0100
0000
0010
0000
,
0001
0000
1000
0000
,
0010
0000
0100
0000
,
0001
0000
1000
0000
,
0100
0000
0010
0000
,
0001
0000
0010
0000
,
0100
1000
0100
0000
,
0010
0000
0001
0000
,
1000
0001
1000
0000
,
0010
0000
0100
0000
,
0001
0100
0001
0000
,
0010
0000
0100
0000
,
1000
0100
1000
0000
,
0000
0001
0000
1000
,
0000
0001
0000
1000
,
0000
0100
0000
0010
,
0000
0100
0000
0010
,
0000
0001
0000
0100
,
0000
0001
0000
0100
,
0000
0001
0000
1000
,
0000
0000
0000
0000
,
1001
0000
0000
0000
,
0000
0000
0000
0000
,
0100
0000
1000
0000
,
0001
0000
1000
0000
,
0100
0000
1000
0000
,
0001
0000
1000
0000
,
0100
0000
0010
0000
,
0100
0000
1000
0000
,
0100
0000
0010
0000
,
0100
0000
1000
0000
,
0001
0000
0100
0000
,
0001
0000
0010
0000
,
0100
0000
0010
0000
,
0001
0000
1000
0000
,
0001
0000
0010
0000
,
0100
0000
1000
0000
,
0001
0000
0000
0000
;

//---------------dance-single - ----------------
#NOTEDATA:;
#CHARTNAME:X-Scale 5;
#STEPSTYPE:dance-single;
#DESCRIPTION:;
#CHARTSTYLE:;
#DIFFICULTY:Easy;
#METER:3;
#RADARVALUES:0.237927,0.279316,0.033646,0.269170,0.000000,198.000000,194.000000,4.000000,32.000000,0.000000,0.000000,0.000000,0.000000,0.000000,0.237927,0.279316,0.033646,0.269170,0.000000,198.000000,194.000000,4.000000,32.000000,0.000000,0.000000,0.000000,0.000000,0.000000;
#CREDIT:iamthek3n;
#NOTES:
0000
0000
0000
0000
,
0000
0000
0000
0000
,
0000
0000
0000
0000
,
0000
0000
0000
0000
0000
0000
0000
1000
,
0000
0000
0001
0000
0000
0100
0000
0000
,
0001
0000
0000
1000
0000
0000
0000
0001
,
0000
0000
0010
0000
0000
0100
0000
0000
,
0010
0000
0000
0001
0000
0000
1000
0000
,
0010
1000
0100
0010
,
0100
1000
0001
0100
,
0010
0100
0001
1000
,
0001
0010
0100
1000
,
0001
0000
0100
0000
0010
0100
0020
0000
,
2030
3002
0013
0100
,
1000
0000
0001
0000
0100
0010
0200
0000
,
0302
2003
3200
0320
,
0031
0000
0010
0000
0100
1000
0200
0000
,
0310
0100
2000
0000
3001
0000
0200
0000
,
0320
2030
3002
0013
,
1100
1000
0001
0100
,
0010
0000
1000
0000
0100
0000
1000
0002
,
0000
2000
3003
0000
1000
0000
0001
0000
,
0100
0000
0001
0000
1000
0000
0001
0200
,
0000
0020
0330
0000
1000
0000
0001
0000
,
0010
0000
0100
0000
0010
0000
0001
2000
,
0000
0200
3300
0000
1000
0000
0001
0000
,
0010
0001
1000
0100
,
0010
0100
1000
0001
,
0010
0100
2000
0000
,
3001
0100
0010
1000
,
0100
0010
0001
0000
2000
0000
0000
0000
,
3100
0010
0001
0100
,
0010
1000
0002
0000
,
0103
0001
1000
0001
,
0010
0100
1000
0000
0002
0000
0000
0000
,
0103
0001
0000
0100
,
0000
0010
0000
1000
,
0000
0100
0000
0010
,
0000
0001
0000
0100
,
0000
0010
0000
1000
,
0000
0100
0000
0010
,
0000
0001
0000
1000
,
0000
0000
0000
0000
,
1001
0000
0000
0000
,
0000
0000
0000
0000
,
0110
0100
0010
1000
,
0001
0010
0100
0010
,
0001
1000
0001
0100
,
0001
1000
0100
0010
,
0001
1000
0001
0010
,
0100
1000
0001
0100
,
0001
1000
0001
0010
,
0100
0000
1000
0000
0001
0000
0100
0020
,
0000
2000
3030
0000
1000
0000
0001
0000
,
0010
0000
0001
0000
1000
0000
0100
0020
,
0000
0200
0330
0000
0100
0000
1000
0000
,
0001
0000
0100
0000
0001
0000
1000
0200
,
0000
2000
3300
0000
1000
0000
0001
0000
,
0010
0001
1000
0001
,
2002
0000
0000
0000
,
0000
0000
0000
3003
0000
0000
0000
0000
;

//---------------dance-single - ----------------
#NOTEDATA:;
#CHARTNAME:X-Scale 10;
#STEPSTYPE:dance-single;
#DESCRIPTION:;
#CHARTSTYLE:;
#DIFFICULTY:Medium;
#METER:7;
#RADARVALUES:0.395343,0.415531,0.042058,0.513105,0.159820,329.000000,324.000000,5.000000,61.000000,0.000000,0.000000,0.000000,0.000000,0.000000,0.395343,0.415531,0.042058,0.513105,0.159820,329.000000,324.000000,5.000000,61.000000,0.000000,0.000000,0.000000,0.000000,0.000000;
#CREDIT:iamthek3n;
#NOTES:
// measure 0
0000
0000
0000
0000
,  // measure 1
0000
0000
0000
0000
,  // measure 2
0000
0000
0000
0000
,  // measure 3
0000
0000
0000
0000
0000
0000
0000
1000
,  // measure 4
0000
0100
0000
0000
0001
0000
0000
0010
0000
0000
1000
0000
0002
0000
0000
0000
,  // measure 5
0023
0000
0230
0000
0000
0300
0000
1000
,  // measure 6
0000
0010
0000
0000
0001
0000
0000
0100
0000
0000
1000
0000
0010
0000
0001
0000
,  // measure 7
0020
0000
2030
0000
3002
0000
0103
0001
,  // measure 8
0100
0000
0000
0000
0010
0000
0000
0100
0010
0000
0100
0000
0001
0000
0000
0000
,  // measure 9
1000
0000
0000
0010
1000
0000
0001
0000
0100
0000
0001
0000
2000
0000
0000
0000
,  // measure 10
3200
0302
0023
2030
,  // measure 11
3001
0000
0000
0010
0100
0000
0010
0000
0000
0010
0000
0000
0011
0000
0000
0000
,  // measure 12
0001
0000
1000
0000
0001
0000
0000
0010
0100
0000
0010
0000
0001
0000
0000
0000
,  // measure 13
1000
0000
0010
0000
1000
0000
0000
0100
0010
0000
0001
0000
0100
0000
0000
0000
,  // measure 14
0010
0000
0100
0000
0010
0000
0000
1000
0001
0000
0100
0000
0001
0000
0000
0000
,  // measure 15
0010
0000
0100
0000
1000
0000
0000
0010
1000
0000
0001
0000
0010
0000
0000
0000
,  // measure 16
0100
0000
0010
0000
0001
0000
0000
1000
0001
0000
0100
0000
0010
0000
0000
0000
,  // measure 17
1000
0000
0001
0000
0100
0000
0000
0100
0010
0000
1000
0000
0002
0000
0000
0000
,  // measure 18
0203
0000
2300
0000
3020
0000
0032
0003
,  // measure 19
0110
0000
1000
0010
0100
0001
0020
0000
,  // measure 20
0130
0010
0002
0000
0103
0000
0001
2000
,  // measure 21
0000
3200
0310
0000
0010
0100
1000
0010
,  // measure 22
0001
0010
2000
0000
0100
0000
3001
0020
,  // measure 23
0000
0230
1300
0000
0100
0010
0001
0000
,  // measure 24
1000
0001
0200
0000
1000
0000
0310
0200
,  // measure 25
0000
0302
0100
0000
1003
0000
0001
0100
,  // measure 26
0001
0000
0000
0001
2000
0000
0000
0000
3100
0000
0000
0000
1000
0000
0000
0000
,  // measure 27
1001
0000
1000
0000
0001
0000
0000
0000
1000
0000
0000
0010
0000
0000
0100
0000
,  // measure 28
0000
0001
0000
0000
0010
0000
0000
0100
2000
0000
0000
3100
0020
0000
0000
0000
,  // measure 29
0031
0000
0100
0000
0001
0000
0000
0000
0010
0000
0000
0100
0000
0000
1000
0000
,  // measure 30
0000
0010
0000
0000
1000
0000
0000
0100
0020
0000
0000
0031
0020
0000
0000
0000
,  // measure 31
0130
0000
1000
0000
0100
0000
0000
0000
0010
0000
0000
0100
0000
0000
1000
0000
,  // measure 32
0000
0001
0000
0000
0100
0000
0000
0010
0200
0000
0000
0301
2000
0000
0000
0000
,  // measure 33
3100
0000
0010
0000
0001
0000
0000
0000
1000
0000
0000
0010
0000
0000
0001
0000
,  // measure 34
0000
0100
0000
0000
1000
0000
0000
0100
0020
0000
0000
0031
0020
0000
0000
0000
,  // measure 35
0230
1000
0000
1000
,  // measure 36
0310
0100
1000
0000
0002
0000
0100
0000
,  // measure 37
1003
0100
0020
0000
0031
0010
0200
0000
,  // measure 38
1300
0100
0020
0000
0032
0000
0100
0000
,  // measure 39
1003
0000
0001
1000
0100
1000
0001
0000
,  // measure 40
0100
0001
1000
0000
0010
0100
0001
0000
,  // measure 41
0010
0100
1000
0000
0000
1000
0001
0100
,  // measure 42
0000
0010
0000
0100
0000
0010
0000
0000
,  // measure 43
2002
0000
0000
0000
,  // measure 44
0000
0000
0000
0000
0000
0000
0000
3003
,  // measure 45
0110
0010
1000
0000
0001
1000
0001
0000
,  // measure 46
1000
0010
1000
0200
0010
0000
1300
0000
,  // measure 47
0001
0000
0100
0001
1000
0000
0010
1000
,  // measure 48
0010
0000
0100
0020
0001
0000
1030
0010
,  // measure 49
0100
0000
0010
0100
0001
0000
0010
0100
,  // measure 50
0010
0000
0001
2000
0100
0000
3001
1000
,  // measure 51
0010
0000
1000
0000
0000
0001
0000
0000
0100
0000
0000
0010
0000
0000
0100
0000
,  // measure 52
0001
0000
0000
1000
0000
0000
0001
0000
0100
0000
0010
0000
1000
0000
0200
0000
,  // measure 53
0000
0320
0031
0010
1000
0010
0002
0000
,  // measure 54
0013
0100
2000
0000
3010
1000
0001
0200
,  // measure 55
0000
0320
1030
0000
0001
0010
1000
0001
,  // measure 56
0100
1000
0020
0000
0031
0010
1000
0002
,  // measure 57
0000
2003
3100
1000
0001
0100
1000
0100
,  // measure 58
0001
0010
0200
0000
1300
0100
0010
0002
,  // measure 59
0000
0000
2003
0000
0000
0000
0000
0000
3001
0000
0000
0100
0000
0000
1000
0000
,  // measure 60
0000
0010
0000
0000
0001
0000
0000
1000
0000
0000
0001
0000
0000
1000
0000
0000
,  // measure 61
0000
2000
3000
2000
3000
2000
3000
0000
;

//---------------dance-single - ----------------
#NOTEDATA:;
#CHARTNAME:X-Scale 11;
#STEPSTYPE:dance-single;
#DESCRIPTION:;
#CHARTSTYLE:;
#DIFFICULTY:Hard;
#METER:8;
#RADARVALUES:0.456628,0.467472,0.126173,0.378520,0.256553,380.000000,365.000000,15.000000,45.000000,0.000000,0.000000,0.000000,0.000000,0.000000,0.456628,0.467472,0.126173,0.378520,0.256553,380.000000,365.000000,15.000000,45.000000,0.000000,0.000000,0.000000,0.000000,0.000000;
#CREDIT:iamthek3n;
#NOTES:
// measure 0
0000
0000
0000
0000
,  // measure 1
0000
0000
0000
0000
,  // measure 2
0000
0000
0000
0000
,  // measure 3
0000
0000
0000
0000
,  // measure 4
0000
1000
0010
1000
0001
1000
0020
0000
,  // measure 5
0230
0302
0003
0000
,  // measure 6
0000
0001
0100
0000
0001
0000
0010
0000
1000
0000
0010
0000
0001
0000
1000
0000
,  // measure 7
0200
0000
2300
0000
0002
3003
1001
0000
,  // measure 8
1000
0001
0100
0001
0010
0100
2000
0000
,  // measure 9
3020
0032
0103
2000
,  // measure 10
3002
0023
0032
0203
,  // measure 11
0310
0000
1000
0000
0001
0000
1001
1000
,  // measure 12
0100
1000
0000
0000
0001
0000
0000
0100
0001
0000
1000
0000
0100
0000
0010
0000
,  // measure 13
0100
1000
0000
0000
0001
0000
0000
0100
0010
0000
0100
0000
1000
0000
0100
0000
,  // measure 14
0010
0100
0000
0000
0001
0000
0000
0010
0100
0000
1000
0000
0001
0000
1000
0000
,  // measure 15
0010
1000
0000
0000
0001
0000
0000
0100
0001
0000
1000
0000
0010
0000
0100
0000
,  // measure 16
1000
0100
0000
0000
0010
0000
0000
1000
0100
0000
1000
0000
0001
0000
0010
0000
,  // measure 17
0001
0100
0000
0000
0010
0000
0000
1000
0100
0000
1000
0000
0001
0000
0010
0000
,  // measure 18
0100
0010
0000
0000
0001
0000
0000
0100
0001
0000
0010
0000
0200
0000
0300
0000
,  // measure 19
1001
0000
0100
1000
0010
0100
0002
0000
,  // measure 20
0013
0100
2000
0000
3100
0001
0100
2000
,  // measure 21
0000
0200
3300
0000
0001
0100
1000
0001
,  // measure 22
0100
0010
0002
0000
0100
0000
1003
0200
,  // measure 23
0000
2000
3300
0100
0010
0001
1000
0001
,  // measure 24
0100
0010
0200
0000
0301
0010
0100
2000
,  // measure 25
0000
0000
0002
0000
3000
1000
0000
0000
0103
0000
0000
0001
0100
0000
0001
0000
,  // measure 26
0000
0010
0000
0000
0100
0000
0000
1000
0100
0000
1000
0000
0001
0100
0000
0000
,  // measure 27
1001
0000
1000
0000
0010
0000
0000
0000
0100
0000
0000
0100
0001
0000
1000
0000
,  // measure 28
1100
0000
0000
0000
0110
0000
0000
0000
0101
0000
0000
0001
2000
0000
0000
0000
,  // measure 29
3100
0000
1000
0000
0001
0000
0000
0000
0010
0000
0000
0010
1000
0000
0010
0000
,  // measure 30
0001
0000
0100
0000
0010
0000
0000
0000
1000
0000
0000
1000
0002
0000
0000
0000
,  // measure 31
0013
0000
0100
0000
1000
0000
0000
0000
0001
0000
0000
0100
0001
0000
1000
0000
,  // measure 32
1001
0000
0000
0000
0110
0000
0000
0000
1100
0000
0000
0100
0020
0000
0000
0000
,  // measure 33
0031
0000
0010
0000
0100
0000
0000
0000
1000
0000
0000
1000
0001
0000
0100
0000
,  // measure 34
1000
0000
0100
0000
0001
0000
0000
0000
1000
0000
0000
1000
0200
0000
0000
0000
,  // measure 35
0310
0000
0100
0000
0100
1000
0000
0000
0000
0000
0100
0000
0100
0010
0000
0000
,  // measure 36
0100
0000
1000
0000
0001
0000
0000
0000
0100
0000
0000
0100
0002
0000
0000
0000
,  // measure 37
0103
0010
0001
0000
0100
0010
0001
0000
,  // measure 38
0100
0000
0010
0000
0001
0000
0000
0000
0010
0000
0000
0010
2000
0000
0000
0000
,  // measure 39
3000
0000
0001
0000
0001
0010
0000
0000
0000
0000
0100
0000
0100
0010
0000
0000
,  // measure 40
0000
0000
0001
0000
0001
1000
0000
0000
0000
0000
0010
0000
0010
0100
0000
0000
,  // measure 41
0000
0000
0010
0000
0010
1000
0000
0000
0000
0000
0001
0000
1000
0000
0001
0000
,  // measure 42
0000
0100
0000
1000
0000
0010
0000
0000
,  // measure 43
2002
0000
0000
0000
,  // measure 44
0000
0000
0000
0000
0000
0000
0000
3003
,  // measure 45
0110
0000
0100
0000
0001
1000
0100
0000
0010
0000
0001
0000
0100
0000
1000
0000
,  // measure 46
0100
0000
0001
0000
0010
0000
0200
1000
0000
0000
1000
0000
0300
1000
0000
0000
,  // measure 47
1000
0000
0001
0000
0100
0001
1000
0000
0010
0000
0001
0000
0010
0000
1000
0000
,  // measure 48
0001
0000
0100
0000
0010
0000
2000
0010
0000
0000
0010
0000
3010
0000
1000
0000
,  // measure 49
0001
0000
1000
0000
0100
0010
0001
0000
0010
0000
1000
0000
0010
0000
0100
0000
,  // measure 50
0010
0000
0001
0000
1000
0000
0002
0100
0000
0000
0100
0000
0103
0000
0001
0000
,  // measure 51
1000
0000
0001
0000
0010
0001
0000
0000
0101
0000
0000
0001
1000
0001
0000
0200
,  // measure 52
0000
0320
0000
0031
0010
1000
0001
1000
,  // measure 53
1100
0000
1000
0000
0001
1000
0000
0000
0010
0000
0000
0001
0000
0000
0100
0000
,  // measure 54
0000
1000
0000
0000
0001
0000
0000
0100
0001
0000
1000
0000
0010
0000
0100
0000
,  // measure 55
0001
0000
0010
0000
0001
0100
0000
0000
0010
0000
0000
0100
0000
0000
1000
0000
,  // measure 56
0000
0100
0000
0000
0001
0000
1000
0000
0100
0000
0001
0000
0100
0000
0010
0000
,  // measure 57
0001
0000
1000
0000
0001
0100
0000
0000
1000
0000
0000
0100
0000
0000
0001
0000
,  // measure 58
0000
1000
0000
0000
0010
0000
0000
0100
0010
0000
0100
0000
0001
0000
1000
0000
,  // measure 59
2001
0000
0001
0000
0000
0001
0000
0000
0010
0000
0000
0000
3010
0000
1000
0000
,  // measure 60
0002
0000
0000
0103
0020
0000
0000
0000
0031
0000
0010
0000
1000
0000
0002
0000
,  // measure 61
0003
2000
3000
2000
3000
2000
3000
0000
;
