#TITLE:Able to Love;
#SUBTITLE:;
#ARTIST:Benny Benassi presents The Biz;
#TITLETRANSLIT:;
#SUBTITLETRANSLIT:;
#ARTISTTRANSLIT:;
#GENRE:Electro House;
#CREDIT:;
#BANNER:Able to Love-bn.png;
#BACKGROUND:Able to Love-bg.png;
#LYRICSPATH:;
#CDTITLE:cdtitle.png;
#MUSIC:Able to Love.ogg;
#OFFSET:-0.003000;
#SAMPLESTART:41.820999;
#SAMPLELENGTH:14.545000;
#SELECTABLE:YES;
#DISPLAYBPM:132.000000;
#BPMS:0.000000=132.000000
,88.000000=66.000000
,89.000000=132.000000
,167.000000=66.000000
,168.000000=132.000000
;
#STOPS:
;
#BGCHANGES:;
#KEYSOUNDS:;
#ATTACKS:;

//---------------dance-single - ----------------
#NOTES:
     dance-single:
     X-Scale 11:
     Hard:
     8:
     0.530631,0.560217,0.040728,0.089602,0.256588,456.000000,451.000000,5.000000,11.000000,0.000000,0.000000,0.530631,0.560217,0.040728,0.089602,0.256588,456.000000,451.000000,5.000000,11.000000,0.000000,0.000000:
// measure 0
0000
0000
0000
0000
,  // measure 1
0000
0000
0000
0000
,  // measure 2
0000
0000
0000
0000
,  // measure 3
0101
0000
0001
1000
0000
0000
0100
0100
,  // measure 4
0100
0000
0010
0001
0000
0000
1000
1000
,  // measure 5
1000
0000
0001
0100
0000
0000
0010
0010
,  // measure 6
0010
0000
1000
0100
0001
0000
0100
0000
,  // measure 7
1000
0000
0001
0100
0000
0000
0010
0010
,  // measure 8
0010
1000
0001
1000
0000
0000
0100
0100
,  // measure 9
0100
0000
0010
0001
1000
0100
0001
0100
,  // measure 10
1000
0000
0000
0000
0001
0000
0100
0000
0010
0000
0000
0100
0001
0000
1000
0000
,  // measure 11
0010
0000
0100
0010
1000
0000
0100
0100
,  // measure 12
0100
0000
0010
0001
0010
0000
0001
0001
,  // measure 13
0001
0000
0100
0001
1000
0000
0010
0010
,  // measure 14
0010
0000
0100
0010
1000
0000
0100
0000
,  // measure 15
1000
0001
0010
1000
0010
0001
0100
0010
,  // measure 16
1000
0000
0000
0000
0001
0000
0000
0000
0100
0000
0000
0010
0000
0000
0000
0000
,  // measure 17
1000
0000
0001
0000
0010
0000
0100
0000
1000
0000
0000
0001
0000
0010
0000
0001
,  // measure 18
0000
0000
0100
0001
1000
0000
0010
0000
,  // measure 19
1000
0000
0100
0010
0001
0000
1000
1000
,  // measure 20
1000
0100
1000
0001
1000
0000
0001
0001
,  // measure 21
0001
0000
0100
0010
0100
0001
0010
0100
,  // measure 22
1000
0000
0000
0000
1100
0000
0100
1000
0100
0000
0010
0000
0101
0000
0000
0001
,  // measure 23
1000
0000
0001
0000
0010
0000
0100
0000
1000
0100
1000
0000
0001
0000
0000
0100
,  // measure 24
0001
0000
1000
0000
0010
0000
1000
0000
0100
0010
0100
0000
1000
0000
0000
0010
,  // measure 25
1000
0000
0001
0000
0100
0000
0010
0000
1000
0010
1000
0000
0001
0000
0000
0010
,  // measure 26
0001
0000
1000
0000
0010
0000
0001
0000
1000
0000
0100
0000
0001
0000
0000
0010
,  // measure 27
0100
0000
0010
0000
0001
0000
1000
0000
0010
0100
0010
0000
1000
0000
0000
0001
,  // measure 28
1000
0000
0010
0000
0100
0000
0010
0000
1000
0100
1000
0000
0100
0000
0000
0010
,  // measure 29
0001
0000
1000
0000
0001
0000
0010
0000
0100
1000
0100
0000
0010
0000
0000
0001
,  // measure 30
1000
0100
0001
1000
0010
0001
1000
0100
,  // measure 31
0010
0100
1000
0100
0001
0100
1000
0000
,  // measure 32
0100
0000
0000
0000
0010
0000
0000
0010
0001
0000
0000
0000
0010
0000
0100
0000
,  // measure 33
1000
0000
0001
0000
1000
0000
0000
0010
0000
0100
0000
0010
1000
0000
0000
1000
,  // measure 34
0001
0000
0010
0000
1000
0000
0001
0000
0100
0000
1000
0000
0001
0000
0000
0010
,  // measure 35
0001
0000
1000
0000
0100
0000
0010
0000
0100
1000
0100
0000
1000
0000
0000
0001
,  // measure 36
0100
0000
0001
0000
0010
0000
0100
0000
1000
0100
1000
0000
0010
0000
0000
0100
,  // measure 37
0010
0000
0100
0000
1000
0000
0100
0000
0001
0000
0010
0000
0100
0000
0000
0010
,  // measure 38
0100
1000
0001
0010
1000
0100
0001
0000
,  // measure 39
0010
0001
0000
0000
1000
1000
1000
0000
,  // measure 40
0010
0100
0000
0000
0001
0001
0001
0000
,  // measure 41
1000
0010
0000
0000
0100
0100
0100
0000
,  // measure 42
0001
0000
0010
0001
1000
0000
0100
0000
2100
0000
0000
3100
1000
0000
0001
0000
,  // measure 43
0100
0000
0010
0000
1000
0010
0100
0000
0002
0000
0000
0013
0001
0000
1000
0000
,  // measure 44
0010
0000
0100
0000
0010
0100
0001
0000
0020
0000
0000
0130
0010
0000
0001
0000
,  // measure 45
1000
0000
0001
0000
0100
0001
1000
0000
0200
0000
0000
0310
0100
0000
1000
0000
,  // measure 46
0001
0000
0010
0000
1000
0000
0010
0000
0002
0000
0000
0013
0001
0000
1000
0000
,  // measure 47
0010
0000
0100
0000
0001
0100
0001
0000
2000
0000
0000
3100
1000
0000
0001
0000
,  // measure 48
0100
0000
0010
0000
1000
0001
0010
0000
0200
0000
0000
0310
0100
0000
1000
0000
,  // measure 49
0001
0000
0100
0000
0010
0100
0001
0000
2000
0000
0000
3010
1000
0000
0001
0000
,  // measure 50
0100
1000
0001
0010
1000
0100
0001
0100
,  // measure 51
1000
0010
0100
0001
0010
0000
0100
0000
,  // measure 52
1000
0000
0000
0001
1000
0000
0000
0000
0100
0000
0010
0000
0001
0000
0100
0000
,  // measure 53
0010
0000
0000
1000
0000
0001
0000
1000
0100
0000
0000
0010
0100
0000
1000
0000
,  // measure 54
0001
0000
0010
0000
1000
0000
0100
0000
0002
0000
0000
0103
0001
0000
1000
0000
,  // measure 55
0001
0000
0010
0000
0100
0010
0100
0000
1000
0000
0000
0001
0100
0000
0001
0000
,  // measure 56
1000
0000
0100
0000
0010
0100
0010
0000
0002
0000
0000
0013
0001
0000
1000
0000
,  // measure 57
0010
0000
0001
0000
0010
0000
0100
0000
0002
0000
0000
1003
0001
0000
0100
0000
,  // measure 58
1000
0001
0010
1000
1010
0010
0100
0001
,  // measure 59
0010
0100
0010
0001
1000
0000
0010
0000
,  // measure 60
1000
0000
0000
0100
0000
0000
0000
0000
0010
0000
0100
0000
1000
0000
0001
0000
,  // measure 61
1000
0000
0000
0100
0000
0010
0000
0100
0000
0000
0000
0000
1000
0000
0001
0000
,  // measure 62
0100
0000
0010
0100
0001
0000
0010
0100
,  // measure 63
1000
0000
0000
0000
0001
0000
1000
0000
0100
0000
0000
0010
0100
0000
0010
0000
,  // measure 64
0001
0000
1000
0001
0100
0000
0010
0100
,  // measure 65
0001
0000
0000
0010
0100
0000
0010
0000
0001
0000
0000
0000
0000
0000
0000
0000
;

//---------------dance-single - ----------------
#NOTES:
     dance-single:
     X-Scale 10:
     Medium:
     7:
     0.470120,0.480186,0.032583,0.105893,0.146622,404.000000,400.000000,4.000000,13.000000,0.000000,0.000000,0.470120,0.480186,0.032583,0.105893,0.146622,404.000000,400.000000,4.000000,13.000000,0.000000,0.000000:
// measure 0
0000
0000
0000
0000
,  // measure 1
0000
0000
0000
0000
,  // measure 2
0000
0000
0000
0000
,  // measure 3
1100
0000
1000
0000
0100
0000
1000
0100
,  // measure 4
1000
0000
0001
0000
0100
0000
0001
0100
,  // measure 5
0001
0000
0010
0000
0100
0000
0010
0100
,  // measure 6
0010
0001
1000
0010
,  // measure 7
1000
0000
0100
0000
0010
0000
0001
0010
,  // measure 8
0001
0000
0100
0000
0010
0000
0100
0010
,  // measure 9
0100
0000
0001
0000
1000
0000
0010
1000
,  // measure 10
0010
0000
0100
0000
0001
1000
0100
1000
,  // measure 11
0001
0000
0010
0100
1000
0000
0001
1000
,  // measure 12
0001
0000
0100
0001
1000
0000
0100
0010
,  // measure 13
0100
0000
1000
0001
0100
0000
0010
0100
,  // measure 14
0010
0000
1000
0100
0010
0100
1000
0100
,  // measure 15
0010
0000
0001
0010
0001
0000
1000
0001
,  // measure 16
1000
0000
0010
0100
0001
0000
0010
0100
,  // measure 17
0010
0000
0001
1000
0100
0000
0010
0100
,  // measure 18
0010
0000
0001
1000
0100
1000
0001
1000
,  // measure 19
0100
0000
0010
0100
1000
0000
0001
0100
,  // measure 20
0001
0000
0010
0100
1000
0000
0010
0100
,  // measure 21
0001
0000
0100
0010
1000
0000
0001
0100
,  // measure 22
0020
0000
0000
0000
1030
0000
0100
0000
0010
0000
0100
0000
1100
0000
0000
0100
,  // measure 23
1000
0000
0001
0000
0100
0000
0000
0000
0010
0000
0100
0000
0001
0000
0000
0010
,  // measure 24
0001
0000
1000
0000
0001
0000
0000
0000
0100
0000
0010
0000
0100
0000
0000
0001
,  // measure 25
0010
0000
0001
0000
1000
0000
0000
0000
0100
0000
0010
0000
0100
0000
0000
1000
,  // measure 26
0001
0000
0010
0000
1000
0000
0001
0000
0100
0000
1000
0000
0001
0000
0000
0100
,  // measure 27
0001
0000
1000
0000
0010
0000
0000
0000
0100
0000
0010
0000
1000
0000
0000
0001
,  // measure 28
0010
0000
0001
0000
0100
0000
0000
0000
0010
0000
0100
0000
0001
0000
0000
1000
,  // measure 29
0010
0000
1000
0000
0001
0000
0000
0000
0010
0000
0100
0000
1000
0000
0000
0100
,  // measure 30
0010
0100
1000
0100
0001
0100
1000
0001
,  // measure 31
0100
0000
0000
0000
0010
0000
0000
0000
1000
0000
0100
0000
0020
0000
0000
0030
,  // measure 32
0200
0000
0000
0300
2000
0000
3000
0002
0000
0000
0003
0000
0010
0000
0100
0000
,  // measure 33
1000
0000
0001
0000
0200
0000
0300
0010
0000
0100
0000
0020
0000
0000
0030
0000
,  // measure 34
0100
0000
0001
0000
1000
0000
0100
0000
0001
0000
0100
0000
1000
0000
0000
0010
,  // measure 35
1000
0000
0001
0000
0100
0000
0000
0000
0010
0000
0100
0000
0001
0000
0000
0010
,  // measure 36
0100
0000
0010
0000
0001
0000
0000
0000
1000
0000
0001
0000
0100
0000
0000
0010
,  // measure 37
0100
0000
0001
0000
0010
0000
0100
0000
1000
0000
0001
0000
1000
0000
0000
0100
,  // measure 38
0010
0100
1000
0001
0100
0010
2000
0000
,  // measure 39
3100
1000
0000
0000
0001
0100
0001
0000
,  // measure 40
0010
0100
0000
0000
0010
0001
0010
0000
,  // measure 41
0100
0010
0000
0000
0001
1000
0002
0000
,  // measure 42
0013
0100
1000
0001
1001
0000
0100
1000
,  // measure 43
0001
0000
0000
0000
0100
0010
0100
0000
0001
0000
0000
0000
1000
0000
0100
0000
,  // measure 44
0010
0000
0000
0000
0001
0010
0001
0000
1000
0000
0000
0000
0010
0000
0100
0000
,  // measure 45
0001
0000
0000
0000
1000
0001
1000
0000
0100
0000
0000
0000
0010
0000
0100
0000
,  // measure 46
1000
0100
0001
0100
1000
0000
0001
1000
,  // measure 47
0010
0000
0000
0000
0100
0010
0100
0000
0001
0000
0000
0000
0010
0000
0100
0000
,  // measure 48
1000
0000
0000
0000
0001
1000
0001
0000
0100
0000
0000
0000
0001
0000
1000
0000
,  // measure 49
0100
0000
0000
0000
0010
0100
0010
0000
0001
0000
0000
0000
1000
0000
0010
0000
,  // measure 50
0001
0010
0100
0010
1000
0100
0001
0100
,  // measure 51
0010
0001
1000
0001
0100
0000
0010
0000
,  // measure 52
1000
0000
0000
0002
0000
0000
0000
0003
0100
0000
0001
0000
0010
0000
0100
0000
,  // measure 53
1000
0000
0000
0100
0000
0010
0000
0002
0000
0000
0003
0000
1000
0000
0001
0000
,  // measure 54
0100
1000
0100
0001
0010
0000
0100
0010
,  // measure 55
0001
0000
0000
0000
1000
0001
1000
0000
0010
0000
0000
1000
0001
0000
1000
0000
,  // measure 56
0100
0000
0000
0000
0010
0100
0010
0000
0001
0000
0000
1000
0001
0000
0010
0000
,  // measure 57
1000
0000
0010
0000
0100
0000
1000
0000
0001
0000
0000
0100
0001
0000
1000
0000
,  // measure 58
0100
0001
0100
1000
1001
0000
0001
0000
,  // measure 59
1000
0000
0010
1000
0001
0000
0010
0000
,  // measure 60
0100
0000
0000
2000
0000
0000
0000
3000
0001
0000
0000
0000
1000
0000
0100
0000
,  // measure 61
0010
0000
0000
0100
0000
0010
0000
0002
0000
0000
0003
0000
1000
0000
0001
0000
,  // measure 62
1000
0000
0010
1000
0010
0000
0100
0010
,  // measure 63
0100
0000
0000
0000
0001
0000
0010
0000
0001
0000
0000
1000
0010
0000
1000
0000
,  // measure 64
0001
0000
0010
0100
0010
0000
0001
1000
,  // measure 65
0100
0001
0100
0010
0001
0000
0000
0000
;

//---------------dance-single - ----------------
#NOTES:
     dance-single:
     X-Scale 6:
     Easy:
     4:
     0.363063,0.373478,0.016291,0.089602,0.000000,312.000000,310.000000,2.000000,11.000000,0.000000,0.000000,0.363063,0.373478,0.016291,0.089602,0.000000,312.000000,310.000000,2.000000,11.000000,0.000000,0.000000:
// measure 0
0000
0000
0000
0000
,  // measure 1
0000
0000
0000
0000
,  // measure 2
0000
0000
0000
0000
,  // measure 3
0001
1000
0001
1000
,  // measure 4
0010
0100
0010
0100
,  // measure 5
0001
0010
0001
0010
,  // measure 6
0100
0000
1000
0000
0100
1000
0001
1000
,  // measure 7
0100
0010
0100
0010
,  // measure 8
0001
0010
0001
0010
,  // measure 9
0100
1000
0100
1000
,  // measure 10
0001
0000
0100
0000
0001
0010
0100
0010
,  // measure 11
0001
0000
1000
0010
1000
0000
0001
0010
,  // measure 12
0100
0000
0010
0001
0010
0000
0100
0010
,  // measure 13
0001
0000
1000
0010
1000
0000
0001
0100
,  // measure 14
0010
0000
0100
0010
0100
0001
1000
0100
,  // measure 15
0010
0000
0100
1000
0001
0000
0100
0010
,  // measure 16
0100
0000
0001
0010
0100
0000
0010
0001
,  // measure 17
0010
0000
0100
0010
0001
0000
1000
0001
,  // measure 18
1000
0000
0010
0100
0001
0010
0100
1000
,  // measure 19
0001
0000
0100
0001
0100
0000
0010
0100
,  // measure 20
0001
0000
0010
0100
0010
0000
0001
1000
,  // measure 21
0100
0000
0010
0100
0010
0000
0001
1000
,  // measure 22
0001
0000
1000
0100
0010
0100
1000
0000
,  // measure 23
0001
0000
1000
0000
0001
0010
0001
0000
,  // measure 24
0100
0000
0010
0000
1000
0010
1000
0000
,  // measure 25
0100
0000
0010
0000
0001
0010
0001
0000
,  // measure 26
0100
0000
0010
0100
0001
0010
0100
0000
,  // measure 27
1000
0000
0001
0000
1000
0100
1000
0000
,  // measure 28
0010
0000
0100
0000
0001
0100
0001
0000
,  // measure 29
0010
0000
0100
0000
0010
0001
0010
0000
,  // measure 30
0100
0000
1000
0001
0101
0000
1000
0000
,  // measure 31
0001
1000
0100
0020
,  // measure 32
0032
2003
3020
0130
,  // measure 33
0001
0010
0100
0010
,  // measure 34
0001
0000
1000
0001
0100
0001
1000
0000
,  // measure 35
0100
0000
0010
0000
0001
1000
0001
0000
,  // measure 36
0100
0000
0010
0000
0100
0000
0001
0010
,  // measure 37
0001
0000
1000
0100
0010
0100
1000
0000
,  // measure 38
0001
0000
0100
0001
1000
0001
0200
0000
,  // measure 39
0300
0100
0000
0020
,  // measure 40
0030
0010
0000
2000
,  // measure 41
3000
1000
0000
0001
,  // measure 42
0010
0001
0011
0010
,  // measure 43
0100
0000
1000
0001
1000
0000
0100
0000
,  // measure 44
0010
0000
0001
1000
0001
0000
0010
0000
,  // measure 45
0100
0000
0010
0001
0010
0000
0100
0000
,  // measure 46
1000
0010
0100
0010
1000
0000
0001
0000
,  // measure 47
0100
0000
0001
1000
0001
0000
0100
0000
,  // measure 48
0010
0000
1000
0010
1000
0000
0100
0000
,  // measure 49
0010
0000
0001
0010
0001
0000
1000
0000
,  // measure 50
0010
0100
0001
0100
0010
0000
1000
0000
,  // measure 51
0001
0010
0200
2300
,  // measure 52
3002
0203
0310
1000
,  // measure 53
0001
0000
0100
0001
0100
0000
0010
0000
,  // measure 54
1000
0100
0010
0100
1000
0000
0001
0000
,  // measure 55
0100
0000
0001
0000
1000
0000
0100
0010
,  // measure 56
0100
1000
0001
0010
,  // measure 57
0100
1000
0001
1000
0100
0000
0010
0000
,  // measure 58
0001
1000
0100
1000
0001
0000
0010
0000
,  // measure 59
0001
0010
0100
1000
,  // measure 60
0100
1000
0001
0100
,  // measure 61
0001
0100
0010
1000
,  // measure 62
0010
1000
0100
0010
,  // measure 63
0100
0010
0001
0010
,  // measure 64
0001
0010
0100
1000
,  // measure 65
0100
1000
0100
0000
;

//---------------dance-single - ----------------
#NOTES:
     dance-single:
     X-Scale 2:
     Beginner:
     2:
     0.137312,0.159451,0.000000,0.000000,0.000000,118.000000,118.000000,0.000000,0.000000,0.000000,0.000000,0.137312,0.159451,0.000000,0.000000,0.000000,118.000000,118.000000,0.000000,0.000000,0.000000,0.000000:
// measure 0
0000
0000
0000
0000
,  // measure 1
0000
0000
0000
0000
,  // measure 2
0000
0000
0000
0000
,  // measure 3
1000
0000
0000
0000
,  // measure 4
0100
0000
0000
0000
,  // measure 5
0010
0000
0000
0000
,  // measure 6
0001
0000
1000
0000
,  // measure 7
0001
0000
0000
0000
,  // measure 8
0010
0000
0000
0000
,  // measure 9
0100
0000
0000
0000
,  // measure 10
1000
0000
0001
0000
,  // measure 11
1000
0000
0100
0000
,  // measure 12
1000
0000
0100
0000
,  // measure 13
0010
0000
0001
0000
,  // measure 14
0010
0000
0001
0000
,  // measure 15
1000
0000
0010
0000
,  // measure 16
1000
0000
0010
0000
,  // measure 17
0100
0000
0001
0000
,  // measure 18
0100
0000
0001
0000
,  // measure 19
1000
0000
0010
0000
,  // measure 20
0100
0000
0001
0000
,  // measure 21
0010
0000
0100
0000
,  // measure 22
1000
0000
0000
0001
,  // measure 23
0000
0010
0000
0100
,  // measure 24
0000
0010
0000
0001
,  // measure 25
0000
1000
0000
0010
,  // measure 26
0000
0100
0000
0010
,  // measure 27
0000
1000
0000
0100
,  // measure 28
0000
0010
0000
0001
,  // measure 29
0000
0100
0000
0010
,  // measure 30
0000
1000
0001
1000
,  // measure 31
0000
0100
0000
0010
,  // measure 32
0000
0001
0000
1000
,  // measure 33
0000
0001
0000
0100
,  // measure 34
0000
0010
0000
1000
,  // measure 35
0000
0001
0000
0010
,  // measure 36
0000
0100
0000
0010
,  // measure 37
0000
0001
0000
1000
,  // measure 38
0000
0100
0000
1000
,  // measure 39
0000
0000
0000
0001
,  // measure 40
0000
0000
0000
0100
,  // measure 41
0000
0000
0000
0010
,  // measure 42
0000
0000
1000
0000
,  // measure 43
0100
0000
0010
0000
,  // measure 44
0001
0000
1000
0000
,  // measure 45
0100
0000
0010
0000
,  // measure 46
0001
1000
0001
0000
,  // measure 47
0100
0000
0010
0000
,  // measure 48
1000
0000
0001
0000
,  // measure 49
0100
0000
0010
0000
,  // measure 50
1000
0001
1000
0000
,  // measure 51
0100
0000
0010
0000
,  // measure 52
0001
0000
0100
0000
,  // measure 53
0010
0000
1000
0000
,  // measure 54
0100
0000
0010
0000
,  // measure 55
0001
0000
0100
0000
,  // measure 56
0010
0000
1000
0000
,  // measure 57
0001
0000
0010
0000
,  // measure 58
0100
0000
0000
1000
,  // measure 59
0000
0100
0000
1000
,  // measure 60
0000
0100
0000
0010
,  // measure 61
0000
0001
0000
0010
,  // measure 62
0000
0001
0000
1000
,  // measure 63
0000
0010
0000
0100
,  // measure 64
0000
0001
0000
1000
,  // measure 65
0000
0001
0000
0000
;
