#TITLE:APT.;
#SUBTITLE:;
#ARTIST:Rosé & Bruno Mars;
#TITLETRANSLIT:;
#SUBTITLETRANSLIT:;
#ARTISTTRANSLIT:Rose & Bruno Mars;
#GENRE:Pop Rock;
#CREDIT:;
#BANNER:APT-bn.png;
#BACKGROUND:APT-bg.png;
#LYRICSPATH:;
#CDTITLE:cdtitle.png;
#MUSIC:APT.ogg;
#OFFSET:-0.201000;
#SAMPLESTART:45.301998;
#SAMPLELENGTH:12.886000;
#SELECTABLE:YES;
#BPMS:0.000000=74.500000
,8.000000=149.000000
,133.000000=74.500000
,140.000000=149.000000
,206.000000=74.500000
,213.000000=149.000000
;
#STOPS:100.000000=1.208000
;
#BGCHANGES:0.000=APT.avi=1.000=0=0=0=StretchNoLoop====,
99999=-nosongbg-=1.000=0=0=0 // don't automatically add -songbackground-
;
#KEYSOUNDS:;
#ATTACKS:;

//---------------dance-single - ----------------
#NOTES:
     dance-single:
     X-Scale 3:
     Beginner:
     2:
     0.155929,0.197739,0.015373,0.000000,0.000000,142.000000,140.000000,2.000000,0.000000,0.000000,0.000000,0.155929,0.197739,0.015373,0.000000,0.000000,142.000000,140.000000,2.000000,0.000000,0.000000,0.000000:
0000
0000
0000
0000
,
0000
0000
0000
0000
,
1000
0000
0000
0000
,
0001
0000
0000
0000
,
1000
0000
0000
0000
,
0001
0000
0000
0000
,
0010
0000
0000
0000
,
0100
0000
0000
0000
,
0010
0000
0000
0000
,
0100
0000
0000
0000
,
1000
0000
0001
0000
,
1000
0000
0000
0001
,
0100
0000
0010
0000
,
0100
0000
0000
0000
,
0001
1000
0001
1000
,
0100
0000
0000
1000
,
0010
0000
1000
0000
,
0001
0000
1000
0001
,
1000
0000
0000
0000
,
0100
0000
0010
0000
,
0001
0000
0000
0000
,
1000
0000
0001
0000
,
0100
0000
0000
0000
,
0010
0000
1000
0000
,
0001
0000
0000
0000
,
0000
1001
0001
0000
,
1000
0000
0001
0000
,
1000
0000
0010
0000
,
1000
0000
0001
0000
,
0100
0000
0001
0000
,
1000
0000
0100
0000
,
1000
0000
0001
0000
,
0100
0000
0001
0000
,
0100
0000
0000
0000
,
0000
0000
0000
0000
,
1000
0001
1001
0000
,
0100
0000
0001
0000
,
1000
0000
0001
0000
,
0010
0000
0100
0000
,
1000
0000
0001
0000
,
1000
0000
0010
0000
,
1000
0000
0001
0000
,
0010
0000
0001
0000
,
1000
0000
0001
0000
,
1000
0000
0100
0000
,
1000
0000
0001
0000
,
1000
0000
0010
0000
,
1000
0000
0001
0000
,
0100
0000
0001
0000
,
1000
0000
0001
0000
,
0000
1000
0000
0000
,
0001
0000
0010
0000
,
0001
0000
1000
0000
,
0010
1000
0000
0001
,
0000
0100
0000
0001
,
0000
1000
0000
0100
,
0000
1000
0000
0001
,
0000
0010
0000
0100
,
0000
1000
0100
0010
,
0000
0100
0010
0001
,
0000
1000
0000
0001
,
0000
0100
0000
0001
,
0000
0010
0100
1000
,
0000
0010
0100
0001
,
0000
1000
0000
0010
,
0000
1000
0000
0001
,
0000
1000
0100
0010
,
0000
0100
1000
0001
,
0000
0100
0000
0001
,
0000
1000
0000
0010
,
0000
0100
0010
1000
,
0000
0001
0100
0010
,
0000
1000
0000
0001
,
0000
1000
1000
0000
;

//---------------dance-single - ----------------
#NOTES:
     dance-single:
     X-Scale 7:
     Easy:
     5:
     0.300877,0.395477,0.069180,0.245972,0.000000,274.000000,265.000000,9.000000,32.000000,0.000000,0.000000,0.300877,0.395477,0.069180,0.245972,0.000000,274.000000,265.000000,9.000000,32.000000,0.000000,0.000000:
0000
0000
0000
0000
,
0000
0000
0000
0000
,
0000
1000
0000
0001
,
0000
1000
0000
0001
,
0000
1000
0000
0001
,
1000
0000
0000
0010
0100
0010
0100
0000
,
0001
0000
0010
0010
0000
0000
0100
0000
,
1000
0000
0001
0001
0000
0000
1000
0000
,
0100
0000
0010
0010
0000
0000
0001
0000
,
1000
0000
0001
0100
0001
0100
0001
0000
,
1001
0000
1000
0100
0000
0100
1000
0000
,
0010
0000
0100
0001
0000
0001
0100
0000
,
0101
0000
0001
0010
0000
0010
0100
0000
,
1000
0000
0001
1000
0100
1000
0100
0000
,
0110
0001
0110
1000
,
0010
0000
1000
0100
0000
0100
0010
0000
,
0001
0000
1000
0001
0000
0001
0100
0000
,
0001
0000
0010
0200
0300
0200
0000
0300
,
1100
0000
1000
0001
0000
1000
0100
0000
,
1000
0001
0010
0001
,
1000
0000
0001
0100
0000
0010
1000
0000
,
0001
0010
0100
0010
,
0001
0000
1000
0100
0000
0010
0001
0000
,
1000
0010
1000
0001
,
0010
0000
0100
1000
0000
0001
0100
0000
,
0000
0000
1001
0000
0000
1000
0000
0001
,
1000
0000
0100
0000
0000
0010
0000
0001
,
0010
0000
0001
0000
0000
1000
0000
0100
,
0010
0000
1001
0000
0000
0001
1000
0001
,
1000
0000
0100
0000
0010
0001
0000
0000
,
1000
0000
0001
0000
0010
0100
0000
0000
,
1000
0000
0001
0000
0000
0010
0001
0000
,
1000
0000
0110
0000
0000
0100
0010
0100
,
0010
1000
0000
0001
,
0000
1000
0000
0001
,
1000
0001
1000
0001
2000
0000
3200
0000
,
0300
0000
2000
0000
3200
0000
0300
0010
,
0100
1000
0000
0001
0000
0000
0100
0001
,
0100
0000
0001
0000
1000
0100
1000
0000
,
0100
0000
0100
0000
0020
0030
0020
0030
,
0010
0020
0030
0020
0100
0000
1030
0000
,
0001
0010
0000
0010
0100
0000
1000
0001
,
1000
0000
1000
0000
0001
0000
0010
0100
,
1000
0000
0010
0100
0002
0000
2003
0000
,
3000
0000
0002
0000
2003
0000
3000
0100
,
0010
0100
0000
2000
0000
0000
0001
0000
,
0000
0010
3020
0100
,
0000
0000
1000
0000
2030
3000
2000
3000
,
0001
0002
0003
0002
0000
0000
1003
0000
,
0001
0000
1000
0000
0001
0000
0000
0100
,
0000
0000
0001
0000
0000
0100
0000
0000
,
0001
0000
0101
0000
,
1000
0000
0001
0000
,
1000
0000
0000
0100
,
0000
0010
0000
0100
,
0000
1000
0000
0001
,
0000
1000
0000
0010
,
0000
1000
0000
0002
,
0000
0013
0100
2000
,
0000
3010
1000
0002
,
0100
0000
1000
1003
,
0000
0100
0000
2000
,
0000
3100
0010
0002
,
0000
0103
0010
2000
,
0001
0000
0001
3001
,
0000
0100
0000
0002
,
0000
0103
0001
2000
,
0000
3100
0010
0002
,
0100
0000
1000
1003
,
0001
0000
0020
0000
,
0130
0010
0002
0000
,
0000
1003
0001
0200
,
0010
0000
0010
0310
,
0000
0100
0010
0100
0010
0000
0000
0000
;

//---------------dance-single - ----------------
#NOTES:
     dance-single:
     X-Scale 10:
     Medium:
     7:
     0.419470,0.423726,0.222912,0.507318,0.015373,382.000000,353.000000,29.000000,66.000000,0.000000,0.000000,0.419470,0.423726,0.222912,0.507318,0.015373,382.000000,353.000000,29.000000,66.000000,0.000000,0.000000:
0000
0000
0000
0000
,
0000
0000
0000
0000
,
0001
0000
0010
0100
0000
0010
0001
0000
,
1000
0000
0100
0010
0000
0100
1000
0000
,
0001
0000
0100
0010
0000
0100
0001
0000
,
1000
0000
0000
0001
1000
0001
1000
0000
,
0001
0000
1000
0010
0000
0100
0001
0000
,
0010
0000
0100
1000
0000
0001
0010
0000
,
0100
0000
1000
0001
0000
0100
0010
0000
,
1000
0000
0000
0001
1000
0001
1000
0000
,
1001
0000
0100
1000
0000
0001
0100
0000
,
0001
0000
1000
0100
0000
0010
0001
0000
,
1000
0000
0100
0010
0000
0100
1000
0000
,
0001
0000
1000
0100
0001
0100
1000
0000
,
0001
0000
0010
0100
0000
0010
0001
0000
,
1000
0000
0010
0100
0000
0001
1000
0000
,
0100
0000
0010
0001
0000
1000
0010
0000
,
1000
0000
0001
0020
0030
0020
0000
0030
,
0011
0000
0001
0200
0000
1300
0100
0010
,
2000
3002
0203
0320
,
0032
0000
0013
2000
0000
3001
0010
0100
,
2000
3200
0320
0031
,
0201
0000
0310
2000
0000
3100
0001
1000
,
0020
0032
0203
0302
,
0013
1000
0001
0100
1000
0001
0200
0000
,
0300
0000
1001
0000
0100
1000
0000
0001
,
1000
0000
0100
0000
0010
0001
0000
0010
,
0100
0000
1000
0000
0001
0100
0000
0010
,
1000
0000
0010
0000
0001
0010
0100
0010
,
1000
0000
0001
0000
1000
0010
0000
0100
,
0001
0000
0010
0000
0100
0010
0000
0001
,
0010
0000
0100
0000
1000
0001
0000
0100
,
0001
0000
0010
0000
1000
0010
0100
0010
,
0001
0000
0000
0000
0000
0000
1000
1000
0000
0000
1000
0000
0000
0000
0100
0100
,
0000
0000
0100
0000
0000
0000
0010
0010
0000
0000
0010
0000
0000
0000
0001
0001
,
0010
0100
0010
0100
2000
0000
3200
0000
,
1300
0001
0200
0000
0302
0000
0013
0100
,
0000
0100
1000
0000
0001
0000
1000
0010
,
1000
0000
1010
0000
0001
0010
0001
0000
,
0011
0110
1010
1000
,
1000
0001
0000
1000
0010
0000
1000
0000
,
0001
0100
0001
0000
1000
0000
0100
0010
,
0100
0000
0110
0000
1000
0000
0001
0010
,
0100
0000
0010
0100
1000
0000
0001
0010
,
0000
0010
0100
0000
1000
0000
0001
0100
,
0010
0000
1010
0000
1000
0000
0001
0010
,
0100
0000
1001
0000
0100
0001
1000
0000
,
1001
0110
1001
1000
,
0100
0010
0000
0010
0001
0000
1000
0001
,
0000
0001
0100
0000
0101
0000
0000
1100
,
0000
0000
0101
0000
0000
1100
0000
0000
,
0101
1000
1001
0000
,
0110
0000
1100
0000
,
0101
0000
0001
1000
0001
0000
1001
0000
,
1000
0100
0000
1000
0001
0010
0100
0000
,
0010
0000
0001
0000
1000
0000
0001
0010
,
1000
0010
0100
1000
0001
0000
0010
0000
,
1000
0100
0001
2001
,
0100
3002
0203
0320
,
1000
0100
0032
0000
0023
0000
0230
0000
,
0001
1000
0000
1000
0302
0003
0020
0030
,
2000
3000
0200
0300
0002
0003
0102
0000
,
1000
2003
3020
0230
,
1000
0010
0302
0000
2003
0000
3200
0000
,
1000
0001
0000
0001
2300
3000
0200
0300
,
0002
0003
0020
0030
2000
3000
1020
0000
,
0001
0230
0302
0023
,
1000
0100
0032
0000
2003
0000
3200
0000
,
0001
0010
0000
0010
2300
3000
0200
0300
,
0002
0003
0020
0030
2000
3000
2010
0000
,
0001
3020
2030
3200
,
0001
0010
2300
0000
3002
0000
0023
0000
,
0001
1000
0000
1000
0031
0000
0011
0000
,
0001
1000
0001
1000
0001
0000
0000
0000
;

//---------------dance-single - ----------------
#NOTES:
     dance-single:
     X-Scale 11:
     Hard:
     8:
     0.518299,0.536719,0.438138,0.284405,0.034590,472.000000,415.000000,57.000000,37.000000,0.000000,0.000000,0.518299,0.536719,0.438138,0.284405,0.034590,472.000000,415.000000,57.000000,37.000000,0.000000,0.000000:
// measure 0
0000
0000
0000
0000
,  // measure 1
0000
0000
0000
0000
,  // measure 2
0001
0000
1001
1000
0000
1100
0100
0000
,  // measure 3
1000
0000
1001
0001
0000
0101
0100
0000
,  // measure 4
0001
0000
1001
1000
0000
1100
1000
0000
,  // measure 5
0001
0000
1000
0100
0001
0100
1000
0000
,  // measure 6
0100
0000
1100
0100
0000
1001
0001
0000
,  // measure 7
0100
0000
0110
0010
0000
1001
1000
0000
,  // measure 8
0100
0000
1001
0001
0000
0101
0100
0000
,  // measure 9
0001
0000
0000
0000
1001
0000
0001
1000
0001
0000
1000
0000
0001
0000
0000
0000
,  // measure 10
1100
0001
1000
0000
1000
0001
1000
0000
,  // measure 11
0001
0100
0010
2000
0000
0001
3001
0000
,  // measure 12
0011
0000
0001
0001
0000
1000
1000
0000
,  // measure 13
1001
0000
1000
0010
0001
0010
1000
0000
,  // measure 14
2010
0000
3002
0100
2003
0000
3002
0100
,  // measure 15
1003
0010
0100
0002
0000
1000
1003
0000
,  // measure 16
0101
0000
0100
0001
1000
0000
0001
0000
,  // measure 17
1000
0000
0001
0010
1000
0010
0001
0010
,  // measure 18
0200
0000
1300
0002
0000
0103
0010
1000
,  // measure 19
0002
0023
2030
3200
,  // measure 20
0302
0000
1003
0200
0000
0301
0100
0010
,  // measure 21
0002
0000
0023
0000
0230
1000
1300
0000
,  // measure 22
2100
0000
3001
0200
0000
1300
0100
0001
,  // measure 23
2000
3020
0032
0203
,  // measure 24
1300
0010
0100
0010
2000
0001
0002
0000
,  // measure 25
3003
0000
0110
0000
0010
1000
0000
0010
,  // measure 26
1000
0001
1000
0000
0100
0010
0000
0100
,  // measure 27
0010
0001
1000
0000
0001
0100
0000
0001
,  // measure 28
0100
0001
1000
0000
0001
0100
1000
0100
,  // measure 29
0001
0000
1000
0000
0001
0010
0000
0001
,  // measure 30
0100
0010
0100
0000
1000
0100
0000
0001
,  // measure 31
0100
0010
1000
0000
0001
1000
0000
0100
,  // measure 32
0010
0000
0001
0000
1000
0000
0000
0000
0001
0000
1000
0001
1000
0000
0001
0000
,  // measure 33
1000
0000
0000
0000
1001
0000
0001
0001
0000
0000
0001
0000
0000
0000
0100
0100
,  // measure 34
0000
0000
0100
0000
0000
0000
0001
0001
0000
0000
0001
0000
0000
0000
1000
1000
,  // measure 35
0001
1000
0001
1000
1001
0000
0100
1000
,  // measure 36
0000
1000
0001
0000
0100
0000
0001
0010
,  // measure 37
0000
0010
0100
0000
1000
0000
0001
0100
,  // measure 38
0001
0000
0001
0000
1000
0100
1000
0000
,  // measure 39
1000
0100
0001
0100
1000
0000
0001
0010
,  // measure 40
0001
0001
0000
1000
0010
0000
1000
0100
,  // measure 41
0001
0100
0010
0002
1000
0000
0103
0001
,  // measure 42
0100
0000
0100
0000
0001
0010
1000
0001
,  // measure 43
0100
0000
1000
0100
1000
0000
0001
0000
1001
0000
0000
0000
0100
0000
1000
0000
,  // measure 44
0001
0000
0000
0000
1001
0000
0000
0000
0010
0000
0001
0010
0001
0000
1000
0000
,  // measure 45
0010
1000
0100
0020
0000
0000
0031
0010
,  // measure 46
0001
0000
0011
0000
1000
0001
1000
0100
,  // measure 47
0001
1000
0010
0100
1000
0000
1100
0000
,  // measure 48
1000
1000
1001
0002
1000
0000
0013
0100
,  // measure 49
1000
0001
1000
0010
1010
0000
0001
0011
,  // measure 50
0000
1000
1100
0000
0001
1001
0000
0100
,  // measure 51
0110
0010
1000
0001
2002
0000
0000
3003
,  // measure 52
2200
0000
0000
3300
0202
0000
0000
0303
,  // measure 53
0220
0000
0000
0330
1000
0000
0010
0000
0001
0000
0010
0000
1000
0000
0000
0000
,  // measure 54
0001
0010
0000
0001
1000
0100
1100
0000
,  // measure 55
1000
0001
0000
0100
0001
1000
0100
0000
,  // measure 56
0010
0100
0000
0100
1000
0000
1001
0000
,  // measure 57
0001
0000
1000
0001
1000
0000
0100
0000
0010
0000
0100
0000
1100
0000
0000
0000
,  // measure 58
0100
0010
0001
0000
0011
0000
0001
0000
,  // measure 59
0010
0100
1000
0000
1010
0000
0001
0000
,  // measure 60
1000
0001
0100
0000
0101
0000
1100
0000
,  // measure 61
1000
0100
0001
0100
1000
0000
0001
0000
,  // measure 62
0100
0001
1000
0000
1001
0000
0001
0000
,  // measure 63
0010
0100
1000
0000
1100
0000
0001
0000
,  // measure 64
1000
0010
0100
0000
0110
0000
1001
0000
,  // measure 65
0001
0100
1000
0100
0001
1000
0001
0000
,  // measure 66
1000
0100
0001
1000
0010
0100
1000
0000
,  // measure 67
0001
0100
0010
0100
1000
0100
0002
0000
,  // measure 68
0100
0100
0000
1000
1003
0000
1001
0000
,  // measure 69
0001
0100
1000
0100
0001
0000
1000
0000
,  // measure 70
0001
0011
0000
1000
1010
0000
0101
0000
,  // measure 71
1000
1100
0000
0001
1001
0000
0110
0000
,  // measure 72
0001
0101
0000
1000
1001
0000
0011
0000
,  // measure 73
0001
0010
1000
0010
0001
0000
0000
0000
;
