#TITLE:ANTONYMPH;
#SUBTITLE:;
#ARTIST:Vylet Pony;
#TITLETRANSLIT:;
#SUBTITLETRANSLIT:;
#ARTISTTRANSLIT:;
#GENRE:Progressive Dance Pop;
#CREDIT:;
#BANNER:ANTONYMPH-bn.png;
#BACKGROUND:ANTONYMPH-bg.png;
#LYRICSPATH:;
#CDTITLE:cdtitle.png;
#MUSIC:ANTONYMPH.ogg;
#OFFSET:-0.002000;
#SAMPLESTART:29.093000;
#SAMPLELENGTH:14.545000;
#SELECTABLE:YES;
#BPMS:0.000000=132.000000
;
#STOPS:
;
#BGCHANGES:0.000=ANTONYMPH.avi=1.000=1=0=0=StretchNoLoop==CrossFade==,
99999=-nosongbg-=1.000=0=0=0 // don't automatically add -songbackground-
;
#KEYSOUNDS:;
#ATTACKS:;

//---------------dance-single - ----------------
#NOTES:
     dance-single:
     X-Scale 3:
     Beginner:
     2:
     0.114571,0.159827,0.015276,0.000000,0.000000,105.000000,103.000000,2.000000,0.000000,0.000000,0.000000,0.114571,0.159827,0.015276,0.000000,0.000000,105.000000,103.000000,2.000000,0.000000,0.000000,0.000000:
0000
0000
0000
0000
,
0000
0000
0000
0000
,
0000
0000
0000
0000
,
0000
0000
0000
0000
,
0001
0000
0000
0000
,
0010
0000
0000
0000
,
0100
0000
0000
0000
,
1000
0000
0000
0000
,
0001
0000
1000
0000
,
0010
0000
1000
0000
,
0001
0000
1000
0000
,
0010
0000
1000
0000
,
0001
0000
0010
0000
,
0100
0000
0010
0000
,
0001
0000
0010
0000
,
0100
0000
1000
0000
,
1001
0000
0001
0000
,
0100
0000
0001
0000
,
1000
0000
0010
0000
,
1000
0000
0100
0000
,
1000
0000
0001
0000
,
0010
0000
0001
0000
,
0100
0000
0001
0000
,
0010
0000
0100
0000
,
1000
0000
0001
0000
,
1000
0000
0010
0000
,
1000
0000
0001
0000
,
0100
0000
0001
0000
,
0010
0000
0100
0000
,
0010
0000
0001
0000
,
1000
0000
0001
0000
,
0100
0000
0001
0000
,
1000
0000
0000
0000
,
0000
0000
0000
0000
,
0001
0000
0000
0000
,
0010
0000
0000
0000
,
0100
0000
0000
0000
,
1000
0000
0000
0000
,
0010
0000
0000
0000
,
0100
0000
0000
0000
,
0001
0000
0000
0000
,
1000
0000
0000
0000
,
0100
0000
0000
0000
,
0010
0000
0000
0000
,
0001
0000
0000
0000
,
1000
0000
0000
0000
,
1001
0000
0000
0000
,
0001
0000
0000
0000
,
0100
0000
0001
0000
,
1000
0000
0001
0000
,
0100
0000
0001
0000
,
0010
0000
0100
0000
,
0010
0000
0001
0000
,
1000
0000
0001
0000
,
1000
0000
0010
0000
,
1000
0000
0001
0000
,
0100
0000
0001
0000
,
0010
0000
0100
0000
,
1000
0000
0001
0000
,
1000
0000
0010
0000
,
1000
0000
0001
0000
,
1000
0000
0000
0000
,
0001
0000
0000
0000
,
0100
0000
0000
0000
,
0010
0000
0000
0000
,
1000
0000
0000
0000
,
0100
0000
0000
0000
,
0010
0000
0000
0000
,
0001
0000
0000
0000
,
1000
0000
0000
0001
;

//---------------dance-single - ----------------
#NOTES:
     dance-single:
     X-Scale 7:
     Easy:
     5:
     0.338258,0.372929,0.022914,0.435370,0.000000,310.000000,307.000000,3.000000,57.000000,0.000000,0.000000,0.338258,0.372929,0.022914,0.435370,0.000000,310.000000,307.000000,3.000000,57.000000,0.000000,0.000000:
// measure 0
0000
0000
0000
0000
,  // measure 1
0000
0000
0000
0000
,  // measure 2
0000
0000
0000
0000
,  // measure 3
0000
0000
0000
0000
,  // measure 4
1000
0000
0000
0001
0010
0000
0001
0000
,  // measure 5
1000
0000
0000
0100
0010
0000
0100
0000
,  // measure 6
1000
0000
0000
0001
0100
0000
0001
0000
,  // measure 7
1000
0000
0000
0100
0000
0000
0010
0000
,  // measure 8
0011
0001
1000
0001
,  // measure 9
0010
0001
1000
0100
,  // measure 10
0020
0230
1300
0100
,  // measure 11
0010
0001
0100
0001
,  // measure 12
0010
0001
1000
0001
,  // measure 13
0100
0010
0100
0001
,  // measure 14
1000
0100
0010
0001
,  // measure 15
1000
0001
0200
0000
,  // measure 16
0310
0000
0100
0000
0001
0010
0200
0000
,  // measure 17
0310
0000
0001
1000
0020
0000
0130
0000
,  // measure 18
0001
0000
0010
0000
0100
0010
0002
0000
,  // measure 19
1003
0001
0020
0100
,  // measure 20
0031
0000
1000
0000
0001
0010
0200
0000
,  // measure 21
2300
3002
2003
3200
,  // measure 22
0320
0100
0001
0130
,  // measure 23
0010
0001
1000
0001
0010
0100
2000
0000
,  // measure 24
3010
1000
0001
0000
0100
0001
1000
0000
,  // measure 25
0100
0010
0001
1000
0002
0000
0103
0000
,  // measure 26
0001
0010
0100
0000
0010
0100
1000
0000
,  // measure 27
0001
0100
0010
1000
0200
0000
0320
0000
,  // measure 28
0031
1000
0010
0000
0100
0001
0010
0000
,  // measure 29
0100
1000
0001
0100
0020
0000
1030
0000
,  // measure 30
0001
0010
0100
0000
0010
0001
1000
0000
,  // measure 31
0200
2300
3002
0100
,  // measure 32
1003
0000
0100
0000
,  // measure 33
0010
0000
0001
0000
,  // measure 34
1000
0001
2000
0000
3010
0000
0100
0000
,  // measure 35
0001
0010
0001
0200
0000
0000
0300
0000
,  // measure 36
0001
0000
0010
0000
0100
0010
0100
0000
,  // measure 37
1000
0001
0100
0020
0000
0030
0000
0000
,  // measure 38
0100
0000
0001
0010
0200
0000
0310
0002
,  // measure 39
0000
0103
0001
2000
0000
3010
2000
0000
,  // measure 40
3010
0000
1000
0000
0001
0100
0001
0020
,  // measure 41
0000
0130
1000
0020
0000
0230
0000
0302
,  // measure 42
0100
1003
0001
0010
,  // measure 43
0100
0010
0001
0000
1000
0002
0000
0203
,  // measure 44
0000
0000
0000
0300
0000
0000
0002
0000
,  // measure 45
2003
0000
3000
0000
,  // measure 46
1001
0000
1000
0000
0001
0100
0002
0000
,  // measure 47
0013
0000
0100
1000
0200
0000
0320
0000
,  // measure 48
0031
0000
1000
0000
0001
0010
0200
0000
,  // measure 49
0310
0000
0001
1000
0020
0000
0100
0000
,  // measure 50
1030
0000
0010
0000
0100
0001
2000
0000
,  // measure 51
3002
0000
0203
0000
0302
0000
0103
0001
,  // measure 52
1000
0100
1000
0100
,  // measure 53
1000
0010
0100
0001
0020
0000
0030
0000
,  // measure 54
1001
0000
1000
0010
0100
0001
0020
0000
,  // measure 55
0130
0010
0001
1000
0200
0000
0310
0000
,  // measure 56
0100
1000
0002
0000
0103
0001
0020
0000
,  // measure 57
0130
0010
0001
1000
0020
0000
2030
0000
,  // measure 58
3001
0000
0010
0100
1000
0000
0001
0000
,  // measure 59
1000
0001
0100
0000
0002
0000
1003
0000
,  // measure 60
0001
0010
0100
0000
1000
0000
0001
0100
,  // measure 61
0002
2003
3020
0230
,  // measure 62
0301
0000
1000
0000
0001
0000
0010
0100
,  // measure 63
1000
0000
0010
0000
1000
0000
0100
0010
,  // measure 64
0001
0000
1000
0000
0001
0000
0100
0001
,  // measure 65
1000
0000
0001
0000
0010
0000
0100
0010
,  // measure 66
0001
0000
1000
0000
0010
0000
1000
0100
,  // measure 67
0010
0000
0100
0000
1000
0000
0001
1000
,  // measure 68
0010
1000
0001
0010
,  // measure 69
0100
0000
0000
0010
0000
0000
0001
0000
;

//---------------dance-single - ----------------
#NOTES:
     dance-single:
     X-Scale 10:
     Medium:
     7:
     0.451738,0.506118,0.122209,0.374266,0.152762,414.000000,398.000000,16.000000,49.000000,0.000000,0.000000,0.451738,0.506118,0.122209,0.374266,0.152762,414.000000,398.000000,16.000000,49.000000,0.000000,0.000000:
// measure 0
0000
0000
0000
0000
,  // measure 1
0000
0000
0000
0000
,  // measure 2
0000
0000
0000
0000
,  // measure 3
0000
0000
0000
0000
,  // measure 4
0001
0000
0000
0001
0000
0000
0001
0000
0100
0000
0000
0000
0100
0000
0010
0000
,  // measure 5
1000
0000
0000
1000
0000
0000
0001
0000
0100
0000
0000
0000
0010
0000
0000
0010
,  // measure 6
0100
0000
0000
0001
0000
0000
0001
0000
0010
0000
0000
0000
0010
0000
0100
0000
,  // measure 7
1000
0000
0000
1000
0000
0000
0001
0000
0000
0010
0000
0000
0100
0000
0000
0000
,  // measure 8
1001
0000
0200
0000
0301
1000
0001
0000
,  // measure 9
1000
0100
1000
0010
0000
0010
0001
0000
,  // measure 10
1001
0000
0110
0000
0101
0000
1000
0001
,  // measure 11
0010
0000
1000
0000
0010
0000
0100
0000
0000
0010
0000
0000
0001
0000
0000
0000
,  // measure 12
1000
0000
0001
0000
0100
0001
1000
0000
,  // measure 13
0010
0000
1000
0000
0001
0000
0010
0000
0000
0100
0000
0000
1000
0000
0000
0000
,  // measure 14
0001
0010
0001
0100
0000
0100
1000
0100
,  // measure 15
0001
1000
0200
0010
,  // measure 16
1300
0000
0000
1000
0100
0000
1000
0000
0001
0000
0000
0000
0010
0000
0100
0000
,  // measure 17
1000
0000
0000
0010
1000
0000
0001
0000
0100
0000
1000
0000
0100
0000
1000
0000
,  // measure 18
0100
0000
0000
0100
0001
0000
1000
0000
0001
0000
0000
0000
0010
0000
0100
0000
,  // measure 19
1000
0000
0000
0010
1000
0000
0001
0000
0100
0000
0000
0000
0010
0000
0100
0000
,  // measure 20
0001
0000
0000
1000
0100
0000
1000
0000
0001
0000
0000
0000
0100
0000
0001
0000
,  // measure 21
0010
0000
0000
0010
0100
0000
1000
0000
0010
0000
0001
0000
0010
0000
0100
0010
,  // measure 22
1000
1010
0011
1010
,  // measure 23
0011
0000
0000
0001
0000
0000
0100
0000
0000
1000
0000
0000
0020
0000
0000
0000
,  // measure 24
0031
0000
0100
0001
1000
0001
0020
0000
,  // measure 25
0031
0010
1000
0001
0200
0000
1300
0010
,  // measure 26
0100
0001
2000
0000
3100
0010
0001
1000
,  // measure 27
0010
0001
0010
0100
0020
0000
2030
0001
,  // measure 28
3001
0000
0000
0100
0010
0000
0100
0000
1000
0000
0100
0000
0001
0000
1000
0000
,  // measure 29
0010
0100
0001
0010
0200
0000
0310
0100
,  // measure 30
1000
0001
0100
0010
0001
0010
1000
0100
,  // measure 31
1000
0000
0000
0001
0000
0000
0100
0000
0201
0000
0000
0000
1000
0000
0000
0000
,  // measure 32
0301
0000
0100
0000
0010
0000
1000
0000
0100
1000
0001
0000
0010
0000
1000
0000
,  // measure 33
0010
0100
1000
0001
0010
0200
0000
0000
,  // measure 34
0310
0100
2000
0000
3001
0100
0010
1000
,  // measure 35
0001
0100
0010
0200
0000
0000
0300
0100
,  // measure 36
1000
0100
0001
1000
0001
0100
0010
0100
,  // measure 37
0001
1000
0010
2000
0000
3000
1000
0100
,  // measure 38
0002
0000
1003
0010
0002
0000
0013
0200
,  // measure 39
0000
0301
0100
2000
0000
3010
2000
0000
,  // measure 40
3100
0010
0001
1000
0001
0100
0010
2000
,  // measure 41
0000
3020
0000
0032
0000
0203
0000
2300
,  // measure 42
0100
0000
0001
0000
3100
0010
0001
1000
,  // measure 43
0001
0100
0010
0100
0001
0020
0000
0230
,  // measure 44
0000
0300
0000
0020
,  // measure 45
0230
0000
0300
0000
,  // measure 46
1001
0000
1000
0001
0100
0001
2000
0000
,  // measure 47
3010
1000
0001
0100
0020
0000
0031
0010
,  // measure 48
1000
0001
0100
0001
1000
0100
0020
0000
,  // measure 49
1030
0010
0001
0100
0002
0000
0100
0000
,  // measure 50
1003
0001
0100
1000
0100
0001
2000
0000
,  // measure 51
3020
0032
0203
2300
,  // measure 52
3001
0010
0011
0000
1010
0000
0011
0000
,  // measure 53
1010
1000
0100
0010
0000
0000
0000
0000
,  // measure 54
0101
0000
0001
0000
0100
0000
0001
0000
1000
0000
0001
0000
0100
0000
0010
0100
,  // measure 55
0020
0000
2030
0000
3100
0010
0001
1000
,  // measure 56
0200
0001
0010
2300
,  // measure 57
3001
0000
0100
0000
0010
0000
1000
0000
0010
0000
0100
0000
0001
0000
0010
0001
,  // measure 58
0010
0000
0001
0000
1000
0000
0001
0000
0100
0000
0010
0000
1000
0000
0100
0010
,  // measure 59
0200
0000
2300
0000
3001
0010
1000
0010
,  // measure 60
0002
0010
0100
2003
,  // measure 61
3020
0030
0020
0030
0200
0300
0200
0300
,  // measure 62
1001
0000
0000
1000
0000
0000
0010
0000
0000
1000
0000
0000
0100
0000
0010
0000
,  // measure 63
0001
0000
0000
0100
0000
0000
1000
0000
0000
0100
0000
0000
0001
0000
0010
0000
,  // measure 64
0100
0000
0000
1000
0000
0000
0001
0000
0000
1000
0000
0000
0010
0000
1000
0000
,  // measure 65
0100
0000
0000
0001
0000
0000
0010
0000
0000
1000
0000
0000
0001
0000
0000
0000
,  // measure 66
0100
0000
0000
0001
0000
0000
1000
0000
0000
0001
0000
0000
0100
0000
0010
0000
,  // measure 67
0001
0000
0000
0010
0000
0000
1000
0000
0000
0001
0000
0000
1000
0000
0000
0010
,  // measure 68
0100
0000
0000
0001
0000
0000
0010
0000
0000
0100
0000
0000
1000
0000
0001
0000
,  // measure 69
0100
0000
0000
0100
0000
0000
0001
0000
0000
0001
0000
0000
1000
0000
0000
0000
;

//---------------dance-single - ----------------
#NOTES:
     dance-single:
     X-Scale 13:
     Hard:
     9:
     0.539030,0.587082,0.145123,0.305523,0.271152,494.000000,475.000000,19.000000,40.000000,0.000000,0.000000,0.539030,0.587082,0.145123,0.305523,0.271152,494.000000,475.000000,19.000000,40.000000,0.000000,0.000000:
// measure 0
0000
0000
0000
0000
,  // measure 1
0000
0000
0000
0000
,  // measure 2
0000
0000
0000
0000
,  // measure 3
0000
0000
0000
0000
,  // measure 4
1000
0000
0000
1000
0000
0000
0100
0000
0001
0000
0000
0000
0100
0000
0010
0000
,  // measure 5
0001
0000
0000
0001
0000
0000
1000
0000
0001
0000
0000
0000
1000
0000
0010
0100
,  // measure 6
0001
0000
0000
0001
0000
0000
0100
0000
0010
0000
0000
0000
0001
0000
0010
0000
,  // measure 7
0100
0000
0000
0100
0000
0000
0001
0000
0000
1000
0000
0000
0010
0000
0000
0000
,  // measure 8
1001
0000
0000
1000
0000
0000
0001
0000
0000
0100
0000
0000
1000
0000
0100
0000
,  // measure 9
0001
0000
0000
0001
0000
0000
0010
0000
0000
0010
0000
0000
1000
0000
0010
0000
,  // measure 10
0001
0000
0000
0010
0100
0000
1000
0000
0001
0000
0000
0000
1000
0000
0100
0000
,  // measure 11
0010
0000
0000
0010
0000
0000
0001
0000
0000
1000
0000
0000
1001
0000
0000
0000
,  // measure 12
0001
0000
0000
0100
0001
0000
1000
0000
0000
1000
0000
0000
0001
0000
0100
0000
,  // measure 13
0010
0000
0000
0010
0001
0000
0010
0000
0000
1000
0000
0000
0100
0000
0000
0100
,  // measure 14
0010
0000
0000
0100
1000
0000
0001
0000
0000
0001
0000
0000
1000
0000
0010
0000
,  // measure 15
0001
0000
0010
0000
2000
0000
3000
0000
0020
0000
0000
0000
1030
0001
1000
0001
,  // measure 16
1000
0000
0000
1000
0000
0000
0100
0000
0001
0000
0100
0000
0020
0000
0000
0000
,  // measure 17
1030
0010
0001
0010
0200
0000
0310
0100
,  // measure 18
1000
0000
0000
1000
0000
0000
0010
0000
1000
0000
0001
0000
1000
0000
0010
0000
,  // measure 19
0100
0000
0000
0100
0000
0000
0001
0000
1000
0000
0100
0010
0002
0000
0000
0000
,  // measure 20
0103
0000
0000
0100
0000
0000
0100
0000
0010
0000
1000
0000
0200
0000
0000
0000
,  // measure 21
0302
0000
0000
0000
0023
0000
0000
0000
2030
0000
0000
0000
3001
0000
1000
0001
,  // measure 22
1000
0000
1000
0001
0011
0000
0001
0100
,  // measure 23
1001
0000
0001
0000
1000
0000
0010
0000
1000
0000
0001
0000
0010
0100
0010
0001
,  // measure 24
0010
0000
0100
0010
0001
1000
0020
0000
,  // measure 25
0031
0000
0010
0000
1000
0000
0001
0000
0200
0000
0000
0000
1300
0000
0100
0010
,  // measure 26
0100
0001
1000
0010
0100
1000
0100
0001
,  // measure 27
1000
0001
0010
0100
0110
0000
1001
1000
,  // measure 28
0010
0000
0000
0010
1000
0000
0001
0000
0100
0000
0001
0000
0010
0000
1000
0000
,  // measure 29
0010
0000
0000
0100
0010
0000
0001
0000
1000
0000
0010
0000
0100
0000
0001
0000
,  // measure 30
1000
0000
0000
1000
0001
0000
0100
0000
0010
0000
0001
0000
1000
0000
0001
0000
,  // measure 31
0100
1000
1001
0000
1000
0001
0101
0000
,  // measure 32
1000
0001
0100
0000
0001
0010
0100
0000
0010
0100
1000
0000
0001
1000
0010
0000
,  // measure 33
1000
1000
0001
0001
0100
0100
0200
0000
,  // measure 34
0301
0100
0020
0000
0031
0010
1000
0100
,  // measure 35
0001
0100
1000
0020
0001
0000
0130
0010
,  // measure 36
1000
0001
0010
1000
0010
0100
0010
0001
,  // measure 37
0100
0001
1000
0020
0001
0000
1030
0001
,  // measure 38
2000
0000
3010
0100
0002
0000
0103
0020
,  // measure 39
0000
0031
0010
2000
0000
3001
0020
0000
,  // measure 40
1030
0001
0100
0010
0001
1000
0001
0200
,  // measure 41
0000
0301
1000
0200
0000
0302
0000
0203
,  // measure 42
0010
0000
0000
0000
1300
0000
0100
0000
0010
0100
1000
0000
0001
0000
0100
0000
,  // measure 43
1000
0001
0100
0010
0001
0100
0001
1000
,  // measure 44
2001
0000
0010
0000
0001
0000
0200
0300
,  // measure 45
3020
0000
0000
0000
0001
0000
0000
0000
1030
0010
0100
0001
0010
0100
1000
0001
,  // measure 46
1000
0000
1000
0000
1000
0000
1000
0000
0001
0000
0001
0000
0001
0000
0001
0100
,  // measure 47
0010
0010
0200
0000
0301
1000
0020
0030
,  // measure 48
1001
0000
1000
0000
0010
0000
0100
0000
0001
0000
0010
0000
0100
0000
1000
0100
,  // measure 49
0010
0000
1000
0000
0010
0000
0001
0000
1000
0000
0001
0000
0100
0000
0010
0100
,  // measure 50
0001
0000
0100
0000
1000
0000
0100
0000
0001
0000
1000
0000
0010
0000
1000
0001
,  // measure 51
0010
0001
0200
0000
1300
0100
0010
0100
,  // measure 52
0001
0000
0011
1000
1001
0000
1100
0001
,  // measure 53
1001
0000
1000
0000
0010
0000
1000
0000
0100
0010
0001
1000
0002
0000
0003
0020
,  // measure 54
0100
0000
0130
0000
0010
0000
0010
0000
0001
0000
0001
0000
1000
0000
0001
0100
,  // measure 55
1000
0000
0100
0000
0001
0000
1000
0000
0001
0000
0100
0000
0010
0000
1000
0001
,  // measure 56
0010
0001
0200
0000
1300
0100
0001
1000
,  // measure 57
0010
0000
0100
0000
0001
0000
1000
0000
0002
0000
0000
0000
0103
0000
0100
0001
,  // measure 58
1000
1000
0001
0001
0010
0010
0100
0100
,  // measure 59
0010
0000
0001
0000
2000
0000
0000
0000
3010
0000
0100
0000
0001
0000
1000
0001
,  // measure 60
0100
0000
0010
0100
0001
0000
1000
0010
,  // measure 61
1010
0110
0011
1001
,  // measure 62
0001
0000
0000
0001
0100
0000
0001
0000
0010
0100
0000
0000
1000
0000
0100
0000
,  // measure 63
1000
0000
0000
0010
0100
0000
0001
0000
1000
0010
0000
0000
0100
0000
0001
0000
,  // measure 64
0010
0000
0000
0010
1000
0000
0010
0000
0001
1000
0000
0000
0010
0000
1000
0000
,  // measure 65
0001
0000
0000
0001
0100
0000
0001
0000
1000
0100
0000
0000
1100
0000
0000
0000
,  // measure 66
0100
0000
0000
0100
1000
0000
0001
0000
0000
0100
0000
0000
0010
0000
0100
0000
,  // measure 67
0001
0000
0000
0001
1000
0000
0010
0000
0000
0100
0000
0000
1000
0000
0000
0100
,  // measure 68
0010
0000
0000
0100
0001
0000
1000
0000
0010
1000
0000
0000
0001
0000
0100
0000
,  // measure 69
0002
0000
0003
0200
0000
0300
2000
0000
3000
0020
0000
0030
0002
0000
0003
0000
;

//---------------dance-single - ----------------
#NOTES:
     dance-single:
     X-Scale 12:
     Challenge:
     8:
     0.380813,0.400999,0.198590,0.328437,0.026733,349.000000,323.000000,26.000000,43.000000,264.000000,0.000000,0.380813,0.400999,0.198590,0.328437,0.026733,349.000000,323.000000,26.000000,43.000000,264.000000,0.000000:
// measure 0
0000
0000
0000
0000
,  // measure 1
0000
0000
0000
0000
,  // measure 2
0000
0000
0000
0000
,  // measure 3
0000
0000
0000
0000
,  // measure 4
0001
0000
0000
0001
0000
0000
0010
0000
0100
0000
0000
0000
M001
0000
1000
0000
,  // measure 5
0100
0000
0000
1000
0000
0000
0001
0000
0010
0000
0000
0000
0M10
0000
1000
0000
,  // measure 6
0001
0000
0000
0001
0000
0000
1000
0000
0010
0000
0000
0000
0M01
0000
0010
0000
,  // measure 7
0100
0000
0000
1000
0000
0000
0010
0000
0000
0001
0000
0000
0100
0000
0000
0000
,  // measure 8
1000
MMMM
1000
MMMM
1000
0000
0010
1000
,  // measure 9
0001
MMMM
0001
MMMM
0001
0000
0010
0100
,  // measure 10
1000
MMMM
1000
MMMM
1000
0000
0010
0100
,  // measure 11
0001
MMMM
0001
MMMM
0001
0000
0110
0000
,  // measure 12
1000
MMMM
1000
MMMM
1000
0000
0100
0010
,  // measure 13
0001
MMMM
0001
MMMM
0001
0000
0110
0000
,  // measure 14
1000
MMMM
1000
MMMM
1000
0000
0001
0010
,  // measure 15
0100
0010
0002
0000
2000
0000
0000
3003
,  // measure 16
L00L
0000
1000
0100
0010
0001
0100
00M0
,  // measure 17
0100
1000
0001
0100
0010
0000
1001
0000
,  // measure 18
1000
0010
0001
0010
1000
0100
0010
0M00
,  // measure 19
0010
1000
0001
0010
0200
0000
2000
3300
,  // measure 20
LL00
0000
1000
0001
0100
0010
2000
0000
,  // measure 21
3200
0302
0023
2030
,  // measure 22
3010
0110
1001
0110
,  // measure 23
1001
0000
0020
0000
0002
0033
00LL
0000
,  // measure 24
1000
MMMM
1000
MMMM
1000
MMMM
1000
MMMM
,  // measure 25
1000
0010
0001
0010
1000
0000
01M0
0000
,  // measure 26
0001
MMMM
0001
MMMM
0001
MMMM
0001
MMMM
,  // measure 27
0001
0100
1000
0100
0001
0000
0M10
0000
,  // measure 28
1000
MMMM
1000
MMMM
1000
MMMM
1000
MMMM
,  // measure 29
1000
0100
0001
0100
1000
0000
01M0
0000
,  // measure 30
0001
MMMM
0001
MMMM
0001
MMMM
0001
MMMM
,  // measure 31
0001
0100
0010
1000
0001
0100
0010
1000
,  // measure 32
0001
0000
0010
0000
,  // measure 33
1000
0000
0100
0000
,  // measure 34
0001
1000
0001
0010
,  // measure 35
0100
0010
0002
0200
0000
0303
0L0L
0000
,  // measure 36
1000
0001
0010
0100
,  // measure 37
1000
0001
2000
0020
0000
3030
L0L0
0000
,  // measure 38
0001
0000
1000
0000
0010
0000
1000
0100
,  // measure 39
00M0
0100
0001
0010
0M00
0010
2000
0000
,  // measure 40
3001
0000
0010
0000
0100
0010
0001
0100
,  // measure 41
00M0
0100
1000
0002
0000
0203
0000
0320
,  // measure 42
0001
0000
1030
0010
1000
0000
0100
0010
,  // measure 43
0001
0000
1000
0001
0100
0010
0000
1000
,  // measure 44
0001
MMMM
0001
MMMM
,  // measure 45
0002
0000
0000
0000
2000
0000
0000
3003
,  // measure 46
L00L
0000
0010
1000
0100
0010
0100
00M0
,  // measure 47
0100
0001
1000
0002
0020
0033
00LL
0000
,  // measure 48
1000
MMMM
1000
MMMM
1000
0100
0010
0000
,  // measure 49
0001
MMMM
0001
MMMM
0001
0000
0100
0001
,  // measure 50
1000
MMMM
1000
MMMM
1000
0001
0020
0000
,  // measure 51
2030
3200
0302
2003
,  // measure 52
3010
1001
0110
1001
,  // measure 53
0110
0000
0010
0100
MMMM
0000
0000
0000
,  // measure 54
1000
MMMM
1000
MMMM
1000
0010
0200
0000
,  // measure 55
1300
0100
0001
1000
0002
0000
0103
0000
,  // measure 56
0001
MMMM
0001
MMMM
0001
0100
1000
0000
,  // measure 57
0001
0010
1000
0001
2000
0000
3020
0000
,  // measure 58
1030
MMMM
1000
MMMM
1000
0010
0100
0000
,  // measure 59
0100
0001
1000
0100
0020
0000
0031
MMMM
,  // measure 60
0001
MMMM
0001
MMMM
0001
MMMM
0001
0010
,  // measure 61
0022
0033
2020
3030
2200
3300
0202
0303
,  // measure 62
1000
MMMM
1000
MMMM
1000
0000
0010
1000
,  // measure 63
0001
MMMM
0001
MMMM
0001
0000
0010
0100
,  // measure 64
1000
MMMM
1000
MMMM
1000
0000
0100
0010
,  // measure 65
0001
MMMM
0001
MMMM
0001
0000
0110
0000
,  // measure 66
1000
MMMM
1000
MMMM
1000
0000
0010
1000
,  // measure 67
0001
MMMM
0001
MMMM
0001
0000
0110
0000
,  // measure 68
1000
MMMM
1000
MMMM
1000
0000
0010
1000
,  // measure 69
0001
0000
0000
0001
0000
0000
1000
0000
0000
1000
0000
0000
2002
0000
3003
0000
,  // measure 70
L00L
0000
0000
0000
;
