#VERSION:0.83;
#TITLE:ALLES VORBEI;
#SUBTITLE:;
#ARTIST:Summer Cem;
#TITLETRANSLIT:;
#SUBTITLETRANSLIT:;
#ARTISTTRANSLIT:;
#GENRE:Deutsch Trap;
#ORIGIN:;
#CREDIT:;
#BANNER:ALLES VORBEI-bn.png;
#BACKGROUND:ALLES VORBEI-bg.png;
#PREVIEWVID:;
#JACKET:ALLES VORBEI-jacket.png;
#CDIMAGE:;
#DISCIMAGE:;
#LYRICSPATH:;
#CDTITLE:cdtitle.png;
#MUSIC:ALLES VORBEI.ogg;
#OFFSET:-0.005000;
#SAMPLESTART:14.123000;
#SAMPLELENGTH:28.235001;
#SELECTABLE:YES;
#BPMS:0.000=136.000;
#STOPS:;
#DELAYS:;
#WARPS:;
#TIMESIGNATURES:0.000=4=4;
#TICKCOUNTS:0.000=4;
#COMBOS:0.000=1;
#SPEEDS:0.000=1.000=0.000=0;
#SCROLLS:0.000=1.000;
#FAKES:;
#LABELS:0.000=Song Start;
#BGCHANGES:0.000=ALLES VORBEI.avi=1.000=1=0=0=StretchNoLoop==CrossFade==,
99999=-nosongbg-=1.000=0=0=0 // don't automatically add -songbackground-
;
#KEYSOUNDS:;
#ATTACKS:
;

//---------------dance-single - easy, easy, tamam, tamam----------------
#NOTEDATA:;
#CHARTNAME:X-Scale 5;
#STEPSTYPE:dance-single;
#DESCRIPTION:easy, easy, tamam, tamam;
#CHARTSTYLE:;
#DIFFICULTY:Easy;
#METER:3;
#RADARVALUES:0.231179,0.305780,0.029784,0.248198,0.000000,163.000000,160.000000,3.000000,25.000000,0.000000,0.000000,0.000000,0.000000,0.000000,0.231179,0.305780,0.029784,0.248198,0.000000,163.000000,160.000000,3.000000,25.000000,0.000000,0.000000,0.000000,0.000000,0.000000;
#CREDIT:iamthek3n;
#NOTES:
0000
0000
0000
0000
,
0000
0000
0000
0000
,
0000
0000
0000
0000
,
0000
0000
0000
0000
,
0001
0000
0000
0000
,
0000
0000
0000
0000
,
1000
0000
0000
0000
,
0000
0000
0000
0000
,
0001
0000
0100
0000
,
0001
0000
1000
0000
,
0100
0000
0000
0100
0010
0000
0000
0000
,
0100
0000
1000
0000
,
0001
0100
0001
0000
,
1000
0000
0010
0000
,
1000
0000
0000
0000
0100
0000
0000
0010
,
0000
0100
1000
0001
,
1000
0000
0100
0000
,
0010
0000
0001
0000
,
1000
0000
0000
1000
0001
0000
0000
0000
,
0100
0000
0010
0000
,
1000
0010
1000
0000
,
0001
0000
0010
0000
,
0100
0000
0000
0000
1000
0000
0000
0001
,
0000
1000
0100
1000
,
0001
0000
1001
0000
,
0000
0000
0110
0000
,
0010
0000
0000
0000
1000
0000
0000
0001
,
0000
0100
0001
0000
,
0010
0000
0200
0000
1300
0000
0000
0001
,
0000
0100
0001
0000
,
1000
0000
0200
0000
0310
0000
0000
0001
,
0000
1000
0001
0000
,
0010
0000
0001
0000
,
2000
3010
1000
0000
,
0002
0000
0013
0000
0001
0000
0000
1000
,
0000
0001
0100
0010
,
0200
0301
2000
3100
,
1000
0001
0200
0301
,
1000
0001
0020
0130
,
1000
0001
0200
0302
,
1003
0000
0000
0000
,
0002
0003
2000
3000
,
1001
0000
0010
0000
1000
0000
0001
0010
,
0200
1300
0002
1003
,
0010
0000
1000
0000
0001
0000
0100
0010
,
2000
3001
0020
0130
,
0010
0000
0001
0100
0001
0000
1000
0010
,
0000
0010
0100
0000
0002
0000
1003
0000
,
0001
0000
0020
0000
0130
0000
1000
0001
,
0200
0301
2000
3100
,
0010
0000
0100
0000
1000
0000
0001
0010
,
0200
0000
1300
0000
0002
0000
1003
0001
,
0100
0000
0001
0000
0010
0000
0100
0010
,
0002
1003
0020
0130
,
0010
0000
1000
0001
0010
0000
0100
1000
,
0000
1000
0001
0000
0200
0000
0310
0000
,
0100
0000
0000
0000
;

//---------------dance-single - keine liebe, heute pompa----------------
#NOTEDATA:;
#CHARTNAME:X-Scale 10;
#STEPSTYPE:dance-single;
#DESCRIPTION:keine liebe, heute pompa;
#CHARTSTYLE:;
#DIFFICULTY:Medium;
#METER:7;
#RADARVALUES:0.428319,0.500367,0.297838,0.416973,0.302802,302.000000,272.000000,30.000000,42.000000,0.000000,0.000000,0.000000,0.000000,0.000000,0.428319,0.500367,0.297838,0.416973,0.302802,302.000000,272.000000,30.000000,42.000000,0.000000,0.000000,0.000000,0.000000,0.000000;
#CREDIT:iamthek3n;
#NOTES:
0000
0000
0000
0000
,
0000
0000
0000
0000
,
0000
0000
0000
0000
,
0000
0000
0000
0000
,
2000
0000
0000
0000
,
0000
0000
0002
3000
,
0200
0000
0000
0000
,
0000
0000
0303
0000
,
1000
0000
0000
0000
1100
0000
0100
1000
,
0001
0100
0001
1000
,
2002
0000
3003
0220
0000
0330
2002
0000
3003
0000
0000
0000
0100
0000
0001
0000
,
1000
0100
0010
0001
,
0011
0000
0010
0100
1000
0000
0001
1000
,
0001
0000
0100
0000
0001
0000
1000
0010
,
1010
0000
0000
0000
0001
0000
0000
0000
2001
0000
0000
3002
0000
0000
0203
0000
,
0000
0000
0000
0000
1300
0000
0100
0000
0001
0000
0000
0000
1000
0001
1000
0000
,
1001
0000
0000
0000
0000
0000
0100
0000
0000
1000
0000
0000
0001
0000
0000
0000
0000
0000
0100
0000
0000
0000
0100
0000
,
0001
0000
0000
0000
0000
0000
0000
0000
0000
0000
0000
0000
1001
0000
0000
0000
0000
0000
0000
0000
0010
0000
0000
0000
1000
0000
0000
0000
0000
0000
0000
0000
0000
0000
0000
0000
0001
0000
0000
1000
0000
0000
0001
0000
0000
0000
0000
0000
,
2002
0000
0000
0000
0000
0000
3003
0000
0000
0220
0000
0000
0000
0000
0000
0330
0000
0000
2002
0000
0000
0000
0000
0000
3003
0000
0000
0000
0000
0000
0000
0000
0000
0000
0000
0000
1000
0000
0000
0000
0000
0000
0000
0000
1000
0000
0000
0000
,
0001
0000
0000
0000
0000
0000
0000
0000
0000
0000
0000
0000
0010
0000
0000
0000
0000
0000
0000
0000
0010
0000
0000
0000
0100
0000
0000
0000
0000
0000
0000
0000
0000
0000
0000
0000
1000
0000
0000
0100
0000
0000
1000
0000
0000
0000
0000
0000
,
1100
0000
0000
0000
0000
0000
1000
0000
0000
0001
0000
0000
0100
0000
0000
0000
0000
0000
0001
0000
0000
0000
0001
0000
,
0100
0000
0000
0000
0000
0000
0000
0000
0000
0000
0000
0000
0010
0000
0000
0000
0000
0000
0000
0000
0010
0000
0000
0000
1000
0000
0000
0000
0000
0000
0000
0000
0000
0000
0000
0000
0100
0000
0000
0010
0000
0000
0100
0000
0000
0000
0000
0000
,
0110
0000
0000
0000
0001
0000
0000
0000
1002
0000
0000
0203
0000
0000
0320
0000
,
0000
0000
0000
0000
0000
0000
0000
0000
0000
0000
0000
0000
0130
0000
0000
0000
0000
0000
0000
0000
0100
0000
0000
0000
0001
0000
0000
0000
0000
0000
0000
0000
0000
0000
0000
0000
1000
0000
0000
0001
0000
0000
1000
0000
0000
0000
0000
0000
,
0000
0000
0000
0000
0000
0000
0000
0000
1001
0000
0000
1000
0000
0001
0000
0000
,
0100
0000
0000
0010
0000
1000
0000
0000
0001
0000
0000
0100
0000
0001
0000
0000
,
0101
0000
0000
0000
0001
0000
1000
0000
1001
0000
0000
0010
0000
1000
0000
0000
,
0001
0000
0000
0010
0000
0001
0000
0000
1000
0000
0000
0100
0000
0010
0100
0000
,
0110
0000
0000
0000
2000
0000
0000
0000
3001
0000
0000
0100
0000
0000
0001
0000
,
1000
0000
0000
0010
0000
0000
1000
0000
0001
0000
0000
0010
0000
0000
0100
0000
,
1000
0000
0000
0000
0001
1000
0000
0000
1001
0000
0000
0100
0000
0000
1000
0000
,
0001
0000
0000
0100
0000
0000
0001
0000
0010
0000
0000
0100
0000
0100
1000
0000
,
0001
0000
1000
0000
1001
0000
1000
0010
,
0200
0000
0000
0000
0301
0000
0000
0000
0010
0000
0000
0000
0100
0010
0100
0000
,
1000
0000
0001
0100
0010
0000
1000
0100
,
0010
0000
0100
0000
1000
0000
0001
0100
,
0001
0010
0100
1000
,
0010
0000
1000
0010
1000
0000
0001
0000
,
0010
0000
0100
0010
0100
0000
1000
0000
,
0001
0000
0100
0001
0100
0000
0020
0000
,
0030
0000
0000
0000
0000
0000
0000
0000
0000
1000
0000
1000
,
0001
0000
0000
0010
0000
0010
0100
0000
0000
1000
0000
0000
,
2002
0000
0000
0000
0000
0000
3003
0000
0000
0220
0000
0000
0000
0000
0000
0330
0000
0000
2002
0000
0000
0000
0000
0000
3003
0000
0000
0000
0000
0000
0000
0000
0000
0000
0000
0000
0010
0000
0000
0000
0000
0000
0000
0000
0010
0000
0000
0000
,
1000
0000
0000
0000
0000
0000
0000
0000
0000
0000
0000
0000
0001
0000
0000
0000
0000
0000
0000
0000
0001
0000
0000
0000
0010
0000
0000
0000
0000
0000
0000
0000
0000
0000
0000
0000
0100
0000
0000
0010
0000
0000
0100
0000
0000
0000
0000
0000
,
1000
0000
0000
0001
0000
0000
1000
0000
0000
0000
0000
0000
0010
0000
0000
0000
0000
0000
1000
0000
0000
0000
1000
0000
,
0001
0000
0000
0000
0000
0000
0000
0000
0000
0000
0000
0000
0010
0000
0000
0000
0000
0000
0000
0000
0010
0000
0000
0000
0001
0000
0000
0000
0000
0000
0000
0000
0000
0000
0000
0000
0100
0000
0000
0001
0000
0000
0100
0000
0000
0000
0000
0000
,
0001
0000
0000
0000
0010
0000
0100
0000
2000
0000
0000
3002
0000
0000
0203
0000
,
0000
0000
0000
0000
0000
0000
0000
0000
0000
0000
0000
0000
0310
0000
0000
0000
0100
0000
0000
0000
0010
0000
0000
0000
0100
0000
0000
0000
0000
0000
0000
0000
0000
0000
0000
0000
0001
0000
0000
0100
0000
0000
0001
0000
0000
0000
0000
0000
,
0101
0000
0000
0000
0000
0000
1000
0000
0000
0001
0000
0000
1000
0000
0000
0000
0000
0000
0010
0000
0000
0000
0010
0000
,
0100
0000
0000
0000
0000
0000
0001
0000
0000
0000
0001
0000
1000
0000
0000
0000
0000
0000
0100
0000
0000
0010
0000
0000
,
0220
0000
0000
0000
0000
0000
0330
0000
0000
2002
0000
0000
0000
0000
0000
3003
0000
0000
0220
0000
0000
0000
0000
0000
0330
0000
0000
0000
0000
0000
0000
0000
0000
0000
0000
0000
0100
0000
0000
0000
0000
0000
0000
0000
0100
0000
0000
0000
,
0001
0000
0000
0000
0000
0000
1000
0000
0000
0000
1000
0000
0010
0000
0000
0000
0000
0000
1000
0000
0000
0100
0000
0000
,
0010
0000
0000
0000
0000
0000
0001
0000
0000
0100
0000
0000
0001
0000
0000
0000
0000
0000
1000
0000
0000
0000
1000
0000
,
0001
0000
0000
0010
0000
0010
0100
0000
0000
1000
0000
0000
,
1100
0000
0100
0000
1000
0000
0001
0000
1002
0000
0000
0023
0000
0000
0230
0000
,
0000
0000
0000
0000
0000
0000
0000
0000
0000
0000
0000
0000
1300
0000
0000
0000
0100
0000
0000
0000
1000
0000
0000
0000
0001
0000
0000
0000
0000
0000
0000
0000
0000
0000
0000
0000
0010
0000
0000
0100
0000
0000
0010
0000
0000
0000
0000
0000
,
0100
0000
0000
0000
;

//---------------dance-single - Nenn mich Siki Jizzle----------------
#NOTEDATA:;
#CHARTNAME:X-Scale 13;
#STEPSTYPE:dance-single;
#DESCRIPTION:Nenn mich Siki Jizzle;
#CHARTSTYLE:;
#DIFFICULTY:Hard;
#METER:9;
#RADARVALUES:0.489305,0.528166,0.218414,0.069495,0.431865,345.000000,323.000000,22.000000,7.000000,0.000000,0.000000,0.000000,0.000000,0.000000,0.489305,0.528166,0.218414,0.069495,0.431865,345.000000,323.000000,22.000000,7.000000,0.000000,0.000000,0.000000,0.000000,0.000000;
#CREDIT:iamthek3n;
#NOTES:
// measure 0
0000
0000
0000
0000
,  // measure 1
0000
0000
0000
0000
,  // measure 2
0000
0000
0000
0000
,  // measure 3
0000
0000
0000
0000
,  // measure 4
0002
0000
0000
0000
,  // measure 5
0000
0000
2003
0000
,  // measure 6
3020
0000
0000
0000
,  // measure 7
0000
0000
0030
0000
,  // measure 8
0001
0000
0000
0000
0000
0000
1000
0000
0000
0010
0000
0000
1000
0000
0000
0000
0000
0000
0001
0000
0000
0000
0001
0000
,  // measure 9
0100
0000
0000
0000
0000
0000
0010
0000
0000
0000
0010
0000
1000
0000
0000
0000
0000
0000
0100
0000
0000
0010
0000
0000
,  // measure 10
0110
0000
0000
0000
0000
0000
0000
0000
0000
0100
0000
0000
0000
0000
0000
0000
0000
0000
1000
0000
0000
0000
0000
0000
0001
0000
0000
0000
0000
0000
0000
0000
0000
0000
0000
0000
0010
0000
0000
0000
0000
0000
0000
0000
0010
0000
0000
0000
,  // measure 11
0100
0000
0000
0000
0000
0000
1000
0000
0000
0000
1000
0000
0001
0000
0000
0000
0000
0000
0100
0000
0000
0001
0000
0000
,  // measure 12
1000
0000
0000
0000
0000
0000
0001
0000
0000
0010
0000
0000
0100
0000
0000
0000
0000
0000
1000
0000
0000
0000
1000
0000
,  // measure 13
0001
0000
0000
0000
0000
0000
0010
0000
0000
0000
0010
0000
0100
0000
0000
0000
0000
0000
1000
0000
0000
0001
0000
0000
,  // measure 14
0100
0000
0000
0000
1000
0000
0100
0000
1001
0000
0000
0100
0000
0000
0001
0000
,  // measure 15
0000
0000
0000
0000
0000
0000
0000
0000
0000
0000
0000
0000
0010
0000
0000
0000
0100
0000
0000
0000
0010
0000
0000
0000
0100
0000
0000
0000
0000
0000
0000
0000
0000
0000
0000
0000
1000
0000
0000
0010
0000
0000
1000
0000
0000
0000
0000
0000
,  // measure 16
1010
0000
1000
0001
0100
0000
0001
0010
,  // measure 17
0100
0000
0000
0000
0000
0000
1100
0000
0000
0000
1000
0000
0001
0000
0000
0000
0000
0000
0100
0000
0000
0001
0000
0000
,  // measure 18
0101
0000
0000
0001
0000
0000
0100
0000
0001
0000
0000
0000
0010
0000
0100
0000
,  // measure 19
1000
0000
0000
0000
0000
0000
1001
0000
0000
0000
0001
0000
0100
0000
0000
0000
0000
0000
1000
0000
0000
0100
0000
0000
,  // measure 20
0001
0000
0100
0010
1000
0000
0001
0010
,  // measure 21
0100
0000
0000
0000
0000
0000
1001
0000
0000
0000
0001
0000
0100
0000
0000
0000
0000
0000
0001
0000
0000
0010
0000
0000
,  // measure 22
0100
0000
0000
0000
1000
0000
0010
0000
1010
0000
0000
0001
0000
0000
1000
0000
,  // measure 23
0010
0000
0000
0000
0000
0000
1000
0000
0000
0000
0000
0000
0001
0000
0000
0000
1000
0000
0000
0000
0001
0000
0000
0000
1000
0000
0000
0000
0000
0000
0000
0000
0000
0000
0000
0000
0100
0000
0000
0010
0000
0000
0100
0000
0000
0000
0000
0000
,  // measure 24
0000
0000
0000
0000
0000
0000
0000
0000
1001
0000
0000
0001
0000
1000
0000
0000
,  // measure 25
0100
0000
0000
0010
0000
0001
0000
0000
1000
0000
0000
0001
0000
0100
0001
0000
,  // measure 26
0101
0000
1000
0000
0001
0000
1000
0000
0010
0000
0000
0100
0000
0010
0100
0000
,  // measure 27
0001
0000
0000
0010
0000
0100
0010
0000
0001
0000
0000
1000
0000
0001
1000
0000
,  // measure 28
1001
0000
0000
0000
0200
0000
0000
0000
0310
0000
0000
0100
0000
1000
0100
0000
,  // measure 29
1000
0000
0000
0001
0000
0100
0001
0000
1000
0000
0000
0001
0000
0010
0100
0000
,  // measure 30
1000
0000
0000
0000
0010
2000
0000
0000
3001
0000
0000
0100
0000
0001
1000
0000
,  // measure 31
0100
0000
0000
0010
0000
0001
0010
0000
0001
0000
0000
0000
1000
0001
1000
0000
,  // measure 32
0100
0000
0000
0010
0000
0000
1001
0000
0000
1000
0010
1000
,  // measure 33
0020
0000
0000
0000
0000
0000
0130
0000
0000
0010
0000
0000
1000
0000
0000
0000
1000
0000
0001
0000
0000
0010
0000
0000
,  // measure 34
0100
0000
0000
0000
0000
0000
1000
0000
0000
0001
0000
0000
0100
0000
0000
0000
0100
0000
0010
0000
0000
0001
0000
0000
,  // measure 35
0010
0000
0000
0000
0010
0000
1000
0000
0000
0001
0000
0000
0100
0000
0000
0000
0100
0000
0010
0000
0000
1000
0000
0000
,  // measure 36
0001
0000
1000
0000
1001
0000
0100
0001
,  // measure 37
1000
0000
0000
0000
1000
0000
0001
0000
0000
0100
0000
0000
0101
0000
0000
0000
0000
0000
1000
0000
0000
0000
0000
0000
,  // measure 38
0100
0000
0000
0000
0100
0000
1000
0000
0000
0010
0000
0000
1010
0000
0000
0000
0000
0000
0001
0000
0000
0000
0000
0000
,  // measure 39
1000
0000
0000
0000
1000
0000
0001
0000
0000
0100
0000
0000
0110
0000
0000
0000
0000
0000
2000
0000
0000
0000
0000
0000
,  // measure 40
3001
0000
0000
0000
0000
0000
0000
0000
0000
0001
0000
0001
,  // measure 41
0010
0000
0000
0000
0000
0000
1000
0000
0000
0000
1000
0000
0010
0000
0000
0000
0000
0000
0001
0000
0000
0100
0000
0000
,  // measure 42
0101
0000
0000
0000
0000
0000
0000
0000
0000
1000
0000
0000
0000
0000
0000
0000
0000
0000
0010
0000
0000
0000
0000
0000
1010
0000
0000
0000
0000
0000
0000
0000
0000
0000
0000
0000
1000
0000
0000
0000
0010
0000
0000
0000
0100
0000
0000
0000
,  // measure 43
0001
0000
0000
0000
0000
0000
0000
0000
0000
0000
0000
0000
0010
0000
0000
0000
0100
0000
0000
0000
1000
0000
0000
0000
0001
0000
0000
0000
0000
0000
0000
0000
0000
0000
0000
0000
1000
0000
0000
0010
0000
0000
1000
0000
0000
0000
0000
0000
,  // measure 44
0001
0000
0000
0000
0000
0000
0100
0000
0000
0001
0000
0000
1000
0000
0000
0000
0000
0000
0100
0000
1000
0000
0001
0000
,  // measure 45
0100
0000
0000
0000
0000
0000
0000
0000
0000
0000
0000
0000
1000
0000
0000
0000
0100
0000
0000
0000
0001
0000
0000
0000
1000
0000
0000
0000
0000
0000
0000
0000
0000
0000
0000
0000
0010
0000
0000
0100
0000
0000
0010
0000
0000
0000
0000
0000
,  // measure 46
1000
0000
0000
0000
0100
0000
0010
0000
0001
0000
0000
1000
0000
0000
0010
0000
,  // measure 47
0000
0000
0000
0000
0000
0000
0000
0000
0000
0000
0000
0000
0100
0000
0000
0000
0010
0000
0000
0000
1000
0000
0000
0000
0001
0000
0000
0000
0000
0000
0000
0000
0000
0000
0000
0000
0010
0000
0000
0100
0000
0000
0010
0000
0000
0000
0000
0000
,  // measure 48
0110
0000
0000
0001
0000
0000
1000
0000
0000
0001
0000
0000
0100
0000
0000
0000
0000
0000
0001
0000
0100
0000
0010
0000
,  // measure 49
1000
0000
0000
0000
0000
0000
0000
0000
0000
0000
0000
0000
0100
0000
0000
0000
1000
0000
0000
0000
0001
0000
0000
0000
0100
0000
0000
0000
0000
0000
0000
0000
0000
0000
0000
0000
0001
0000
0000
0100
0000
0000
0001
0000
0000
0000
0000
0000
,  // measure 50
0101
0000
0000
0000
0000
0000
0000
0000
0000
1000
0000
0000
0000
0000
0000
0000
0000
0000
0010
0000
0000
0000
0000
0000
1000
0000
0000
0000
0000
0000
0000
0000
0000
0000
0000
0000
0100
0000
0000
0000
1000
0000
0000
0000
0001
0000
0000
0000
,  // measure 51
0010
0000
0000
0000
0000
0000
0000
0000
0000
0000
0000
0000
1000
0000
0000
0000
0010
0000
0000
0000
0001
0000
0000
0000
1000
0000
0000
0000
0000
0000
0000
0000
0000
0000
0000
0000
0001
0000
0000
1000
0000
0000
0001
0000
0000
0000
0000
0000
,  // measure 52
0100
0000
0000
0010
0000
0000
1000
0000
0000
0100
0000
0000
0010
0000
0000
0000
0000
0000
0001
0000
1000
0000
0001
0000
,  // measure 53
0100
0000
0000
0000
0000
0000
0000
0000
0000
0000
0000
0000
0010
0000
0000
0000
0001
0000
0000
0000
0010
0000
0000
0000
1000
0000
0000
0000
0000
0000
0000
0000
0000
0000
0000
0000
0010
0000
0000
1000
0000
0000
0010
0000
0000
0000
0000
0000
,  // measure 54
1000
0000
0001
0000
0100
0000
0001
0000
0101
0000
0000
1000
0000
0000
0001
0000
,  // measure 55
0010
0000
0001
0000
1000
0000
0000
0000
1100
0000
0000
0000
1000
0100
1000
0000
,  // measure 56
0001
0000
0000
0000
;

//---------------dance-single - Oh mein Gott----------------
#NOTEDATA:;
#CHARTNAME:X-Scale 15;
#STEPSTYPE:dance-single;
#DESCRIPTION:Oh mein Gott;
#CHARTSTYLE:;
#DIFFICULTY:Challenge;
#METER:10;
#RADARVALUES:0.625459,0.694955,0.397117,0.407045,0.655243,441.000000,401.000000,40.000000,41.000000,0.000000,0.000000,11.000000,0.000000,0.000000,0.625459,0.694955,0.397117,0.407045,0.655243,441.000000,401.000000,40.000000,41.000000,0.000000,0.000000,11.000000,0.000000,0.000000;
#CREDIT:k3n -WAFFE-;
#NOTES:
// measure 0
0000
0000
0000
0000
,  // measure 1
0000
0000
0000
0000
,  // measure 2
0000
0000
0000
0000
,  // measure 3
0000
0000
0000
0000
,  // measure 4
0200
0000
0000
0000
,  // measure 5
0000
0000
0302
0000
,  // measure 6
0023
0200
0300
0000
,  // measure 7
0000
0000
0030
0000
,  // measure 8
0001
0000
0000
1000
0000
0000
0001
0000
0000
1000
0000
0000
1100
0000
0000
0000
0000
0000
1000
0000
0010
0000
0100
0000
,  // measure 9
0020
0000
0000
0000
0000
0000
0000
0000
0000
0000
0000
0000
0031
0000
0000
0000
0010
0000
0000
0000
0100
0000
0000
0000
0002
0000
0000
0000
0000
0000
0000
0000
0000
0000
0000
0000
1003
0000
0000
0010
0000
0000
1000
0000
0000
0000
0000
0000
,  // measure 10
1001
0000
0000
0000
0000
0000
0000
0000
0000
0001
0000
0000
0000
0000
0000
0000
0000
0000
0001
0000
0000
0000
0000
0000
0101
0000
0000
0000
0000
0000
0000
0000
0000
0000
0000
0000
0001
0000
0000
0000
1000
0000
0000
0000
0010
0000
0000
0000
,  // measure 11
0200
0000
0000
0000
0000
0000
0000
0000
0000
0000
0000
0000
1300
0000
0000
0000
0100
0000
0000
0000
0010
0000
0000
0000
2000
0000
0000
0000
0000
0000
0000
0000
0000
0000
0000
0000
3001
0000
0000
1000
0000
0000
0001
0000
0000
0000
0000
0000
,  // measure 12
0100
0000
0000
0010
0000
0000
0100
0000
0000
0000
0000
0000
0110
0000
0000
0000
0010
0000
0100
0000
0001
0000
0010
0000
,  // measure 13
0200
0000
0000
0000
0000
0000
0000
0000
0000
0000
0000
0000
0301
0000
0000
0000
0100
0000
0000
0000
1000
0000
0000
0000
0002
0000
0000
0000
0000
0000
0000
0000
0000
0000
0000
0000
0103
0000
0000
0001
0000
0000
1000
0000
0000
0000
0000
0000
,  // measure 14
0100
0000
0040
0000
0130
0000
1000
0000
1100
0000
0000
0001
0000
0000
0100
0000
,  // measure 15
0010
0000
0000
0000
0000
0000
0100
0000
0000
0000
0000
0000
0001
0000
0000
0000
0010
0000
0000
0000
0100
0000
0000
0000
2000
0000
0000
0000
0000
0000
0000
0000
0000
0000
0000
0000
3010
0000
0000
0100
0000
0000
0010
0000
0000
0000
0000
0000
,  // measure 16
1000
0000
0000
0100
0000
0000
0010
0000
0000
0100
0000
0000
1000
0000
0000
0000
0000
0000
0001
0000
0100
0000
0010
0000
,  // measure 17
0200
0000
0000
0000
0000
0000
0000
0000
0000
0000
0000
0000
1300
0000
0000
0000
0100
0000
0000
0000
0001
0000
0000
0000
0020
0000
0000
0000
0000
0000
0000
0000
0000
0000
0000
0000
0130
0000
0000
0010
0000
0000
0001
0000
0000
0000
0000
0000
,  // measure 18
1001
0000
0000
0000
0000
0000
0000
0000
0000
1000
0000
0000
0000
0000
0000
0000
0000
0000
1000
0000
0000
0000
0000
0000
1100
0000
0000
0000
0000
0000
0000
0000
0000
0000
0000
0000
0100
0000
0000
0000
0010
0000
0000
0000
0001
0000
0000
0000
,  // measure 19
0200
0000
0000
0000
0000
0000
0000
0000
0000
0000
0000
0000
1300
0000
0000
0000
0100
0000
0000
0000
0001
0000
0000
0000
0020
0000
0000
0000
0000
0000
0000
0000
0000
0000
0000
0000
0031
0000
0000
0010
0000
0000
0100
0000
0000
0000
0000
0000
,  // measure 20
1001
0000
0000
0000
0000
0000
0001
0000
0000
0000
0000
0000
1000
0000
0000
0001
0000
0000
0100
0000
0000
0000
0000
0000
0101
0000
0000
0000
0000
0000
0000
0000
0000
0000
0000
0000
1000
0000
0000
0000
0001
0000
0000
0000
0100
0000
0000
0000
,  // measure 21
0020
0000
0000
0031
0010
1000
0200
0000
0000
0310
0100
1000
,  // measure 22
1100
0000
4000
0000
3400
0000
0310
0000
1001
0000
0000
1000
0000
0000
0001
0000
,  // measure 23
0100
0000
0000
0000
0000
0000
0001
0000
0000
0000
0000
0000
0010
0000
0000
0000
0100
0000
0000
0000
1000
0000
0000
0000
0001
0000
0000
0000
0000
0000
0000
0000
0000
0000
0000
0000
0100
0000
0000
0001
0000
0000
0100
0000
0000
0000
0000
0000
,  // measure 24
0010
0000
0000
0000
0000
0000
0001
0000
1001
0000
1000
0010
0000
1000
0000
0001
,  // measure 25
0010
0000
0100
1000
0000
0001
0000
0100
0001
0000
1000
0100
0000
1000
0001
0000
,  // measure 26
1001
0000
4000
0000
3010
0000
0100
0000
0001
0000
0100
1000
0000
0100
0001
1000
,  // measure 27
0001
0000
0100
0001
0000
1000
0010
1000
0001
0000
0010
0100
0000
0010
0001
0000
,  // measure 28
0011
0000
0001
0000
2000
0000
0100
0000
3001
0000
1000
0000
0001
0000
0100
0010
,  // measure 29
0100
0000
0001
0010
0000
0100
1000
0001
1000
0000
0010
0001
0000
0010
1000
0000
,  // measure 30
1001
0000
0040
0000
1030
0200
0000
0000
0310
0000
0001
1000
0000
0100
1000
0001
,  // measure 31
0100
0000
0001
0010
0000
1000
0010
0001
1000
0000
0001
0000
0100
0010
0100
0000
,  // measure 32
0220
0330
2002
3003
1010
0000
0010
1000
,  // measure 33
0002
0000
0100
0000
2003
0000
0000
0000
3010
0000
1000
0000
0001
0010
0001
0000
,  // measure 34
0011
0000
0000
0000
0000
0000
0004
0000
0000
0000
0000
0000
2003
0000
0000
0000
0000
0000
0010
0000
0000
0000
0000
0000
3001
0000
0000
0000
1000
0000
0000
0000
0010
0000
0000
0000
1000
0000
0000
0000
0000
0000
0100
0000
0000
0010
0000
0000
,  // measure 35
0001
0000
0000
0000
0100
0000
0000
0000
0010
0000
0000
0000
1000
0000
0000
0000
0001
0000
0000
0000
0010
0000
0000
0000
0100
0000
0000
0000
0001
0000
0000
0000
0100
0000
0000
0000
1000
0000
0000
0001
0000
0000
1000
0000
0000
0000
0000
0000
,  // measure 36
1001
0000
0100
1000
1100
0000
1000
0001
,  // measure 37
0100
0000
0001
0000
2000
0000
0001
0000
3100
0000
0000
0000
1000
0001
0100
0000
,  // measure 38
0101
0004
0003
0010
2001
0000
3200
0010
,  // measure 39
1300
0000
0100
0000
0001
0000
1000
0000
0010
0000
0001
0000
0012
0000
0000
0000
0000
0000
0203
0040
0000
0000
0000
0000
,  // measure 40
0330
0000
0000
0000
0000
0000
0000
0000
0000
0001
1000
0001
,  // measure 41
0200
0000
0000
0000
0000
0000
0000
0000
0000
0000
0000
0000
1300
0000
0000
0000
0100
0000
0000
0000
0001
0000
0000
0000
2000
0000
0000
0000
0000
0000
0000
0000
0000
0000
0000
0000
3001
0000
0000
0010
0000
0000
0001
0000
0000
0000
0000
0000
,  // measure 42
0011
0000
0000
0000
0000
0000
0000
0000
0000
0110
0000
0000
0000
0000
0000
0000
0000
0000
1001
0000
0000
0000
0000
0000
0100
0000
0000
0000
0000
0000
0000
0000
0000
0000
0000
0000
1000
0000
0000
0000
0100
0000
0000
0000
0010
0000
0000
0000
,  // measure 43
0001
0000
0000
0000
0000
0000
1000
0000
0000
0000
0000
0000
0001
0000
0000
0000
0100
0000
0000
0000
0010
0000
0000
0000
2000
0000
0000
0000
0000
0000
0000
0000
0000
0000
0000
0000
3010
0000
0000
1000
0000
0000
0010
0000
0000
0000
0000
0000
,  // measure 44
1001
0000
0000
0000
0000
0000
0000
0000
0000
0000
0000
0000
0010
0000
0000
0000
0000
0000
0100
0000
0000
0000
0000
0000
0110
0000
0000
0000
0000
0000
0000
0000
0000
0010
0000
0000
0100
0000
0000
0000
0010
0000
0000
0000
1000
0000
0000
0000
,  // measure 45
0100
0000
0000
0000
0000
0000
1000
0000
0000
0000
0000
0000
0001
0000
0000
0000
0010
0000
0000
0000
0100
0000
0000
0000
2000
0000
0000
0000
0000
0000
0000
0000
0000
0000
0000
0000
3001
0000
0000
0100
0000
0000
0001
0000
0000
0000
0000
0000
,  // measure 46
1001
0000
4000
0000
3100
0000
0010
0000
0011
0000
0000
1000
0000
0000
0001
0000
,  // measure 47
0100
0000
0000
0000
0000
0000
0001
0000
0000
0000
0000
0000
1000
0000
0000
0000
0010
0000
0000
0000
0100
0000
0000
0000
0002
0000
0000
0000
0000
0000
0000
0000
0000
0000
0000
0000
0103
0000
0000
0010
0000
0000
0100
0000
0000
0000
0000
0000
,  // measure 48
0110
0000
0000
0001
0000
0000
0100
0000
0000
0001
0000
0000
1001
0000
0000
0000
0000
0000
0010
0000
1000
0000
0001
0000
,  // measure 49
0020
0000
0000
0000
0000
0000
0000
0000
0000
0000
0000
0000
1030
0000
0000
0000
0010
0000
0000
0000
0001
0000
0000
0000
2000
0000
0000
0000
0000
0000
0000
0000
0000
0000
0000
0000
3010
0000
0000
1000
0000
0000
0001
0000
0000
0000
0000
0000
,  // measure 50
1001
0000
0000
0000
0000
0000
0000
0000
0000
0110
0000
0000
0000
0000
0000
0000
0000
0000
1100
0000
0000
0000
0000
0000
1000
0000
0000
0000
0000
0000
0000
0000
0000
0000
0000
0000
0001
0000
0000
0000
0010
0000
0000
0000
0100
0000
0000
0000
,  // measure 51
1000
0000
0000
0000
0000
0000
0001
0000
0000
0000
0000
0000
0100
0000
0000
0000
0010
0000
0000
0000
0100
0000
0000
0000
0002
0000
0000
0000
0000
0000
0000
0000
0000
0000
0000
0000
0013
0000
0000
0100
0000
0000
0010
0000
0000
0000
0000
0000
,  // measure 52
0011
0000
0000
0000
0000
0000
1000
0000
0000
0000
0000
0000
0001
0000
0000
0010
0000
0000
0100
0000
0000
0000
0000
0000
1100
0000
0000
0000
0000
0000
0000
0000
0000
0000
0000
0000
1000
0000
0000
0000
0001
0000
0000
0000
1000
0000
0000
0000
,  // measure 53
0010
0000
0000
0000
0000
0000
0100
0000
0000
0000
0000
0000
1000
0000
0000
0000
0100
0000
0000
0000
0001
0000
0000
0000
2000
0000
0000
0000
0000
0000
0000
0000
0000
0000
0000
0000
3100
0000
0000
0010
0000
0000
0100
0000
0000
0000
0000
0000
,  // measure 54
0110
0000
0004
0000
4003
0000
3010
0000
1010
0000
0000
0001
0000
0000
1000
0000
,  // measure 55
0010
0000
0000
0000
0000
0000
1000
0000
0000
0000
0000
0000
0100
0000
0000
0000
1000
0000
0000
0000
0001
0000
0000
0000
0020
0000
0000
0000
0000
0000
0000
0000
0000
0000
0000
0000
0130
0000
0000
0010
0000
0000
0001
0000
0000
0000
0000
0000
,  // measure 56
1000
0000
0000
0000
;
