#TITLE:ALL I GOT;
#SUBTITLE:;
#ARTIST:Frost Children;
#TITLETRANSLIT:;
#SUBTITLETRANSLIT:;
#ARTISTTRANSLIT:;
#GENRE:Electropop;
#CREDIT:;
#BANNER:ALL I GOT-bn.png;
#BACKGROUND:ALL I GOT-bg.png;
#LYRICSPATH:;
#CDTITLE:cdtitle.png;
#MUSIC:ALL I GOT.ogg;
#OFFSET:-0.002000;
#SAMPLESTART:1.848000;
#SAMPLELENGTH:14.769000;
#SELECTABLE:YES;
#DISPLAYBPM:130.000000;
#BPMS:0.000000=130.000000
,18.000000=260.000000
,18.250000=130.000000
,18.375000=65.000000
,18.500000=260.000000
,18.750000=130.000000
,18.875000=65.000000
,19.000000=260.000000
,19.250000=130.000000
,19.375000=65.000000
,19.500000=260.000000
,19.750000=130.000000
,19.875000=65.000000
,20.000000=130.000000
,97.000000=260.000000
,98.500000=130.000000
,98.750000=65.000000
,99.000000=260.000000
,100.000000=130.000000
,178.000000=260.000000
,178.250000=130.000000
,178.375000=65.000000
,178.500000=260.000000
,178.750000=130.000000
,178.875000=65.000000
,179.000000=260.000000
,179.250000=130.000000
,179.375000=65.000000
,179.500000=260.000000
,179.750000=130.000000
,179.875000=65.000000
,180.000000=130.000000
;
#STOPS:97.000000=0.115000,
97.500000=0.115000,
99.000000=0.115000,
99.500000=0.115000
;
#BGCHANGES:0.000=ALL I GOT.avi=1.000=0=0=0=StretchNoLoop==CrossFade_Fastest==,
99999=-nosongbg-=1.000=0=0=0 // don't automatically add -songbackground-
;
#KEYSOUNDS:;
#ATTACKS:;

//---------------dance-single - ----------------
#NOTES:
     dance-single:
     X-Scale 7:
     Easy:
     5:
     0.337165,0.351115,0.024931,0.440452,0.000000,284.000000,281.000000,3.000000,53.000000,0.000000,0.000000,0.337165,0.351115,0.024931,0.440452,0.000000,284.000000,281.000000,3.000000,53.000000,0.000000,0.000000:
0000
0000
0000
0000
,
0001
0000
0000
1000
0000
0000
0001
0000
,
0000
0000
0000
0000
,
0100
0000
0000
0010
0000
0000
0100
0000
,
0000
0000
0000
0000
,
1001
1000
0010
1000
,
0100
0000
0010
0000
0001
0000
0010
0100
,
1000
0001
1000
0010
,
1000
0000
0100
0000
0010
0000
0001
0010
,
0100
0010
0001
1000
,
0001
0000
0100
0000
0001
0000
1000
0001
,
0100
0001
1000
0010
,
1000
0000
0100
0000
0010
0000
0100
0010
,
0001
0000
1000
0000
0001
0000
0010
0200
,
1000
0000
0320
0000
0031
0000
1000
0001
,
0200
0000
0310
2000
0000
3100
0010
0001
,
0200
0000
0000
0002
0300
0000
0103
0000
,
0001
0000
1000
0010
1000
0200
0000
0320
,
0000
0032
0000
0000
1003
0001
0100
0001
,
1000
0000
0001
0010
0100
2000
0000
3002
,
0000
0203
0000
0000
0301
1000
0010
1000
,
0001
0000
0010
0100
1000
0002
0000
0203
,
0000
0302
0000
2003
0000
0000
3001
0010
,
0100
0000
1000
0010
1000
0200
0000
0320
,
0000
0032
0000
0003
0000
0000
0000
0000
,
1001
0000
1000
0000
,
0001
0000
0100
0000
,
0001
0010
0100
1000
,
0001
0000
1000
0000
0010
0000
1000
0100
,
0020
0000
0100
0000
0031
0000
0010
0100
,
2000
0000
0100
0000
0001
0000
3010
1000
,
0001
0010
0100
1000
,
0001
0000
0001
0000
1000
0000
1000
0100
,
0010
0000
0001
0010
0100
0000
1000
0001
,
0100
0000
0001
0000
0010
0000
0100
0010
,
0001
0000
1000
0001
0100
0000
0001
0010
,
0100
0000
0010
0000
0001
0000
1000
0001
,
0200
0000
0301
0020
0000
0230
0000
2300
,
0000
0000
3001
0000
1000
0000
0100
0010
,
0002
0000
0103
0002
0000
2003
0000
3020
,
0000
0030
0000
0000
0000
0000
0000
0000
,
0000
1000
0000
0001
,
0000
1000
0000
0001
,
0000
1000
0000
0001
,
0000
1000
0000
0000
,
1001
0000
0100
0000
0001
0010
0100
2000
,
0100
3001
0100
0001
,
1000
0010
1000
0200
0000
0310
0100
2000
,
0001
0000
3010
0000
1000
0000
0001
0010
,
0100
0000
0010
0000
0001
0100
0010
2000
,
0010
3001
1000
0100
,
0010
0100
1000
0002
0000
0103
0001
2000
,
0010
0000
3001
0000
1000
0000
0010
1000
,
0001
0000
0100
0000
0001
1000
0100
0020
,
0100
0031
0010
0100
,
1000
0001
0100
0002
0000
0013
0100
1000
,
0020
0000
0000
2000
0030
0000
3002
0000
,
0103
0000
0001
0010
0100
2000
0000
3002
,
0000
0203
0000
0000
0310
0100
0001
1000
,
0100
0000
0010
0200
0000
2300
0000
3002
,
0000
0203
0000
0000
0310
0100
0001
0100
,
0010
0000
1000
0001
0100
0002
0000
2003
,
0000
3200
0000
0000
0310
0100
1000
0001
,
1000
0000
0010
2000
0000
3002
0000
0203
,
0000
0000
0310
0000
1000
0000
0001
0010
,
0100
0000
0000
0000
;

//---------------dance-single - ----------------
#NOTES:
     dance-single:
     X-Scale 10:
     Medium:
     7:
     0.433329,0.487094,0.124656,0.390589,0.178674,365.000000,350.000000,15.000000,47.000000,0.000000,0.000000,0.433329,0.487094,0.124656,0.390589,0.178674,365.000000,350.000000,15.000000,47.000000,0.000000,0.000000:
0000
0000
0000
0000
,
1000
0000
0000
0000
0000
0000
1000
0000
0000
0000
0000
0000
1000
0000
0000
2000
,
0000
0000
3000
0000
,
0001
0000
0000
0000
0000
0000
0001
0000
0000
0000
0000
0000
0001
0000
0000
0002
,
0000
0000
0000
0000
0103
0010
0100
0010
,
0110
0000
0000
0100
0000
0000
0001
0000
0000
0010
0000
0000
0100
0000
0000
1000
,
0000
0002
0100
0000
1003
0001
0100
0010
,
1000
0000
0000
0100
0000
0000
0001
0000
0000
0010
0000
0000
1000
0000
0000
0002
,
1000
0000
0010
0000
0103
0001
1000
0001
,
0010
0000
0000
1000
0000
0000
0001
0000
0000
0100
0000
0000
1000
0000
0000
0020
,
1000
0000
0001
0000
0130
0010
1000
0001
,
0010
0000
0000
0100
0000
0000
1000
0000
0000
0001
0000
0000
0200
0000
0000
0000
,
0310
0100
0001
0000
1000
0100
0001
0100
,
1000
0000
0000
0000
1000
0000
0000
0000
1000
0000
0000
0100
0000
0000
0020
0000
,
0100
0000
0032
0000
0103
0001
1000
0001
,
0020
0000
0030
0200
0000
1300
0001
0100
,
0020
0000
0001
0000
0130
0010
1000
0001
,
0100
0000
0001
0100
0001
2000
0000
3200
,
0000
0000
0000
0310
0001
1000
0010
0100
,
0001
0000
0010
0100
1000
0002
0000
0203
,
0000
0310
0100
0002
0000
2003
0000
0100
,
3100
0000
1000
0100
0010
0002
0000
0203
,
0000
0000
0000
0320
0000
0000
0031
0010
,
1000
0000
0001
0100
0010
2000
0000
3200
,
0000
0300
1000
1000
0000
0000
0001
0001
,
0011
0000
0001
1000
,
0001
0000
0100
0010
,
0100
0000
0000
0010
0000
0000
2000
0000
0000
0000
3200
0000
0000
0000
0302
0000
,
0000
1003
0010
0001
1000
0001
0010
0100
,
2000
0000
0100
0000
3001
0100
0010
1000
,
0200
0001
0010
1300
,
0001
0000
0000
0100
0000
0000
0002
0000
0000
0000
0023
0000
0000
0000
0230
0000
,
0010
1000
0310
0100
,
1000
0001
0100
0001
1000
0100
0010
0001
,
0100
0000
0000
0001
0000
0000
2000
0000
0001
0000
0000
0000
3100
0000
0000
0000
,
1000
0010
0001
0010
1000
0001
0100
0010
,
1000
0000
0000
0001
0000
0000
0200
0000
1000
0000
0000
0000
0301
0000
0000
0000
,
0100
0000
0000
0001
0000
0000
1000
0000
0000
0001
0000
0000
0010
0000
0000
0100
,
0010
0000
0001
0000
1000
0001
1000
0000
,
0200
0000
0310
0002
0000
2003
0000
3020
,
0000
0200
0030
0000
0300
0000
0000
0000
,
0000
1001
0000
1100
,
0000
0101
0000
0011
,
0000
0110
0000
1001
,
0000
0000
1010
0000
1000
0001
1000
0001
,
1001
0000
0000
0100
0000
0000
0001
0000
0000
0100
0000
0000
1000
0000
0000
0100
,
0000
0020
0100
0000
0031
0010
1000
0010
,
0001
0000
0000
0100
0000
0000
0001
0000
0000
1000
0000
0000
0100
0000
0000
0020
,
0100
0000
0031
0010
1000
0001
0100
1000
,
0001
0000
0000
0001
0100
0000
0010
0000
1000
0100
0000
0000
1000
0000
0001
0100
,
0001
0000
0020
0000
0130
0010
0001
1000
,
0001
0000
0000
0001
0100
0000
0010
0000
1000
0100
0000
0000
1000
0000
0000
1000
,
0001
0100
0001
0000
1000
0100
1000
0000
,
0001
0000
0000
0000
0001
0000
0000
0000
0001
0000
0000
1000
0000
0000
0020
0000
,
0001
0000
0100
0000
1030
0010
0100
0001
,
0020
0000
0130
2000
0000
3001
0100
0010
,
2000
0000
0100
0000
3001
0100
1000
0100
,
0001
0000
0000
1000
0010
0000
1000
0000
0100
0000
0000
0000
0110
0000
0000
0000
,
0001
0000
0000
0100
0001
0000
1000
0000
0010
0000
0001
0000
1000
0000
0100
0000
,
0001
0000
0000
0100
0001
0000
0010
0000
0100
0000
0000
0000
1100
0000
0000
0100
,
1000
0001
1000
0100
0001
1000
0010
0100
,
1000
0000
0000
0001
0100
0000
0001
0000
1000
0000
0000
0000
1001
0000
0000
0100
,
0001
1000
0001
0010
0100
0000
1100
0100
,
1000
0000
0000
0100
0010
0000
0001
0000
1000
0000
0000
0000
1001
0000
0000
0001
,
0100
0000
0001
0000
1000
0000
0100
0000
0010
0000
0000
0010
0002
0000
2003
0000
,
3002
0003
0000
0000
0000
0000
0000
0000
;

//---------------dance-single - ----------------
#NOTES:
     dance-single:
     X-Scale 14:
     Hard:
     9:
     0.585290,0.595337,0.132967,0.265933,0.361503,493.000000,477.000000,16.000000,32.000000,0.000000,0.000000,0.585290,0.595337,0.132967,0.265933,0.361503,493.000000,477.000000,16.000000,32.000000,0.000000,0.000000:
// measure 0
0000
0000
0000
0000
,  // measure 1
0001
0000
0000
0001
0000
0000
0001
0000
0000
0001
0000
0000
0001
0000
0000
0020
,  // measure 2
0000
0000
0230
0000
0301
0100
1000
0001
,  // measure 3
1000
0000
0000
1000
0000
0000
1000
0000
0000
1000
0100
0000
0010
0000
0001
0010
,  // measure 4
0200
0000
0000
0000
1300
1000
1000
0100
,  // measure 5
1001
0000
0000
0001
0000
0000
0100
0000
0000
0001
0000
0000
0010
0000
0000
0100
,  // measure 6
0000
2000
0100
0000
3001
0100
1000
0100
,  // measure 7
0001
0000
0000
0010
0000
0000
1000
0000
0000
0100
0000
0000
0001
0000
0000
2000
,  // measure 8
0001
0000
0100
0000
3001
1000
0010
0100
,  // measure 9
0001
0000
0000
1000
0000
0000
0100
0000
0000
0001
0000
0000
0010
0000
0000
2000
,  // measure 10
0001
0000
0020
0030
3010
0001
0010
1000
,  // measure 11
0001
0000
0000
0100
0000
0000
1000
0000
0000
0100
0000
0000
0002
0000
0000
0100
,  // measure 12
0103
0001
1000
0001
0100
1000
0001
0010
,  // measure 13
2000
0000
3010
0000
2000
0000
3001
0000
2000
0000
3000
0200
0000
0300
0020
0000
,  // measure 14
1000
0000
0031
0010
1000
0001
0100
0010
,  // measure 15
0001
0000
0000
1000
0001
0000
0200
0000
0000
0000
1300
0000
0100
0000
0001
0000
,  // measure 16
0101
0000
1100
1000
0001
0100
0001
0010
,  // measure 17
0100
0000
0000
0100
1000
0000
0001
0000
0100
0001
0000
0000
1000
0000
0001
0010
,  // measure 18
0100
0000
0010
0000
0001
1000
0001
0000
0100
0000
0010
0000
0001
0000
0010
0000
,  // measure 19
1000
0000
0000
0100
0010
0000
0001
0000
0100
0001
0000
0000
1000
0000
0001
0010
,  // measure 20
0100
0000
1000
0000
0010
1000
0001
0000
0100
0000
0001
0000
1000
0000
0001
0000
,  // measure 21
0100
0000
0000
0010
0100
0000
0001
0000
1000
0001
0000
0000
0100
0000
0001
0010
,  // measure 22
0100
0000
0010
0000
0001
1000
0010
0000
1000
0000
0100
0000
0001
0000
0100
0000
,  // measure 23
1000
0000
0000
0010
1000
0000
0001
0000
0100
0001
0000
0000
1000
0000
0001
0010
,  // measure 24
0100
1000
1100
1100
0000
0000
0101
0101
,  // measure 25
0001
0010
1000
0001
0100
0010
0001
2000
,  // measure 26
0000
0000
0000
0000
0000
0000
3100
0000
1000
0010
0000
0000
0010
0001
0000
0000
,  // measure 27
1001
0000
0100
0000
0001
0000
1000
0000
0000
0000
0100
0000
0000
0000
1000
0001
,  // measure 28
0100
0001
0010
1000
0001
0100
1000
0001
,  // measure 29
0200
0000
0000
1000
0000
0000
0010
0000
0310
0000
0100
0000
0001
0000
1000
0100
,  // measure 30
0020
0100
0000
0001
0030
0010
0100
1000
,  // measure 31
0001
0000
0000
0100
0001
0000
0010
0000
0100
0000
1000
0000
0001
0000
0100
0000
,  // measure 32
0101
0000
1100
0000
1010
0000
0011
1000
,  // measure 33
0001
0100
1000
0001
0100
0010
0001
1000
,  // measure 34
0010
0000
0000
0100
0000
0000
0002
0000
0100
0000
0000
0000
1003
0000
0100
0000
,  // measure 35
0001
0010
1000
0100
0001
0100
0010
0001
,  // measure 36
1000
0000
0000
0001
0000
0000
0020
0000
0100
0000
0000
0000
0031
0000
0010
0000
,  // measure 37
0100
0000
0000
1000
0100
0000
1000
0000
0001
0100
0000
0000
0001
0000
0010
0000
,  // measure 38
0100
0000
0000
0000
1000
0000
0001
0000
0100
0000
0000
0000
0101
0000
1000
0001
,  // measure 39
0000
0001
0100
0010
1000
0001
0010
0200
,  // measure 40
0000
2000
0300
0000
3000
0000
0000
0000
,  // measure 41
1000
0100
1000
0001
0000
0100
0010
0001
,  // measure 42
0000
0000
0001
0000
0010
0000
1000
0010
1000
0000
0000
0000
0100
0000
0010
0000
,  // measure 43
0001
1000
0010
1000
0000
0100
0010
0001
,  // measure 44
0000
0000
1000
0000
0001
0000
0100
0001
1000
0000
0010
0000
0100
0000
0001
0000
,  // measure 45
1001
0000
0000
0001
0010
0000
0100
0000
1000
0100
0000
0000
1000
0000
0001
0010
,  // measure 46
0100
0010
0001
1000
0010
0100
0001
0000
,  // measure 47
0010
0000
0000
0010
0100
0000
1000
0000
0001
1000
0000
0000
0010
0000
0100
0010
,  // measure 48
1000
0001
0100
0010
0001
0010
1000
0000
,  // measure 49
0100
0000
0000
0100
0010
0000
0001
0000
0100
0001
0000
0000
1000
0000
0001
0010
,  // measure 50
0100
0010
0001
1000
0010
0000
1010
0000
,  // measure 51
1000
0000
0000
1000
0100
0000
0010
0000
0010
0001
0000
0000
0100
0000
0001
0010
,  // measure 52
0100
0010
0001
1000
0010
0000
1010
0000
,  // measure 53
2000
0000
3001
0000
2000
0000
3100
0000
2000
0000
3000
0002
0000
0003
0020
0000
,  // measure 54
0100
0000
0031
0010
1000
0001
0100
0010
,  // measure 55
0001
0000
0000
0001
1000
0000
0020
0000
0000
0000
0130
0000
1000
0000
0100
0000
,  // measure 56
0002
0000
0100
0000
1003
0100
0001
0100
,  // measure 57
1000
0001
1000
0000
0010
0100
0000
0001
1000
0000
0100
0000
0010
0100
0010
0000
,  // measure 58
0001
0100
0001
0000
1000
0100
0000
0100
0001
0000
0100
0000
1000
0000
0001
0000
,  // measure 59
0100
0001
1000
0000
0010
0100
0000
0100
1000
0000
0100
0000
0001
0000
1000
0010
,  // measure 60
1000
0000
0100
0000
0010
0001
0000
1000
0001
0000
0100
0000
1000
0000
0100
0000
,  // measure 61
0001
0100
0001
0000
0010
0100
0000
0100
1000
0000
0001
0000
0100
0010
0100
0000
,  // measure 62
0001
1000
0001
0000
1000
0100
0000
0000
1000
0000
0001
0000
0100
0000
0001
0000
,  // measure 63
0010
0100
1000
0000
0001
0010
0000
0010
1000
0000
0010
0000
0001
0100
0002
0000
,  // measure 64
1000
0000
0000
0000
1003
0001
0100
0000
0001
0000
0010
0100
2000
0000
3002
0000
,  // measure 65
0203
0300
0000
0000
0000
0000
0000
0000
;

//---------------dance-single - DANCERUSH Special (with a twist)----------------
#NOTES:
     dance-single:
     X-Scale 12:
     Challenge:
     8:
     0.395338,0.432141,0.099725,0.299175,0.099725,333.000000,321.000000,12.000000,36.000000,204.000000,0.000000,0.395338,0.432141,0.099725,0.299175,0.099725,333.000000,321.000000,12.000000,36.000000,204.000000,0.000000:
// measure 0
0000
0000
0000
0000
,  // measure 1
0001
0000
0000
0100
0000
0000
1000
0000
0000
0001
0000
0000
0010
0000
0000
2000
,  // measure 2
0000
0000
0000
3000
L000
0000
0000
0000
0000
0000
0000
0000
0000
0000
0000
0000
,  // measure 3
1000
0000
0000
0010
0000
0000
0001
0000
0000
1000
0000
0000
0100
0000
0000
0002
,  // measure 4
0000
0000
0000
0003
000L
0000
0000
0000
000M
0000
00M0
0000
0M00
0000
M000
0000
,  // measure 5
0001
MMMM
0001
MMMM
0001
MMMM
0001
MMMM
,  // measure 6
0001
0000
1000
0010
0001
0010
0100
0010
,  // measure 7
1000
MMMM
1000
MMMM
1000
MMMM
1000
MMMM
,  // measure 8
1000
0000
0010
0100
1000
0100
0001
1000
,  // measure 9
0001
MMMM
0001
MMMM
0001
MMMM
0001
MMMM
,  // measure 10
0001
0000
1000
0000
0000
1000
0000
0000
0100
0000
0001
0000
0100
0000
0010
0000
,  // measure 11
0001
MMMM
0001
MMMM
0001
MMMM
0001
MMMM
,  // measure 12
0001
0000
0010
0000
0000
0010
0000
0000
0100
0000
1000
0000
0001
0000
0100
0000
,  // measure 13
0010
0000
M000
0000
0010
0000
0000
0000
0001
0000
0000
0010
0000
0000
0200
0000
,  // measure 14
0001
0000
1300
0000
0001
MMMM
1000
0100
,  // measure 15
0020
0000
0000
1000
0000
0000
0032
0000
0000
0000
0103
0000
0001
0000
0010
0000
,  // measure 16
0011
0000
1000
0001
0100
1000
0100
0001
,  // measure 17
1000
0000
0010
1000
0001
0100
00M0
2000
,  // measure 18
0000
0002
3000
0000
0013
0100
0010
0100
,  // measure 19
1000
0000
0010
1000
0001
0010
0M00
2000
,  // measure 20
0000
0200
3000
0000
0301
0100
0001
0100
,  // measure 21
1000
0000
0010
1000
0001
0100
00M0
2000
,  // measure 22
0000
0002
3000
0020
0003
0000
0130
0010
,  // measure 23
0001
0000
1000
0010
0100
0002
0000
0020
,  // measure 24
0003
0200
0030
0000
0300
0000
0000
0000
,  // measure 25
1001
0000
0100
0001
0010
0000
MMMM
0000
,  // measure 26
1000
0000
0010
1000
0100
0000
MMMM
0000
,  // measure 27
0001
MMMM
0001
MMMM
0001
0100
1000
0100
,  // measure 28
0001
0000
1000
0000
0010
0000
1000
0100
,  // measure 29
0020
0000
0000
1000
0000
0000
0001
0000
0030
0000
0010
0000
0001
0000
0010
0000
,  // measure 30
0200
0001
0000
0001
0000
0000
1300
0000
,  // measure 31
0001
MMMM
0001
MMMM
0001
1000
0010
0200
,  // measure 32
1000
0000
0010
0000
0301
0000
0010
MMMM
,  // measure 33
1000
0010
0100
1000
0100
0001
0010
0100
,  // measure 34
1000
0000
0000
0100
0000
0000
0020
0000
0100
0000
0000
0000
0031
0000
0000
0000
,  // measure 35
0001
0100
0010
0001
0010
1000
0001
0100
,  // measure 36
0010
0000
0000
1000
0000
0000
0200
0000
0010
0000
0000
0000
1300
0000
0000
0000
,  // measure 37
0001
0000
0000
0010
0000
0000
0100
0000
0000
1000
0000
0000
0001
0000
0000
1000
,  // measure 38
0010
0100
000M
0100
1000
0000
0010
0000
,  // measure 39
0000
1000
0010
0200
0000
1300
0100
0002
,  // measure 40
0000
2000
0000
3003
L00L
0000
0000
0000
,  // measure 41
0000
0M00
0011
0M00
0000
000M
0110
000M
,  // measure 42
0000
0M00
1010
0M00
0001
0000
1000
0100
,  // measure 43
0010
0M00
0011
0M00
0000
000M
1010
000M
,  // measure 44
0000
00M0
1001
00M0
000M
0M00
00M0
M000
,  // measure 45
0001
MMMM
0001
MMMM
0001
MMMM
0001
MMMM
,  // measure 46
0001
0000
1000
0010
0001
1000
0100
0001
,  // measure 47
1000
MMMM
1000
MMMM
1000
MMMM
1000
MMMM
,  // measure 48
1000
0000
0010
1000
0001
0100
0010
1000
,  // measure 49
0001
MMMM
1000
MMMM
0001
MMMM
1000
MMMM
,  // measure 50
0001
0000
0010
0000
0000
0010
0000
0000
0100
0000
1000
0000
0001
0000
0100
0000
,  // measure 51
0001
MMMM
1000
MMMM
0001
MMMM
1000
MMMM
,  // measure 52
0001
0000
0100
0000
0000
0100
0000
0000
1000
0000
0100
0000
0001
0000
1000
0000
,  // measure 53
0010
0000
0M00
0000
0010
0000
0000
0000
0001
0000
0000
1000
0000
0000
0200
0000
,  // measure 54
0010
0000
2300
0000
3001
0000
1000
0001
,  // measure 55
0200
0000
0000
1000
0000
0000
0302
0000
0000
0000
0013
0000
0100
0000
1000
0000
,  // measure 56
0020
0000
0030
02L0
0000
0300
0L00
0000
,  // measure 57
1001
0000
1000
0001
0010
0100
M000
0002
,  // measure 58
0000
0200
0003
0000
1300
0100
0010
0100
,  // measure 59
0001
0000
0000
0010
0000
0000
1000
0000
0000
0010
0000
0000
0001
0000
0000
0000
,  // measure 60
1000
MMMM
1000
MMMM
1000
0010
0100
0001
,  // measure 61
1000
0000
0100
0010
0001
0100
00M0
2000
,  // measure 62
0000
0002
3000
0200
0003
0000
1300
0100
,  // measure 63
0001
0000
0000
1000
0000
0000
0010
0000
0000
1000
0000
0000
0001
0000
0020
0000
,  // measure 64
0100
0000
0031
MMMM
0001
MMMM
0002
1003
,  // measure 65
L00L
0000
0000
0000
;

//---------------dance-single - ----------------
#NOTES:
     dance-single:
     X-Scale 3:
     Beginner:
     2:
     0.149587,0.188335,0.000000,0.000000,0.000000,126.000000,126.000000,0.000000,0.000000,0.000000,0.000000,0.149587,0.188335,0.000000,0.000000,0.000000,126.000000,126.000000,0.000000,0.000000,0.000000,0.000000:
0000
0000
0000
0000
,
1000
0000
0000
0000
,
0000
0000
0000
0000
,
0001
0000
0000
0000
,
0000
0000
0000
0000
,
0000
1000
0000
0010
,
0000
1000
0000
0001
,
0000
0100
0000
0001
,
0000
0010
0000
0001
,
0000
1000
0000
0100
,
0000
1000
0000
0001
,
0000
0100
0000
0010
,
0000
1000
0000
0100
,
0000
0010
0000
0001
,
0000
1000
0000
0001
,
0000
0010
0000
0100
,
0000
1000
0000
0001
,
0000
0100
0000
0001
,
0000
1000
0000
0010
,
0000
1000
0000
0001
,
0000
0010
0000
0100
,
0000
0010
0000
0001
,
0000
1000
0000
0100
,
0000
0010
0000
0100
,
0000
1000
0000
0000
,
0000
0000
0000
1000
,
0000
0000
0000
0001
,
0000
0100
0000
0001
,
0000
1000
0000
0001
,
0000
0010
0000
0100
,
0000
1000
0000
1000
0000
0000
0001
0000
,
0000
0100
0000
0001
,
1000
0001
1000
0001
,
0000
0100
0000
0001
,
0000
0010
0000
0010
0000
0000
0100
0000
,
0000
1000
0000
0001
,
0000
1000
0000
0100
,
0000
0010
0000
0001
,
0000
0100
0000
0100
0000
0000
0001
0000
,
1000
0000
0000
0100
0000
0010
0000
0001
,
0000
0000
0000
0000
,
0000
1000
0000
0001
,
0000
1000
0000
0000
,
0000
0010
0000
0100
,
0000
0010
0000
0000
,
0000
1000
0000
0001
,
0000
0100
0000
0001
,
0000
1000
0000
0010
,
0000
0100
0000
0001
,
0000
0010
0000
0100
,
0000
0010
0000
0001
,
0000
1000
0000
0100
,
0000
0010
0000
0001
,
0000
1000
0000
0001
,
0000
0100
0000
0010
,
0000
0100
0000
0001
,
0000
0010
0000
0100
,
0000
0000
1000
0000
0000
0001
0000
0100
,
0000
0001
0000
0000
0000
0000
0010
0000
,
0000
0000
0100
0000
0000
1000
0000
0001
,
0000
1000
0000
0000
0000
0000
0100
0000
,
0000
0000
0010
0000
0000
0001
0000
0100
,
0000
0001
0000
0000
0000
0000
0010
0000
,
0000
0000
0100
0000
0000
1000
0000
0100
,
0000
1000
0000
0000
0000
0000
0001
0000
;
