#TITLE:A Feeling of Tread;
#SUBTITLE:;
#ARTIST:Zanzlanz;
#TITLETRANSLIT:;
#SUBTITLETRANSLIT:;
#ARTISTTRANSLIT:;
#GENRE:Midtempo Dubstep;
#CREDIT:;
#BANNER:A Feeling of Tread-bn.png;
#BACKGROUND:A Feeling of Tread-bg.png;
#LYRICSPATH:;
#CDTITLE:cdtitle.png;
#MUSIC:A Feeling of Tread.ogg;
#OFFSET:-0.005000;
#SAMPLESTART:19.205000;
#SAMPLELENGTH:9.600000;
#SELECTABLE:YES;
#BPMS:0.000000=100.000000
;
#STOPS:
;
#BGCHANGES:;
#KEYSOUNDS:;
#ATTACKS:;

//---------------dance-single - ----------------
#NOTES:
     dance-single:
     X-Scale 15:
     Hard:
     10:
     0.584310,0.630374,0.436904,0.074367,0.608878,440.000000,393.000000,47.000000,8.000000,0.000000,0.000000,0.584310,0.630374,0.436904,0.074367,0.608878,440.000000,393.000000,47.000000,8.000000,0.000000,0.000000:
// measure 0
0000
0000
0000
0000
,  // measure 1
0000
0000
0000
0000
,  // measure 2
0000
0000
0000
0000
,  // measure 3
0000
0000
0000
0000
,  // measure 4
1000
0000
0010
0000
0100
0000
0001
0000
0010
0100
0000
0100
0000
0000
1000
0000
,  // measure 5
0100
0000
0001
0000
0100
0000
1000
0000
0001
0010
0000
0010
0000
0000
0001
0010
,  // measure 6
0001
0000
1000
0000
0010
0000
1000
0000
0001
0010
0000
0010
0100
0000
1000
0000
,  // measure 7
1001
0000
0001
0000
0100
0000
0001
0000
0010
0100
0000
0200
2000
0000
0000
3300
,  // measure 8
1100
0000
0000
0100
1000
0000
0001
0000
0100
0010
1000
0001
0010
0100
2000
0000
,  // measure 9
3001
0000
0000
0001
0000
0000
0001
0000
0000
0000
0000
0000
0011
0000
0000
0000
0000
0000
0010
0000
0001
0000
0010
0000
0001
0000
0000
0010
0000
0000
0001
0000
0000
1000
0000
0000
0010
0000
0000
0000
0000
0000
1000
0000
0000
0000
0000
0000
,  // measure 10
1010
0000
0000
0001
1000
0000
0001
0000
1000
0010
0001
0010
0100
0010
2000
0000
,  // measure 11
3001
0000
0011
0000
1001
0000
1010
0000
0010
1000
0001
0010
1000
0010
0001
0000
,  // measure 12
0012
0000
0000
0000
1000
0000
1003
0001
0100
0001
0000
0010
0100
0010
0100
0000
,  // measure 13
1100
0000
0000
0000
0000
0000
1100
0000
0000
0000
0000
0000
1000
0000
0000
0001
0000
0000
0010
0000
0001
0000
0010
0000
0001
0000
0000
0010
0000
0000
0100
0000
0000
0000
0000
0000
0110
0000
0000
0000
0000
0000
1001
0000
0000
0000
0000
0000
,  // measure 14
0110
0100
0000
0000
0010
0100
0001
0010
0001
1000
1000
0000
1010
0000
0001
0000
,  // measure 15
1001
0000
0000
0000
0000
0000
0000
0000
0000
0100
0000
0000
1000
0000
0000
0000
0001
0000
0000
0000
0000
0001
0000
0000
0000
0000
0001
0000
0000
0000
0010
0000
0000
0100
0000
0000
0010
0000
0000
0001
0000
0000
0010
0000
0000
0000
0000
0000
,  // measure 16
1001
0000
0100
0000
1010
1000
0000
0001
,  // measure 17
0101
0000
0000
0000
0100
0000
0000
0000
0110
0000
0010
0000
1000
0001
0000
0000
,  // measure 18
0011
0000
0001
0000
1001
1000
0000
0100
,  // measure 19
1100
0000
0000
0000
1000
0000
0000
0000
1001
0000
0001
0010
0000
0100
1000
0000
,  // measure 20
1100
0101
0011
1010
,  // measure 21
1001
1000
0001
0100
0010
1000
0100
0010
,  // measure 22
0001
0010
0100
1000
0001
0010
0100
1000
0001
0100
0010
1000
0001
0100
0010
1000
,  // measure 23
0400
0000
0040
0000
0000
0000
0000
0000
0000
0000
0000
0000
0000
0000
0000
0000
0000
0000
0000
0000
0000
0000
0000
0000
0330
0000
0000
0000
0000
0000
0001
0000
0000
0000
0000
0000
0001
0000
0000
1000
0000
0000
0000
0000
0000
0000
0000
0000
,  // measure 24
1001
0000
0000
0000
1000
0100
0010
0100
0010
0000
0001
0000
1000
0001
1000
0000
,  // measure 25
0010
0000
0010
0000
1010
0000
1000
0001
0010
0000
0001
0000
0200
0000
0000
0300
,  // measure 26
0110
0000
0000
0010
0100
0001
0010
0001
1000
0100
1000
0001
0000
0100
0001
0000
,  // measure 27
1000
0010
0000
1000
0100
0000
0010
0000
0001
0100
0000
0001
0100
0001
1000
0000
,  // measure 28
1100
0000
0000
0100
0010
0000
0100
1000
0001
0000
0010
0000
0200
0000
0000
0000
,  // measure 29
1300
1000
1000
0000
1100
0000
0100
0010
0001
0000
1000
0000
0020
0000
0000
0030
,  // measure 30
0110
0000
0000
0001
0100
0000
0001
0010
1000
0010
0001
0010
0000
0100
0010
0000
,  // measure 31
0001
1000
0001
1000
0100
0010
0100
0010
0001
0100
0001
0100
0001
0010
0001
0000
,  // measure 32
1001
0000
0000
1000
0100
0000
1000
0000
0001
0010
0100
1000
0010
0100
0001
0000
,  // measure 33
0101
0000
0101
0000
0001
0010
0100
0100
1000
0100
0001
0100
1000
0000
0010
0000
,  // measure 34
1010
0000
0000
1000
0001
0000
0010
0000
0001
0010
0100
1000
0010
0100
0001
0000
,  // measure 35
1001
0000
1000
0000
0010
0000
1000
0000
0001
0010
0001
1000
0010
0100
0010
0000
,  // measure 36
0101
0000
0000
0001
0010
0000
0001
0000
1000
0100
0010
0001
0010
0100
1000
0000
,  // measure 37
1100
0000
1100
0000
0100
0010
0100
0000
1000
0001
0100
0001
1000
0000
0010
0000
,  // measure 38
1010
0000
0000
0001
0010
0000
0001
0000
1000
0010
0100
0000
0001
0010
0100
0000
,  // measure 39
0110
0000
0110
0000
0010
0001
1000
0001
0010
0100
1000
0001
1000
0000
0010
0000
,  // measure 40
1010
0000
0000
1000
0001
0000
1000
0000
0100
0010
0000
0010
0001
0000
1000
0000
,  // measure 41
0001
0000
0000
0010
0100
0000
0010
0000
0001
0100
0001
0000
1000
0000
0010
1000
,  // measure 42
0001
0000
0100
0001
1000
0000
0100
0000
0010
0100
0010
0000
0001
0000
0100
0001
,  // measure 43
0100
0000
0000
0010
0000
0000
0000
0000
0000
1000
0000
0000
0001
0000
0000
0000
0010
0000
0000
0000
0000
0010
0000
0000
0000
0000
0010
0000
0000
0000
0100
0000
0000
1000
0000
0000
1100
0000
0000
0000
0000
0000
0000
0000
0000
0000
0000
0000
;

//---------------dance-single - ----------------
#NOTES:
     dance-single:
     X-Scale 12:
     Medium:
     8:
     0.490024,0.549036,0.306763,0.130142,0.362538,369.000000,336.000000,33.000000,14.000000,0.000000,0.000000,0.490024,0.549036,0.306763,0.130142,0.362538,369.000000,336.000000,33.000000,14.000000,0.000000,0.000000:
// measure 0
0000
0000
0000
0000
,  // measure 1
0000
0000
0000
0000
,  // measure 2
0000
0000
0000
0000
,  // measure 3
0000
0000
0000
0000
,  // measure 4
1100
0000
0000
0000
0100
0000
1000
0000
0001
0100
0000
0100
0000
0000
0001
0000
,  // measure 5
0101
0000
0000
0000
1000
0000
0100
0000
0010
0001
0000
0001
0000
0000
1000
0000
,  // measure 6
1100
0000
0000
0000
0100
0000
0010
0000
0001
1000
0000
1000
0000
0000
0010
0000
,  // measure 7
0110
0000
0000
0000
0100
0000
0001
0000
0100
0010
0000
0010
2000
0000
0000
3000
,  // measure 8
1001
0000
0001
0100
0001
0010
0100
0010
,  // measure 9
0001
0010
0001
0000
1000
0000
0100
0000
1000
0000
0000
0000
0001
0000
0100
0000
,  // measure 10
0101
0000
1000
0100
0001
0100
0010
0001
,  // measure 11
0011
0000
1000
0000
1010
0000
0010
0000
0110
0000
0000
0100
0001
0100
0001
0000
,  // measure 12
0011
0000
0000
0000
0010
0000
0100
0000
1000
0010
0000
1000
0001
0000
0010
0000
,  // measure 13
0011
0000
0011
0000
0001
0000
1000
0100
1000
0000
0000
0100
0010
0000
0001
0000
,  // measure 14
0101
0000
0000
0001
1000
0000
0001
0000
0010
0100
0010
0000
0001
0000
1000
0000
,  // measure 15
0100
0000
0000
1000
0001
0000
0100
0000
0001
0000
0010
0100
0010
0000
0000
0000
,  // measure 16
0021
0000
1000
0000
0031
0010
0200
0000
,  // measure 17
2300
0000
0010
0000
3001
1000
0020
0000
,  // measure 18
0230
0000
1000
0000
0301
1000
0200
0000
,  // measure 19
0320
0000
1000
0000
0031
0010
0100
0000
,  // measure 20
1100
0000
1000
0000
0001
0000
1000
0100
,  // measure 21
0001
0100
0010
0001
0010
1000
0010
0100
,  // measure 22
1000
0010
0100
0010
0001
0010
0100
0010
,  // measure 23
1000
0010
1000
0010
0100
0001
0100
0001
0010
0000
0001
0000
0001
1000
0000
0000
,  // measure 24
1001
0000
0000
1000
0100
0000
1000
0000
0001
0000
0010
0000
0200
0000
0000
0000
,  // measure 25
2300
0100
0001
0000
3010
1000
0200
0000
,  // measure 26
0310
0000
0000
0010
0001
0000
0001
0000
1000
0000
0100
1000
0000
0001
0100
0000
,  // measure 27
0010
0100
0010
0000
0010
0000
1000
0000
0100
1000
0000
0001
0100
0000
0001
0010
,  // measure 28
0001
0000
0000
0100
0010
0000
0100
0000
1000
0000
0100
0000
0002
0000
0000
0000
,  // measure 29
2003
0001
0001
0000
0010
0000
0000
0000
3100
0000
1000
0000
0002
0000
0000
0003
,  // measure 30
0011
0000
0000
1010
0000
0000
1001
0000
0000
1000
0100
0000
1000
0000
0001
0000
,  // measure 31
0100
0010
0000
0100
0001
0000
0010
0100
0000
1000
0100
0000
1000
0001
1000
0000
,  // measure 32
1001
0000
0000
0001
0010
0000
0001
0000
1000
0010
1000
0001
0010
0001
1000
0000
,  // measure 33
1100
0000
1100
0000
0100
0010
0001
0000
1000
0100
0010
0100
1000
0000
0010
0000
,  // measure 34
1010
0000
0000
0001
1000
0000
0001
0000
1000
0001
0010
0001
0100
0010
0100
0000
,  // measure 35
0110
0000
0110
0000
0010
0000
0100
0000
0001
0010
0001
1000
0010
1000
0001
0000
,  // measure 36
1001
0000
0000
1000
0100
0000
1000
0000
0100
0010
0001
1000
0001
0100
0001
0000
,  // measure 37
0101
0000
0101
0000
0001
0100
0001
0000
0010
0100
1000
0001
1000
0000
0100
0000
,  // measure 38
0110
0000
0000
0010
0001
0000
1000
0000
0001
0010
0001
0000
0100
0000
0010
0000
,  // measure 39
0101
0000
0101
0000
0001
0000
1000
0100
1000
0001
1000
0010
0100
0000
0001
0000
,  // measure 40
0101
0000
0000
0100
0010
0000
0010
0000
1000
0001
1000
0000
0100
0000
1000
0000
,  // measure 41
0010
0000
0100
0001
0010
0000
0010
0000
0100
0000
1000
0000
0001
0100
0001
0100
,  // measure 42
0001
0000
1000
0000
1001
0000
0001
0000
0100
0010
0100
0000
0001
0000
1000
0000
,  // measure 43
0100
0000
0000
0000
0000
0000
1000
0000
0000
0010
0000
0000
1000
0000
0000
0000
0100
0000
0000
0000
0000
1000
0000
0000
0000
0000
0100
0000
0000
0000
1000
0000
0000
0001
0000
0000
1000
0000
0000
0000
0000
0000
0000
0000
0000
0000
0000
0000
;

//---------------dance-single - ----------------
#NOTES:
     dance-single:
     X-Scale 6:
     Easy:
     4:
     0.293483,0.345689,0.167325,0.213804,0.000000,221.000000,203.000000,18.000000,23.000000,0.000000,0.000000,0.293483,0.345689,0.167325,0.213804,0.000000,221.000000,203.000000,18.000000,23.000000,0.000000,0.000000:
0000
0000
0000
0000
,
0000
0000
0000
0000
,
0000
0000
0000
0000
,
0000
0000
0000
0000
,
0101
0000
0001
0000
1000
0000
0100
1000
,
0001
0000
0010
0000
0100
0000
1000
0010
,
1000
0100
0010
0100
1000
0001
0100
0001
,
1000
0100
0010
0001
0100
0010
1000
0000
,
1100
0000
0100
1000
0001
0000
0100
0001
,
1000
0000
0100
0010
0001
0000
1000
0010
,
1010
0000
0001
1000
0010
0000
0100
0001
,
1000
0100
1000
0001
0010
0000
0011
0000
,
2001
0000
0100
3100
1000
0000
0001
0010
,
0001
0001
0100
0000
0010
0000
0100
0001
,
2000
0000
3100
0000
0010
0001
1000
0001
,
0100
0101
1000
0100
,
2100
0000
3001
0100
,
0002
0000
0013
0100
,
2000
0000
3010
1000
,
0002
0010
1003
0100
,
0110
0010
0001
1000
,
0001
0010
0100
1000
,
0001
0100
0010
0100
,
0001
0010
0011
0000
,
1001
0000
1000
0000
0001
0010
0200
0000
,
2300
0000
0010
0000
3001
1000
0020
0000
,
0230
0000
1000
0000
0301
0010
0001
0000
,
1000
0010
1000
0100
0010
0000
0001
0010
,
0011
0000
0001
0000
0100
0010
0200
0000
,
0302
0000
0010
0000
1003
0100
0020
0000
,
0130
0000
1100
1000
0000
0100
1000
0001
,
0000
1000
0001
1000
0100
0000
0010
0000
,
0101
0000
0001
0000
0010
0100
1000
0000
,
0002
0010
0023
0000
0230
0000
1300
0100
,
2000
0000
3200
0000
0010
0000
1300
0100
,
0010
0000
0001
0010
0001
0000
1000
0001
,
0200
0000
0010
0000
0301
0000
0100
0001
,
2000
0000
3200
0000
0010
0000
1300
0100
,
2000
0000
3002
0000
0010
0000
0103
0001
,
1000
1000
0100
0000
0010
0000
0100
1000
,
0001
0000
1001
0000
1000
0000
0100
0010
,
0001
0000
0011
0000
0001
0000
0010
0100
,
1000
0000
1010
0000
1000
0000
0001
0100
,
0001
0011
0000
1001
;

//---------------dance-single - ----------------
#NOTES:
     dance-single:
     X-Scale 1:
     Beginner:
     1:
     0.103582,0.122008,0.027888,0.000000,0.000000,78.000000,75.000000,3.000000,0.000000,0.000000,0.000000,0.103582,0.122008,0.027888,0.000000,0.000000,78.000000,75.000000,3.000000,0.000000,0.000000,0.000000:
0000
0000
0000
0000
,
0000
0000
0000
0000
,
0000
0000
0000
0000
,
0000
0000
0000
0000
,
0001
0000
0000
0000
,
0010
0000
0000
0000
,
0100
0000
0000
0000
,
1000
0000
0000
0000
,
1001
0000
1000
0000
,
0100
0000
1000
0000
,
0001
0000
0100
0000
,
0001
0000
0010
0000
,
0100
0000
0010
0000
,
0001
0000
1000
0000
,
0010
0000
1000
0000
,
0001
0000
0000
0000
,
1001
0000
0000
0000
,
0100
0000
0000
0000
,
1000
0000
0000
0000
,
0001
0000
0000
0000
,
0010
0000
0100
0000
,
1000
0000
0001
0000
,
1000
0000
0100
0000
,
0010
0000
0001
0000
,
1001
0000
1000
0000
,
0100
0000
0010
0000
,
0001
0000
0100
0000
,
0010
0000
1000
0000
,
0001
0000
0010
0000
,
0001
0000
1000
0000
,
0010
0000
1000
0000
,
0100
0000
1000
0000
,
0001
0000
1000
0010
,
1000
0000
0001
0000
,
0010
0000
0100
1000
,
0100
0000
0010
0000
,
0001
0000
0100
0010
,
0100
0000
0001
0000
,
0010
0000
0100
0000
,
1000
0000
0001
1000
,
0000
0001
0000
0010
,
0000
0001
0000
0010
,
0000
0100
0000
1000
,
0000
0100
0000
1000
;
