#TITLE:9 (After Coachella);
#SUBTITLE:ft. MØ & SOPHIE;
#ARTIST:Cashmere Cat;
#TITLETRANSLIT:;
#SUBTITLETRANSLIT:;
#ARTISTTRANSLIT:;
#GENRE:Experimental Trap;
#CREDIT:;
#BANNER:9-bn.png;
#BACKGROUND:9-bg.png;
#LYRICSPATH:;
#CDTITLE:cdtitle.png;
#MUSIC:9 (after coachella).ogg;
#OFFSET:-0.003000;
#SAMPLESTART:56.877003;
#SAMPLELENGTH:14.250000;
#SELECTABLE:YES;
#BPMS:0.000000=135.000000
;
#STOPS:124.000000=0.200000,
124.500000=0.200000,
125.000000=0.200000,
125.500000=0.300000
;
#BGCHANGES:
;
#KEYSOUNDS:;
#ATTACKS:;

//---------------dance-single - ----------------
#NOTES:
     dance-single:
     X-Scale 9:
     Hard:
     7:
     0.383522,0.525818,0.034866,0.296358,0.043582,308.000000,304.000000,4.000000,34.000000,0.000000,0.000000,0.383522,0.525818,0.034866,0.296358,0.043582,308.000000,304.000000,4.000000,34.000000,0.000000,0.000000:
0000
0000
0000
0000
,
0000
0000
0000
0000
,
0000
0000
0000
0000
,
0000
0000
0000
0000
,
2000
0000
0000
0000
3001
1000
0000
0010
,
1000
0000
0002
0000
1000
1000
0003
0001
,
0200
0320
0230
0300
,
0001
0000
1000
0010
0100
0000
0001
0000
,
0101
0000
0001
0010
1000
0010
0001
0010
,
0100
0010
0001
1000
,
0001
0000
0100
0010
0100
1000
0100
0010
,
0100
0000
0000
0000
0001
0000
0000
0000
1000
0000
0000
0000
0010
0000
1000
0001
,
1000
0001
0100
0001
1000
0001
0100
0001
,
0010
0100
1000
0001
1000
0010
1000
0001
,
1000
0000
0001
0100
0001
0000
0100
0001
0100
0000
0010
0000
0001
0000
0010
0000
,
1000
0000
1000
0100
0010
0000
0010
0000
,
0110
0000
0000
0100
0010
0000
0000
0001
,
0000
0001
1000
0000
0100
0000
0010
0100
,
1000
0000
0000
0001
1000
0002
0003
1000
,
0000
0000
1000
0000
0010
0000
0000
0000
0100
0000
0000
0000
0001
0000
0100
0001
,
0100
0000
0000
0001
1000
0000
0000
0010
,
0000
0010
0100
0000
0001
0000
1000
0010
,
2000
0000
0001
0000
3100
0000
0000
1000
,
0100
1000
0010
0100
0001
0000
0001
0000
,
0100
0001
0000
1000
0001
0000
0100
0001
,
0000
0010
0001
0000
1000
0001
1000
0000
,
0010
1000
0000
0001
1000
0000
0010
1000
,
0000
0100
1000
0000
0001
1000
0001
0000
,
0100
0010
0000
0001
0010
0000
0100
0010
,
0000
1000
0010
0000
0100
0010
0100
0000
,
0001
0100
0000
1000
0100
0000
0010
0100
,
0001
1000
0001
0200
0310
0100
0000
0001
,
1000
0000
1000
0010
0000
0100
0010
0000
,
1000
0001
1000
0000
1000
0001
0000
1000
,
0010
0000
0100
0001
0000
0010
0100
0000
,
1000
0001
0020
0000
0130
0010
0000
0001
,
1000
0000
0010
1000
0000
0100
0010
0000
,
0001
0100
0010
0000
0010
1000
0000
0001
,
0010
0000
0010
0100
0000
1000
0002
0000
,
1003
0000
1000
0000
1001
0001
0000
0100
,
0100
0000
0010
0010
0000
1000
1000
0000
,
0001
0100
0001
0000
1000
0010
0000
0100
,
0001
0000
0010
0100
0000
0010
0001
0000
,
1000
0010
2000
0000
3001
1000
0000
0010
,
1000
0000
0100
0010
0000
0001
1000
0000
,
0010
0100
0020
0000
1030
0010
0000
0100
,
0010
0000
0001
0010
1000
0000
0001
0010
,
0100
0010
0020
0000
,
0000
0000
0031
0002
0000
0000
2003
0000
,
3002
0000
0000
0000
0103
0001
0000
0000
0200
0000
0000
0000
0000
0000
0000
0000
,
0000
0000
0310
0020
0000
0000
1030
0000
,
0002
0000
0000
0013
0001
0000
0000
0000
2000
0000
0000
0000
0000
0000
0000
0000
,
0000
0000
3001
2000
0000
0000
3010
0000
,
0200
0000
0000
0000
0310
0100
0000
0000
0002
0000
0000
0000
2000
0000
3000
0000
,
4000
0000
3000
0000
1003
0000
0001
0100
,
0001
0010
0012
0000
,
0000
0000
1003
0002
0000
0000
0103
0000
,
0020
0000
0000
1030
0010
0000
0000
0000
0200
0000
0000
0000
0000
0000
0000
0000
,
0000
0000
0310
0020
0000
0100
0130
0000
,
0020
0000
0000
1030
0010
0000
0000
0000
2000
0000
0000
0000
0000
0000
0000
0000
,
0000
0000
3001
2000
0000
0000
3100
0000
,
0020
0000
0000
0130
0010
0000
0000
0000
0001
0000
0100
0000
0001
0000
0100
0000
,
0010
1000
0010
1000
0001
0000
0001
0000
,
0020
0400
0000
0000
0330
0000
0000
0000
;

//---------------dance-single - ----------------
#NOTES:
     dance-single:
     X-Scale 7:
     Medium:
     6:
     0.287642,0.470469,0.069731,0.296358,0.000000,231.000000,223.000000,8.000000,34.000000,0.000000,0.000000,0.287642,0.470469,0.069731,0.296358,0.000000,231.000000,223.000000,8.000000,34.000000,0.000000,0.000000:
0000
0000
0000
0000
,
0000
0000
0000
0000
,
0000
0000
0000
0000
,
0000
0000
0000
0000
,
2000
0000
0001
0000
,
3100
0200
1000
0000
,
0320
0001
0001
0000
,
0031
0000
1000
0001
1000
0000
0001
0000
,
1001
0001
1000
0001
,
0100
0010
1000
1000
,
1000
0100
0001
0100
,
1000
0001
0001
0001
,
1000
0001
1000
0001
1000
0001
1000
0001
,
0010
0100
0010
0100
0010
0100
0010
0100
,
1000
0001
0100
0010
,
1000
0000
0001
1000
0001
0000
0100
0000
,
0101
0000
0000
0000
0100
0000
0000
0010
,
0000
0010
1000
0000
0100
0000
0010
0000
,
0001
0000
0000
0000
0010
0000
0000
0100
,
0000
0100
0010
0000
0100
0000
1000
0000
,
0001
0000
0000
0100
0010
0000
0000
0010
,
0000
0010
1000
0000
0001
0000
1000
0000
,
0002
0000
0000
0000
0103
0000
0000
0100
,
0000
0100
0000
0000
0001
0000
0001
0000
,
0100
0000
0000
0010
0000
0000
0100
0000
,
0000
0010
0000
0000
1000
0000
1000
0000
,
1000
0000
0000
0001
0000
0000
0100
0000
,
0000
0001
0000
0000
0010
0000
0010
0000
,
0010
0000
0000
0001
0000
0000
0100
0000
,
0000
0010
0000
0000
1000
0000
1000
0000
,
1000
0000
0000
0001
0000
0000
0010
0000
,
0100
0100
0100
0100
1100
0000
0000
1000
,
1000
0000
0001
0000
0000
0100
0010
0000
,
1000
0001
1000
0000
1000
0000
0000
0010
,
0100
0000
0001
0000
0000
0100
0010
0000
,
0100
0001
0200
0000
0300
0000
0010
0000
,
1010
1000
0000
0010
,
0110
0100
0000
0001
,
0101
0100
0002
0100
,
0003
0000
0010
0000
0011
0000
0000
1000
,
0001
0000
1000
0000
0000
0010
1000
0000
,
0001
0100
0001
0000
1000
0000
0000
0100
,
0010
0000
0100
0000
0000
0010
0001
0000
,
1000
0001
1000
0000
0001
0000
0000
0000
,
1000
0001
1000
0010
1000
0001
1000
0000
,
0100
0010
0100
0000
0010
0100
0010
0001
,
0010
0100
0010
0001
0010
0000
0001
0000
,
1000
0010
2000
0000
,
0000
3002
0000
2003
,
3002
2003
3020
0000
,
0000
0230
0000
0302
,
2003
3020
2030
0000
,
0000
3200
0000
0320
,
0230
2300
3002
1000
,
1000
0000
1003
0001
,
0100
0010
0210
0000
,
0000
0302
0000
2003
,
3002
2003
3200
0000
,
0000
0000
0310
0010
0000
0100
0000
0010
,
0000
0001
0000
0000
2000
0000
0000
0000
,
0000
3002
0000
0203
,
0320
2030
3001
1000
,
0100
0010
0001
1000
,
0002
0000
0003
0000
;

//---------------dance-single - ----------------
#NOTES:
     dance-single:
     X-Scale 4:
     Easy:
     3:
     0.171838,0.221397,0.034866,0.226627,0.000000,138.000000,134.000000,4.000000,26.000000,0.000000,0.000000,0.171838,0.221397,0.034866,0.226627,0.000000,138.000000,134.000000,4.000000,26.000000,0.000000,0.000000:
0000
0000
0000
0000
,
0000
0000
0000
0000
,
0000
0000
0000
0000
,
0000
0000
0000
0000
,
0002
0000
0000
0000
,
0003
0020
0000
0000
,
0230
0010
1000
0000
,
0300
0000
0100
1000
,
1100
0000
1000
0000
,
0010
0100
0010
0100
,
0010
0000
1000
0000
,
0001
1000
0001
1000
,
0001
0000
1000
0000
,
0010
0000
0100
0000
,
0001
0010
0100
1000
,
0000
0000
1000
0001
,
2001
0000
0000
0000
3001
0000
0000
0010
,
0000
0020
0000
0130
,
0200
0000
0000
0000
0310
0000
0000
0100
,
0000
1000
0100
0010
,
0002
0000
0000
0000
0013
0000
0000
0010
,
0000
0002
0000
0003
,
2000
0000
0000
0000
3100
0000
0000
1000
,
0000
0001
0000
0000
1001
0000
0000
0000
,
1000
0000
0000
0001
0000
0000
1000
0000
,
0000
0001
0000
0000
1000
0000
0000
0000
,
0010
0000
0000
0100
0000
0000
0010
0000
,
0000
0100
0000
0000
0010
0000
0000
0000
,
1000
0000
0000
0010
0000
0000
0100
0000
,
0000
0001
0000
0000
0100
0000
0000
0000
,
0010
0000
0000
1000
0000
0000
0010
0000
,
2000
0020
3030
0000
,
1000
0010
0000
0100
,
0010
0100
0010
0000
,
1000
0001
0000
0010
,
0100
0001
0000
0010
,
0000
1000
0000
0010
,
0000
0100
0000
0001
,
0000
1000
0000
0001
,
0000
0100
0101
0000
,
0001
1000
0000
0100
,
0010
0100
0010
0000
,
0001
0100
0000
0001
,
1000
0010
0100
0000
,
1000
1000
0000
0001
,
0100
0002
0013
0000
,
0010
0001
1000
0000
,
1000
0010
2000
0000
,
0000
3002
0000
0000
,
0000
0000
0023
0000
,
0000
0230
0000
0000
,
0000
0000
0320
0000
,
0000
0032
0000
0000
,
0000
0000
2003
0000
,
0000
0000
0001
0100
,
0010
0100
3200
0000
,
0000
0320
0000
0000
,
0000
0000
0230
0000
,
0000
2300
0000
0000
,
0000
0000
3002
0000
,
0000
0203
0000
0000
,
0000
0000
0301
0000
,
0100
0000
0001
1000
,
0002
0000
0003
0000
;

//---------------dance-single - ----------------
#NOTES:
     dance-single:
     X-Scale 1:
     Beginner:
     1:
     0.112068,0.193722,0.087164,0.174328,0.000000,90.000000,80.000000,10.000000,20.000000,0.000000,0.000000,0.112068,0.193722,0.087164,0.174328,0.000000,90.000000,80.000000,10.000000,20.000000,0.000000,0.000000:
0000
0000
0000
0000
,
0000
0000
0000
0000
,
0000
0000
0000
0000
,
0000
0000
0000
0000
,
0010
0000
0000
0000
,
0000
0100
0000
0000
,
0010
0000
0000
0000
,
0100
0000
0000
0000
,
0110
0000
1000
0000
,
0010
0000
0100
0000
,
0001
0000
1000
0000
,
0001
0000
0010
0000
,
0100
0000
1000
0000
,
0010
0000
0100
0000
,
0001
0000
1000
0000
,
0001
0000
0000
0000
,
1001
0000
1000
0000
,
0000
1100
0000
0000
,
0011
0000
0001
0000
,
0000
1001
0000
0000
,
0101
0000
0010
0000
,
0000
0110
0000
0000
,
1010
0000
0000
0000
0000
0000
0000
0100
,
0000
0100
0000
0000
0120
0000
0000
0000
,
1000
0000
0000
0000
,
0000
0000
0000
0000
,
2030
0000
0000
0000
,
0000
0000
0000
0000
,
3002
0000
0000
0000
,
0000
0000
0000
0000
,
0203
0000
0000
0000
,
0020
0000
0330
0000
,
0000
0010
0000
0000
,
1000
0000
1000
0000
,
0000
0001
0000
0100
,
0000
0001
0000
1000
,
0000
0001
0000
1000
,
0000
0100
0000
0010
,
0000
0100
0000
0010
,
0000
0100
0110
0000
,
0000
0010
0000
0000
,
0001
0000
0010
0000
,
0001
0000
0000
1000
,
0000
0000
0010
0000
,
0000
1000
0000
0000
,
0001
0000
0001
0000
,
0000
1000
0000
0000
,
0000
0000
2000
0000
,
0000
3200
0000
0000
,
0000
0000
0320
0000
,
0000
0230
0000
0000
,
0000
0000
0320
0000
,
0000
0032
0000
0000
,
0000
0000
2003
0000
,
0000
0000
0001
0000
,
0010
0010
3020
0000
,
0000
2030
0000
0000
,
0000
0000
3002
0000
,
0000
0023
0000
0000
,
0000
0000
0032
0000
,
0000
0203
0000
0000
,
0000
0000
0302
0000
,
0000
0000
0000
0000
,
2000
0000
3003
0000
;

//---------------dance-single - ----------------
#NOTES:
     dance-single:
     X-Scale 11:
     Challenge:
     8:
     0.475668,0.636517,0.183045,0.305075,0.065373,382.000000,361.000000,21.000000,35.000000,0.000000,0.000000,0.475668,0.636517,0.183045,0.305075,0.065373,382.000000,361.000000,21.000000,35.000000,0.000000,0.000000:
// measure 0
0000
0000
0000
0000
,  // measure 1
0000
0000
0000
0000
,  // measure 2
0000
0000
0000
0000
,  // measure 3
0000
0000
0000
0000
,  // measure 4
0002
0000
1000
0000
0103
0001
0000
0001
,  // measure 5
1000
0000
2000
0000
0010
0010
3000
0001
,  // measure 6
2000
3020
0032
0003
,  // measure 7
0010
0000
1000
0010
1000
0000
0001
0000
,  // measure 8
0101
0000
0100
0010
0001
0010
0100
0010
,  // measure 9
1000
0010
0001
0100
,  // measure 10
0010
0000
0001
0010
0100
1000
0100
0010
,  // measure 11
0100
0000
0000
0000
1000
0000
0000
0000
0001
0000
0000
0000
0010
0000
0001
0010
,  // measure 12
0001
1000
0100
0001
0100
1000
0010
0001
,  // measure 13
0010
0100
0001
1000
0100
0010
1000
0010
,  // measure 14
0001
0000
0001
0100
0001
0000
0100
0001
0100
0001
0010
0100
0010
0100
1000
0010
,  // measure 15
1000
0000
1000
0100
0010
0000
0010
0000
,  // measure 16
0110
0000
0000
0100
0010
1000
0010
0001
,  // measure 17
0000
0001
1000
0000
0100
0000
0010
0100
,  // measure 18
0110
0000
0000
0001
1000
0020
0031
0010
,  // measure 19
1000
0000
0100
0000
0010
0000
0000
0000
0100
0000
0000
0000
1000
0000
0001
0100
,  // measure 20
0002
0000
0003
0001
1000
0010
0100
0001
,  // measure 21
0000
0001
0010
0000
1000
0000
0010
0001
,  // measure 22
0021
0000
1000
0000
0031
0000
0000
1000
,  // measure 23
0100
1000
0010
0100
0110
0000
0100
0000
,  // measure 24
0001
0010
0000
1000
0010
0000
0001
0010
,  // measure 25
0000
0100
0010
0000
0001
0010
0001
0000
,  // measure 26
0100
1000
0000
0100
0001
0000
0100
1000
,  // measure 27
0000
0100
0010
0000
1000
0001
1000
0000
,  // measure 28
0001
0100
0000
1000
0100
0000
0010
0100
,  // measure 29
0000
0001
0010
0000
0100
0010
0100
0000
,  // measure 30
1000
0010
0000
0001
0010
0000
1000
0100
,  // measure 31
1100
1001
0011
0002
0013
0001
0000
0001
,  // measure 32
1001
0000
1000
0010
2000
3100
0010
0000
,  // measure 33
0110
0100
0010
0000
0011
0001
0000
1000
,  // measure 34
1001
0000
0010
0100
0002
0013
0001
0000
,  // measure 35
1000
0010
2000
0000
3100
1000
0001
1000
,  // measure 36
1001
0000
0010
1000
0100
0100
0010
0000
,  // measure 37
0011
0001
0020
0030
0010
0001
1000
0001
,  // measure 38
1001
0000
0001
0100
1000
0100
0002
0000
,  // measure 39
1003
0000
1000
0000
1001
0001
0010
0100
,  // measure 40
0110
0000
0010
0001
1000
0010
1000
0000
,  // measure 41
1001
1000
0001
0000
1000
0010
1000
0100
,  // measure 42
1100
0000
0010
0001
0010
0100
0010
0000
,  // measure 43
0110
0010
0002
0000
4003
0000
0001
0000
,  // measure 44
3001
1000
0001
0010
0001
0001
0400
0000
,  // measure 45
1300
0100
0020
0000
1030
0010
0400
0000
,  // measure 46
0340
0000
0034
0010
0013
0000
1000
0010
,  // measure 47
1000
0000
1000
0000
2000
0000
3010
1000
,  // measure 48
0010
0001
0010
2000
0010
0000
3020
0000
,  // measure 49
2030
0000
0000
0000
3001
1000
0000
0000
0200
0000
0000
0000
1300
0000
0100
0000
,  // measure 50
0001
0100
0010
0200
0010
0000
0301
0000
,  // measure 51
0020
0000
0000
0130
0010
0000
0000
0000
0020
0000
0000
0000
1030
0000
0010
0000
,  // measure 52
0001
0010
0100
2000
0010
0000
3100
0000
,  // measure 53
0200
0000
0000
0000
1300
0100
0000
0000
1000
0000
0010
0000
0001
0000
0010
0000
,  // measure 54
1000
0001
0100
0010
0001
0010
1000
0100
,  // measure 55
1000
0000
0010
0000
0012
0000
1003
0001
,  // measure 56
0100
0010
1000
0020
0000
0000
0031
0000
,  // measure 57
0020
0000
0000
0130
0010
0000
0000
0000
2000
0000
0000
0000
3001
0000
1000
0000
,  // measure 58
0100
0000
0001
0000
0100
0000
2000
0000
0000
0000
0100
0000
3100
1000
0000
0000
,  // measure 59
0001
0000
0000
1000
0010
0000
0000
0000
2000
0000
0000
0000
3001
0000
1000
0000
,  // measure 60
0010
0100
0001
0020
1000
0000
0031
0000
,  // measure 61
2000
0000
0000
3100
1000
0000
0000
0000
1000
0000
0100
0000
0001
0000
0100
0000
,  // measure 62
1000
0010
0001
0010
1000
0000
0001
0000
,  // measure 63
0200
0040
0000
0000
0330
0000
0000
0000
;
