#VERSION:0.83;
#TITLE:9 (After Coachella) [R3LL Remix];
#SUBTITLE:ft. MØ & SOPHIE;
#ARTIST:Cashmere Cat;
#TITLETRANSLIT:;
#SUBTITLETRANSLIT:;
#ARTISTTRANSLIT:;
#GENRE:Jersey Club;
#ORIGIN:;
#CREDIT:;
#BANNER:9_R3LL-bn.png;
#BACKGROUND:9_R3LL-bg.png;
#PREVIEWVID:;
#JACKET:9_R3LL-jacket.png;
#CDIMAGE:;
#DISCIMAGE:;
#LYRICSPATH:;
#CDTITLE:cdtitle.png;
#MUSIC:9_R3LL.ogg;
#OFFSET:-0.004000;
#SAMPLESTART:42.671001;
#SAMPLELENGTH:14.333000;
#SELECTABLE:YES;
#BPMS:0.000=135.000;
#STOPS:;
#DELAYS:;
#WARPS:;
#TIMESIGNATURES:0.000=4=4;
#TICKCOUNTS:0.000=4;
#COMBOS:0.000=1;
#SPEEDS:0.000=1.000=0.000=0;
#SCROLLS:0.000=1.000;
#FAKES:;
#LABELS:0.000=Song Start;
#BGCHANGES:;
#KEYSOUNDS:;
#ATTACKS:
;

//---------------dance-single - ----------------
#NOTEDATA:;
#CHARTNAME:X-Scale 12;
#STEPSTYPE:dance-single;
#DESCRIPTION:;
#CHARTSTYLE:;
#DIFFICULTY:Hard;
#METER:8;
#RADARVALUES:0.559555,0.780363,0.200866,0.190822,0.291255,390.000000,370.000000,20.000000,19.000000,0.000000,0.000000,6.000000,0.000000,0.000000,0.559555,0.780363,0.200866,0.190822,0.291255,390.000000,370.000000,20.000000,19.000000,0.000000,0.000000,6.000000,0.000000,0.000000;
#CREDIT:;
#NOTES:
0000
0000
0000
0000
,
0000
0000
0000
0000
,
0000
0000
0000
0000
,
0000
0000
0000
0000
,
1000
0000
0000
0001
0100
0001
0100
0001
,
0100
0000
0001
0010
0100
0000
0010
0000
0001
0000
1000
0000
0001
0000
1000
0100
,
0010
0000
0000
0000
0000
1000
0100
1000
,
0100
0000
0010
0000
0001
0000
0010
0000
0001
0000
0000
0100
0000
0000
0001
0000
,
0002
0000
0000
0000
0000
0000
0000
0000
1003
0000
0000
0100
0000
0000
1000
0000
,
0100
0000
0000
0000
0010
0000
0000
0000
0001
0000
0000
0010
0000
0000
0001
0000
,
0010
0100
0010
0100
,
1000
0000
0001
0010
0100
0000
1000
0000
,
0010
0000
0000
0000
1000
0000
0000
0000
0010
0000
0000
0100
0000
0000
0010
0000
,
0100
0000
0000
0000
0001
0000
0000
0000
1000
0000
0000
0010
0000
0000
1000
0000
,
0020
0100
0002
0003
,
1030
0000
0001
0010
0100
0000
1000
0000
,
1001
0000
0001
0100
1000
0100
0001
1000
,
0010
1000
0100
0010
,
0001
0000
1000
0001
0010
0100
1000
0010
,
0100
0000
0000
0000
0001
0000
0000
0000
1000
0000
0000
0000
0001
0000
0100
0001
,
0100
0001
0100
0001
0100
1000
0100
1000
,
0100
0010
0100
0010
0100
0001
0100
0001
,
1000
0000
0100
1000
0100
0000
1000
0010
1000
0010
0100
0001
1000
0010
0100
0001
,
1000
0000
0010
0100
0010
0000
0010
0100
0010
0000
0010
0100
0010
0100
0010
0100
,
0020
0000
0000
0000
4030
0000
0000
3000
1001
0000
0000
1100
0000
0000
0101
0000
,
0101
0001
2000
0000
3200
0000
0320
0032
,
0023
0000
0000
0000
0430
0000
0000
0300
0110
0000
0000
1001
0000
0000
1010
0000
,
1010
0000
0000
0000
0002
0000
0000
0000
0103
0000
0000
0010
0400
0000
0000
0000
,
0302
0000
0000
0000
0043
0000
0000
0030
0011
0000
0000
1010
0000
0000
1001
0000
,
1001
0000
0000
0000
2000
0000
0000
0000
3200
0000
0000
0000
0320
0000
0031
0010
,
0001
0000
0000
0000
0400
0000
0000
0300
0110
0000
0000
1001
0000
0000
0011
0000
,
0011
0000
0001
1000
0001
0000
0010
0000
0100
0000
0000
0000
4000
0000
0000
0000
,
3010
0000
1000
0000
0010
0000
0000
0000
0100
0000
0010
0000
0100
0010
0100
0010
,
0100
0000
0100
0000
0001
0000
0001
1000
0001
0000
1000
0000
0020
0000
0000
0000
,
0130
0000
0000
0000
0001
0000
0000
0000
1000
0000
0100
0000
0010
0100
0010
0100
,
0010
0000
0010
0000
0001
0000
1000
0001
1000
0000
0010
0100
0020
0000
0000
0000
,
1030
0000
0000
0000
0100
0000
1000
0100
1000
0000
0001
0000
0100
0000
0100
0000
,
0001
0000
1000
0000
0001
0000
1000
0100
0010
0000
0001
0000
0100
0000
0001
0100
,
0001
0000
0000
0000
1000
0000
0100
0000
1000
0000
0001
0100
0001
0000
0001
0000
,
1000
0000
0000
0000
0100
0010
0100
0010
0100
0000
1000
0000
0001
1000
0001
0000
,
1001
0000
0000
0000
0001
0000
0100
0010
0100
0000
0010
0000
1000
0000
0001
0000
,
0010
0000
1000
0000
0010
0000
0001
0000
0100
0001
1000
0001
0100
0000
0010
0000
,
1000
0000
0100
0000
0010
0000
0001
0010
0001
0000
0100
0000
0001
0100
0010
0100
,
0001
0000
1000
0000
0010
0000
1000
0000
0001
0000
0000
0010
0001
1000
0100
0010
,
0001
0000
1000
0000
0001
0000
1000
0100
0010
0000
0100
0000
0010
0000
0001
0000
,
1000
0000
0010
0000
1000
0010
0100
0000
0001
0000
1000
0000
0010
1000
0010
0000
,
0100
0000
1000
0100
0001
0000
0001
0010
0100
0000
1000
0010
0100
0000
0001
0010
,
0100
0100
1000
1000
0001
0000
1001
0000
,
1100
0000
0000
1000
0010
0001
1000
0100
,
0001
0010
1000
0001
0100
1000
0010
1000
,
0200
0000
0000
0000
0000
0301
0100
1000
,
0010
0000
0100
0000
0001
0000
1000
0000
0100
0000
0000
0010
0000
0000
0001
0000
,
1000
0000
0000
0001
0010
1000
0001
0100
,
1000
0000
0010
0000
0001
0000
1000
0000
0100
0000
0001
0000
0010
0000
0001
0010
,
0002
0000
2003
0000
0000
3001
1000
0010
,
0001
0010
1000
0100
0010
0000
0000
0000
;

//---------------dance-single - ----------------
#NOTEDATA:;
#CHARTNAME:X-Scale 14;
#STEPSTYPE:dance-single;
#DESCRIPTION:;
#CHARTSTYLE:;
#DIFFICULTY:Challenge;
#METER:9;
#RADARVALUES:0.635597,0.808234,0.220952,0.160693,0.456970,443.000000,421.000000,22.000000,16.000000,11.000000,0.000000,0.000000,0.000000,0.000000,0.635597,0.808234,0.220952,0.160693,0.456970,443.000000,421.000000,22.000000,16.000000,11.000000,0.000000,0.000000,0.000000,0.000000;
#CREDIT:;
#NOTES:
0000
0000
0000
0000
,
0000
0000
0000
0000
,
0000
0000
0000
0000
,
0000
0000
0000
0000
,
0001
0000
0000
1000
1000
0100
0100
0010
,
0010
0000
0001
0010
0001
0000
0010
0000
0100
0000
0100
0000
1000
0000
0020
1030
,
0010
0000
0000
0000
0000
1000
1000
0001
,
0001
0000
0000
0000
0100
0000
0000
0000
0100
0000
0000
0000
0010
0000
0000
0000
0010
0000
0000
0000
0000
0000
1000
0000
0000
0000
0000
0000
0001
0000
1000
0001
,
2000
0000
0000
0000
0000
0000
0000
0000
0010
0000
0000
0010
0000
0000
0010
0000
,
0010
0000
0000
0000
0000
0000
0000
0000
3002
0000
0000
0000
0000
0000
0000
0000
1000
0000
0000
0000
0000
0000
1000
0000
0000
0000
0000
0000
1000
0000
0000
0003
,
1MMM
0M00
M000
0M00
,
0020
0000
0000
0000
0031
0000
0010
0000
2000
0000
0000
3000
0020
0000
0000
0030
,
MMM2
0000
0000
0000
0M00
0000
0000
0000
0010
0000
0000
0010
0000
0000
0010
0000
,
0010
0000
0000
0000
2003
0000
0000
0000
0100
0000
0000
0100
0000
0000
0100
0000
,
3200
0000
2000
0300
0002
0000
0000
0003
,
3001
0000
1000
0100
0002
0000
0203
0000
,
1300
0000
1000
0100
0001
1000
0010
0001
,
0100
0000
0010
0000
0100
0000
0010
1000
,
0001
0000
1000
0010
0001
2000
3100
0001
,
0010
0000
0000
0000
0100
0000
0000
0000
0010
0000
0000
0000
0100
0000
1000
0100
,
1000
0100
0001
0100
1000
0100
0001
0100
,
1000
0010
0100
0010
0001
0010
0100
0010
,
1000
0000
0001
1000
0001
0000
1000
0001
1000
0001
0010
0100
1000
0001
0010
0100
,
1000
0000
0010
1000
0001
0000
1000
0100
0010
0000
0001
0100
0001
0100
0001
0100
,
0101
0000
0000
0000
1000
0100
0010
0001
0011
0000
0000
1001
0000
0000
1010
0000
,
1010
0000
0010
0000
1000
0000
0001
1000
0001
0000
1000
0000
0100
0010
0001
0010
,
0100
0000
0000
0000
1000
0100
0010
0001
0011
0000
0000
1001
0000
0000
1010
0000
,
1010
0000
0000
0000
0001
0000
0100
0001
0100
0000
0010
0000
1000
0100
0010
0001
,
1000
0000
0000
0000
0001
0100
0010
1000
1010
0000
0000
1001
0000
0000
0011
0000
,
0011
0000
0010
0000
0001
0000
1000
0001
1000
0000
0001
0000
0010
0000
0100
0010
,
0100
0000
0000
0000
1000
0010
0100
0001
0101
0000
0000
1001
0000
0000
1100
0000
,
1000
0000
0100
1000
0100
0000
1000
0001
1000
0000
0001
0100
0001
0100
0001
0100
,
0101
0000
0100
0000
0001
0000
1000
0000
0001
0000
0100
0000
0010
1000
0001
1000
,
0010
0000
0010
0000
0100
0000
0010
0100
0010
0000
1000
0001
1000
0100
1000
0001
,
1001
0000
0001
0000
1000
0000
0010
0000
1000
0000
0001
0000
0010
0100
0010
0100
,
0010
0000
0010
0000
0001
0000
1000
0001
1000
0000
0010
0000
1000
0100
0010
0000
,
0011
0000
0000
0000
0100
0000
0001
0100
0001
0100
0001
1000
0001
0000
0001
0000
,
1000
0000
0010
0000
1000
0000
0100
0010
0001
0000
0100
0000
0001
0000
0010
0100
,
0010
0000
0001
0000
1000
0000
0001
0000
0010
0000
0100
1000
0100
0000
1000
0000
,
0001
0000
0001
0000
0100
0000
0010
0100
0010
0000
1000
0000
0100
0010
0001
0000
,
1010
0000
0001
0000
1000
0100
0010
0001
1000
0000
0010
1000
0000
0000
1000
0000
,
0001
0000
0010
0000
0100
0000
0010
0000
0001
0010
0001
0010
0100
1000
0100
1000
,
0001
0000
1000
0000
0001
0010
0100
1000
0001
0000
1000
0000
0010
0100
0010
0100
,
0010
0000
1000
0000
0001
0000
0100
0000
0010
0000
0000
0100
0010
0100
0010
0100
,
0010
0000
0010
0000
1000
0001
1000
0001
1000
0000
0001
0000
0010
0000
0100
0000
,
1000
0000
1000
0000
0001
1000
0001
0000
0100
0000
0010
0000
0100
0001
1000
0001
,
0100
0000
0001
0100
0010
0000
1000
0100
0010
0000
0001
0100
0010
0000
1000
0100
,
0010
0010
0010
0010
0001
0000
0011
0000
,
1010
0000
0000
1000
0010
0010
1000
1000
,
0001
0000
1000
0001
1000
0000
0100
0000
0010
0000
0010
0000
0001
0000
0001
0000
,
2000
0000
0000
0000
3000
0010
0010
0100
,
0100
0000
0001
0000
0001
0000
1000
0000
1000
0000
0000
0001
0000
0000
1000
0000
,
0100
0000
0010
0010
0001
0001
1000
1000
,
0010
0000
0100
0010
0100
0000
0001
0000
0010
0000
0010
0000
0100
0000
0100
1000
,
0200
0000
M000
0000
0300
1000
1000
0100
,
0100
0010
0010
0001
0001
0000
0000
0000
;

//---------------dance-single - ----------------
#NOTEDATA:;
#CHARTNAME:X-Scale 9;
#STEPSTYPE:dance-single;
#DESCRIPTION:;
#CHARTSTYLE:;
#DIFFICULTY:Medium;
#METER:6;
#RADARVALUES:0.404601,0.445922,0.140606,0.261125,0.055238,282.000000,268.000000,14.000000,26.000000,0.000000,0.000000,0.000000,0.000000,0.000000,0.404601,0.445922,0.140606,0.261125,0.055238,282.000000,268.000000,14.000000,26.000000,0.000000,0.000000,0.000000,0.000000,0.000000;
#CREDIT:;
#NOTES:
// measure 0
0000
0000
0000
0000
,  // measure 1
0000
0000
0000
0000
,  // measure 2
0000
0000
0000
0000
,  // measure 3
0000
0000
0000
0000
,  // measure 4
0001
0000
0000
1000
1000
0000
0100
0000
,  // measure 5
0010
0000
0001
0000
1000
0001
1000
0001
,  // measure 6
1000
0000
0000
0000
0000
0010
0010
0000
,  // measure 7
0100
0000
0000
0000
0001
0000
0000
0000
1000
0000
0000
1000
0000
0000
1000
0000
,  // measure 8
0020
0000
0000
0000
0000
0000
0000
0000
1030
0000
0000
0010
0000
0000
1000
0000
,  // measure 9
0010
0000
0000
0000
0200
0000
0000
0000
0301
0000
0000
0100
0000
0000
0001
0000
,  // measure 10
0100
0000
0010
0000
,  // measure 11
1000
0000
0001
0010
0100
0000
1000
0000
,  // measure 12
0001
0000
0000
0000
0000
0000
0000
0000
1000
0000
0000
0001
0000
0000
1000
0000
,  // measure 13
0001
0000
0000
0000
0010
0000
0000
0000
0100
0000
0000
0010
0000
0000
0100
0000
,  // measure 14
0020
0032
2003
3000
,  // measure 15
0001
0000
1000
0100
0010
0000
0001
0000
,  // measure 16
0021
0100
1000
0100
,  // measure 17
0031
0000
0010
0000
0100
0000
1000
0001
,  // measure 18
2000
0001
0100
0001
,  // measure 19
3100
1000
0001
1000
,  // measure 20
0100
0000
0010
0001
1000
0001
0010
0100
,  // measure 21
2000
3020
2030
3200
,  // measure 22
0320
0000
0032
0000
1003
0010
0100
0001
,  // measure 23
1001
0000
0000
0000
0110
0000
0000
0000
1001
0000
0000
0000
0002
0003
0002
0003
,  // measure 24
1001
0000
0000
0000
2000
0000
0000
0000
3100
0000
0000
1000
0000
0000
0100
0000
,  // measure 25
2000
0000
3002
0000
0023
0000
1030
0010
,  // measure 26
0011
0000
0000
0000
2000
0000
0000
0000
3001
0000
0000
1000
0000
0000
0001
0000
,  // measure 27
1000
0000
0000
0000
0100
0000
0000
0000
0010
0000
0000
0001
0010
0000
0000
0000
,  // measure 28
0011
0000
0000
0000
0200
0000
0000
0000
0310
0000
0000
0100
0000
0000
0010
0000
,  // measure 29
0100
0000
0002
0000
0203
0000
1300
0100
,  // measure 30
0101
0000
0000
0000
0002
0000
0000
0000
1003
0000
0000
0001
0000
0000
1000
0000
,  // measure 31
0001
0000
1000
0100
0010
0000
0001
0000
,  // measure 32
1001
0000
1000
0100
1000
0000
0001
0100
,  // measure 33
0001
0001
0001
0000
1000
1000
1000
0000
,  // measure 34
1001
0000
0100
0010
0100
0000
0001
0100
,  // measure 35
0001
0001
0001
0000
1000
1000
1000
0000
,  // measure 36
1001
0000
1000
0010
1000
0000
0100
0010
,  // measure 37
0100
0100
0100
0000
1000
1000
1000
0000
,  // measure 38
1100
0000
0001
0100
0001
0000
0100
0010
,  // measure 39
0100
0000
0001
1000
0100
0000
0010
0000
,  // measure 40
0110
0000
0010
0001
1000
0001
0010
0001
,  // measure 41
1000
0000
0010
0001
0010
1000
0010
0000
,  // measure 42
1000
0100
0001
0100
1000
0100
0001
0100
,  // measure 43
1000
0000
0010
0100
0001
0100
0010
0000
,  // measure 44
1000
1000
1000
0100
1000
1000
0002
0000
,  // measure 45
0013
0010
0010
0100
1000
0000
0002
0000
,  // measure 46
1003
0001
1000
0001
0010
0100
0010
0100
,  // measure 47
1000
1000
1000
1000
0001
0000
1001
0000
,  // measure 48
0100
0000
0000
0001
0001
0000
0010
0000
,  // measure 49
0100
0000
1000
0000
0001
0100
1000
0100
,  // measure 50
0010
0000
0000
0000
0000
1000
1000
0000
,  // measure 51
0100
0000
0000
0000
0010
0000
0000
0000
0001
0000
0000
0001
0000
0000
0001
0000
,  // measure 52
0100
0000
0000
0010
0010
0000
1000
0000
,  // measure 53
0001
0000
1000
0000
0100
0010
0001
0010
,  // measure 54
0100
0000
0000
0000
0000
1000
0100
0010
,  // measure 55
0001
1000
0100
0010
0001
0000
0000
0000
;

//---------------dance-single - ----------------
#NOTEDATA:;
#CHARTNAME:X-Scale 6;
#STEPSTYPE:dance-single;
#DESCRIPTION:;
#CHARTSTYLE:;
#DIFFICULTY:Easy;
#METER:4;
#RADARVALUES:0.269734,0.362312,0.090390,0.060260,0.000000,188.000000,179.000000,9.000000,6.000000,0.000000,0.000000,0.000000,0.000000,0.000000,0.269734,0.362312,0.090390,0.060260,0.000000,188.000000,179.000000,9.000000,6.000000,0.000000,0.000000,0.000000,0.000000,0.000000;
#CREDIT:;
#NOTES:
// measure 0
0000
0000
0000
0000
,  // measure 1
0000
0000
0000
0000
,  // measure 2
0000
0000
0000
0000
,  // measure 3
0000
0000
0000
0000
,  // measure 4
1000
0000
0100
0000
,  // measure 5
0010
0000
0001
0000
,  // measure 6
1000
0000
0000
0000
0000
0001
0000
0000
,  // measure 7
0100
0000
0001
0000
,  // measure 8
1002
0000
0000
0000
,  // measure 9
0003
0020
0000
0030
,  // measure 10
0100
0000
1000
0000
,  // measure 11
0001
0000
1000
0100
,  // measure 12
2100
0000
0000
0000
,  // measure 13
3000
0002
0000
0003
,  // measure 14
2000
0000
0000
0000
,  // measure 15
3001
0000
1000
0001
,  // measure 16
1001
0100
1000
0001
,  // measure 17
1000
0100
0010
0001
,  // measure 18
0100
0010
0100
0001
,  // measure 19
1000
0100
0010
0001
,  // measure 20
1000
0001
0100
0010
,  // measure 21
1000
0100
0010
0001
,  // measure 22
0100
0001
1000
0001
,  // measure 23
0011
0011
0011
0020
,  // measure 24
0130
1000
0001
0000
,  // measure 25
1000
0010
0100
0000
,  // measure 26
0001
0010
0100
0000
,  // measure 27
1000
0001
0010
0000
,  // measure 28
0100
1000
0001
0000
,  // measure 29
0100
0010
1000
0000
,  // measure 30
0001
0010
0100
0000
,  // measure 31
1000
0010
0100
0001
,  // measure 32
0101
0000
1000
0000
1000
0000
1000
0100
,  // measure 33
0010
0000
0001
0000
0010
0001
1000
0000
,  // measure 34
0001
0000
0100
0000
0010
0000
0100
0001
,  // measure 35
1000
0000
0010
0000
0001
0010
0100
0010
,  // measure 36
1000
0000
0001
0000
0001
0000
0100
0010
,  // measure 37
1000
0000
0001
0000
1000
0100
0010
0000
,  // measure 38
0001
0000
1000
0000
0010
0000
1000
0100
,  // measure 39
0010
0000
0001
1000
0100
0000
0010
0000
,  // measure 40
0110
0000
0010
0001
0010
0000
0100
0000
,  // measure 41
1000
0000
0001
1000
0001
0000
0010
0000
,  // measure 42
0100
0000
1000
0010
1000
0000
0001
0000
,  // measure 43
0010
0100
0010
0000
0001
0000
1000
0000
,  // measure 44
0010
0010
0010
0000
1000
1000
1000
0000
,  // measure 45
0001
0001
0001
0000
0010
0010
0010
0000
,  // measure 46
0100
1000
0001
1000
,  // measure 47
0100
0010
0100
0010
0001
0000
1000
0000
,  // measure 48
1001
0000
0010
0000
,  // measure 49
1000
0000
0001
0000
,  // measure 50
0010
0000
0000
0000
0000
0001
0000
0000
,  // measure 51
1000
0000
0001
0000
1000
0000
0000
0010
,  // measure 52
0100
0000
0001
0000
,  // measure 53
0010
0000
0001
0000
,  // measure 54
1000
0000
0000
0000
0000
0100
0000
0000
,  // measure 55
1000
0000
0001
0000
;

//---------------dance-single - ----------------
#NOTEDATA:;
#CHARTNAME:X-Scale 2;
#STEPSTYPE:dance-single;
#DESCRIPTION:;
#CHARTSTYLE:;
#DIFFICULTY:Beginner;
#METER:1;
#RADARVALUES:0.124824,0.195091,0.030130,0.190822,0.000000,87.000000,84.000000,3.000000,19.000000,0.000000,0.000000,0.000000,0.000000,0.000000,0.124824,0.195091,0.030130,0.190822,0.000000,87.000000,84.000000,3.000000,19.000000,0.000000,0.000000,0.000000,0.000000,0.000000;
#CREDIT:;
#NOTES:
// measure 0
0000
0000
0000
0000
,  // measure 1
0000
0000
0000
0000
,  // measure 2
0000
0000
0000
0000
,  // measure 3
0000
0000
0000
0000
,  // measure 4
0002
0000
0000
0000
0000
0003
0000
0000
,  // measure 5
0000
0020
0000
0030
,  // measure 6
0200
0000
0000
0000
0000
0300
0000
0000
,  // measure 7
0000
2000
0000
3000
,  // measure 8
0002
0000
0000
0000
,  // measure 9
0003
2000
0000
3000
,  // measure 10
0200
0000
0000
0000
,  // measure 11
0300
2000
0000
3000
,  // measure 12
0002
0000
0000
0000
,  // measure 13
0003
0200
0000
0300
,  // measure 14
0020
0000
0000
0000
,  // measure 15
0030
0000
0000
0000
,  // measure 16
2000
0000
0000
0000
,  // measure 17
3100
2000
0000
3000
,  // measure 18
0002
0000
1003
0000
,  // measure 19
0010
0020
0000
0030
,  // measure 20
1000
0000
0100
0000
,  // measure 21
0010
0000
0001
0000
,  // measure 22
1000
0100
1000
0100
,  // measure 23
1000
0000
0000
0000
,  // measure 24
2100
0000
3001
0000
,  // measure 25
0100
0000
0010
0000
,  // measure 26
2000
0000
3100
0000
,  // measure 27
0010
0000
0001
0000
,  // measure 28
2000
0000
3010
0000
,  // measure 29
0100
0000
0001
0000
,  // measure 30
2000
0000
3100
0000
,  // measure 31
0010
0000
0000
0000
,  // measure 32
0011
0000
0010
0000
,  // measure 33
0001
0000
1000
0000
,  // measure 34
0001
0000
0100
0000
,  // measure 35
0010
0000
1000
0000
,  // measure 36
0001
0000
1000
0000
,  // measure 37
0100
0000
0010
0000
,  // measure 38
0001
0000
1000
0000
,  // measure 39
0100
0000
0000
0000
,  // measure 40
1100
0000
0001
0000
,  // measure 41
1000
0000
0100
0000
,  // measure 42
1000
0000
0001
0000
,  // measure 43
0010
0000
0100
0000
,  // measure 44
0010
0000
0001
0000
,  // measure 45
1000
0000
0010
0000
,  // measure 46
1000
0001
1000
0001
,  // measure 47
1000
0000
0000
0010
,  // measure 48
0100
0000
0000
0000
,  // measure 49
0000
0001
0000
0000
,  // measure 50
1000
0000
0000
0000
,  // measure 51
0000
0100
0000
0000
,  // measure 52
1000
0000
0000
0000
,  // measure 53
0000
0001
0000
0000
,  // measure 54
0010
0000
0000
0000
,  // measure 55
0100
0000
1000
0000
;
