#VERSION:0.83;
#TITLE:360 No Hope;
#SUBTITLE:;
#ARTIST:Zanzlanz;
#TITLETRANSLIT:;
#SUBTITLETRANSLIT:;
#ARTISTTRANSLIT:;
#GENRE:Dubstep;
#ORIGIN:;
#CREDIT:;
#BANNER:360 No Hope-bn.png;
#BACKGROUND:360 No Hope-bg.png;
#PREVIEWVID:;
#JACKET:360 No Hope-jacket.png;
#CDIMAGE:;
#DISCIMAGE:;
#LYRICSPATH:;
#CDTITLE:cdtitle.png;
#MUSIC:360 No Hope.ogg;
#OFFSET:-0.005000;
#SAMPLESTART:25.605000;
#SAMPLELENGTH:12.800000;
#SELECTABLE:YES;
#DISPLAYBPM:150.000000;
#BPMS:0.000=150.000,
60.000=300.000,
64.000=150.000,
222.000=300.000,
224.000=150.000;
#STOPS:60.000=0.100,
60.500=0.100,
61.000=0.100,
61.500=0.100,
62.000=0.100,
62.500=0.100,
63.000=0.100,
63.500=0.100,
222.000=0.100,
222.500=0.100,
223.000=0.100,
223.500=0.100;
#DELAYS:;
#WARPS:;
#TIMESIGNATURES:0.000=4=4;
#TICKCOUNTS:0.000=4;
#COMBOS:0.000=1;
#SPEEDS:0.000=1.000=0.000=0;
#SCROLLS:0.000=1.000;
#FAKES:;
#LABELS:0.000=Song Start;
#BGCHANGES:;
#KEYSOUNDS:;
#ATTACKS:
;

//---------------dance-single - ----------------
#NOTEDATA:;
#CHARTNAME:X-Scale 14;
#STEPSTYPE:dance-single;
#DESCRIPTION:;
#CHARTSTYLE:;
#DIFFICULTY:Hard;
#METER:9;
#RADARVALUES:0.651431,0.770274,0.616219,0.115541,0.281150,592.000000,512.000000,80.000000,15.000000,12.000000,0.000000,16.000000,0.000000,0.000000,0.651431,0.770274,0.616219,0.115541,0.281150,592.000000,512.000000,80.000000,15.000000,12.000000,0.000000,16.000000,0.000000,0.000000;
#CREDIT:;
#DISPLAYBPM:150.000000;
#NOTES:
// measure 0
0000
0000
0000
0000
,  // measure 1
0000
0000
0000
0000
,  // measure 2
0000
0000
0000
0000
,  // measure 3
0000
0000
0000
0000
,  // measure 4
0000
0000
0000
0000
,  // measure 5
0000
0000
0000
0000
,  // measure 6
0000
0000
0000
0000
,  // measure 7
0000
0000
0000
0000
,  // measure 8
0101
0000
0100
0000
0010
2000
0000
0000
,  // measure 9
3100
0000
0010
0002
1000
0000
0010
0000
,  // measure 10
1003
0000
0100
0000
0010
0002
0000
0000
,  // measure 11
2003
0000
3010
0200
1000
0000
0010
0000
,  // measure 12
0301
0000
0000
0001
0100
0000
0010
0000
0100
0001
0000
1000
0001
0000
0010
0000
,  // measure 13
0100
1000
0000
0001
1000
0000
0100
0000
1000
0001
0000
0010
0100
0000
0010
0000
,  // measure 14
0001
1000
0001
0100
0001
1000
0100
0010
,  // measure 15
M201
00M0
000M
00M0
M000
00M0
030M
00M0
,  // measure 16
1100
0000
1001
0000
,  // measure 17
0101
0101
0000
0000
0110
0000
0000
0000
,  // measure 18
1010
0000
1001
0000
,  // measure 19
0011
0011
0000
0000
1020
0000
0001
0000
,  // measure 20
4030
0000
0000
0000
3400
0000
0000
0300
,  // measure 21
0110
0110
0000
0000
1010
0000
0000
0000
,  // measure 22
1004
0000
0000
0000
0403
0000
0000
0300
,  // measure 23
0110
0110
0000
0000
0201
0000
1000
0000
,  // measure 24
0310
0000
1000
0010
1000
0001
0001
0001
,  // measure 25
0010
0010
0010
0010
0100
0010
0001
1000
,  // measure 26
1001
0100
0010
0001
1000
0010
0010
0010
,  // measure 27
0100
0100
0100
0100
0001
0010
1000
0010
,  // measure 28
1001
0000
0100
0010
0100
1000
1000
1000
,  // measure 29
4001
3001
0001
0001
0010
0100
0010
0001
,  // measure 30
0001
0000
0010
0000
0100
0000
1000
0000
0100
0010
0100
0000
1000
0000
0001
0000
,  // measure 31
0400
0000
1300
0000
0100
0000
0010
0000
0100
0000
0001
0000
0010
0100
0000
0000
,  // measure 32
0101
0000
0100
0001
1000
0001
0010
0100
1000
0000
0000
0000
4400
0000
0000
3300
,  // measure 33
1100
0000
1000
0000
0001
1000
0010
0100
0001
1000
0010
0100
0004
0000
0000
0000
,  // measure 34
0013
0000
0001
0100
0040
0000
0000
0000
0130
0000
0040
0000
1030
0000
0004
0000
,  // measure 35
1003
0000
1000
0000
0100
0010
0001
1000
0001
0000
0010
0100
0010
0000
0010
0000
,  // measure 36
0101
0000
0001
1000
0100
0000
0100
0000
1100
0000
1000
0000
1000
0000
1000
0000
,  // measure 37
1001
0001
0100
0001
0010
0100
0010
0001
,  // measure 38
0011
0000
0001
0010
0100
0000
0100
0000
1010
0000
1000
0000
1000
0000
1000
0000
,  // measure 39
1001
0001
0101
0100
0020
0030
0020
0030
,  // measure 40
1001
0000
0000
1100
0000
0101
0000
0000
,  // measure 41
0110
0000
0110
0000
0000
0000
1010
0000
0000
0101
0000
0000
1010
0000
0000
0000
,  // measure 42
1001
0000
0000
0011
0000
1010
0000
0000
,  // measure 43
1100
0000
1100
0000
0000
0000
1010
0000
0000
0101
0000
0000
0011
0000
0000
0000
,  // measure 44
1001
0001
0010
1000
0010
0100
1000
0001
,  // measure 45
1000
0000
1000
0000
0100
0000
0101
0000
0000
0110
0000
0000
1010
0000
1000
0000
,  // measure 46
1001
0001
0100
1000
0100
0001
0010
0001
,  // measure 47
0100
0000
0100
0000
0010
0000
0101
0000
0000
1001
0000
0000
1100
0000
0000
0000
,  // measure 48
0101
0011
1010
1100
,  // measure 49
0101
0011
1010
1100
,  // measure 50
0101
0011
1010
1100
,  // measure 51
0101
0011
4010
0100
,  // measure 52
3001
0100
1000
0100
0001
0100
1000
0100
,  // measure 53
0001
0010
1000
0010
0001
0010
1000
0010
,  // measure 54
0001
0100
0010
0100
0001
0010
0100
0010
0001
1000
0010
1000
0001
0100
0010
0100
,  // measure 55
0004
4000
0000
0000
0000
0000
0000
0000
3M03
0000
00M0
0000
0M00
0000
00M0
0000
,  // measure 56
1000
0001
0010
0000
0100
0010
0001
0000
1000
0100
0010
0000
0100
0000
1000
0000
,  // measure 57
0010
0100
0001
0000
1000
0010
0100
0000
0001
0010
0100
0000
0020
0000
1000
0000
,  // measure 58
0031
0000
0100
0000
0010
0000
0100
0000
0010
0000
0000
1000
0100
0000
0010
0000
,  // measure 59
0100
0000
1000
0000
0001
1000
0001
0000
1001
0000
0000
0000
0101
0000
0000
0000
,  // measure 60
0001
0010
0100
0000
0010
0100
1000
0000
0001
1000
0010
0100
0001
0000
0010
0000
,  // measure 61
0100
0010
0001
0000
1000
0100
0010
0000
0001
0100
0010
0000
0200
0000
1000
0000
,  // measure 62
0301
0000
0010
0000
0100
0000
0010
0000
0100
0000
0000
1000
0010
0000
1000
0000
,  // measure 63
0001
0000
0100
0000
0010
0100
0001
0000
0101
0000
0000
0000
1000
0000
0001
0000
,  // measure 64
1001
0000
1000
0000
0010
0000
1000
0000
0001
0000
0010
0100
1000
0000
0001
0000
,  // measure 65
1000
0100
0001
0100
1000
0010
0200
1000
,  // measure 66
0301
0000
0100
0000
0010
0000
0100
0000
0010
0000
1000
0100
0010
0000
0100
0000
,  // measure 67
1000
0000
0001
0000
0100
0001
0010
0000
0100
0000
0010
0000
0001
0000
1000
0000
,  // measure 68
0010
1000
0001
0000
0100
0001
1000
0000
0010
0000
1000
0100
0010
0000
0100
0000
,  // measure 69
1000
0001
0100
0000
0010
0100
0001
0000
0010
0100
1000
0000
0020
0000
0001
0000
,  // measure 70
1030
0000
0010
0000
0100
0000
0010
0000
0100
0000
0001
0010
0100
0000
0010
0000
,  // measure 71
0001
0000
1000
0000
0010
1000
0001
0000
0010
0000
0100
0000
0010
0000
0010
0000
,  // measure 72
0101
0000
0001
0000
1000
0000
0100
0000
1000
0000
0000
0010
0100
0000
0010
0000
,  // measure 73
0001
0000
0010
0000
0100
0001
0100
0000
0101
0000
0000
0001
0000
0000
1000
0000
,  // measure 74
0100
0000
0001
0000
0100
0000
0010
0000
0001
0000
0000
1000
0001
0000
0100
0000
,  // measure 75
0010
0001
0010
1000
1001
0000
0110
0000
,  // measure 76
1001
0000
1000
0000
0001
1000
0001
0000
0100
0000
0000
0010
0100
0000
0001
0000
,  // measure 77
0010
0000
1000
0000
0010
0100
0010
0000
0001
0000
1000
0000
0001
0100
0000
0000
,  // measure 78
0001
0000
1000
0000
0100
0000
0010
0000
0100
0000
1000
0010
1000
0000
0001
0000
,  // measure 79
1000
0000
0100
0000
0010
0001
1000
0000
0002
0000
0000
0000
0040
0000
0000
0000
,  // measure 80
0033
0000
0000
0000
;

//---------------dance-single - ----------------
#NOTEDATA:;
#CHARTNAME:X-Scale 11;
#STEPSTYPE:dance-single;
#DESCRIPTION:;
#CHARTSTYLE:;
#DIFFICULTY:Medium;
#METER:7;
#RADARVALUES:0.490774,0.616219,0.277298,0.261893,0.092433,446.000000,410.000000,36.000000,34.000000,0.000000,0.000000,0.000000,0.000000,0.000000,0.490774,0.616219,0.277298,0.261893,0.092433,446.000000,410.000000,36.000000,34.000000,0.000000,0.000000,0.000000,0.000000,0.000000;
#CREDIT:;
#DISPLAYBPM:150.000000;
#NOTES:
// measure 0
0000
0000
0000
0000
,  // measure 1
0000
0000
0000
0000
,  // measure 2
0000
0000
0000
0000
,  // measure 3
0000
0000
0000
0000
,  // measure 4
0000
0000
0000
0000
,  // measure 5
0000
0000
0000
0000
,  // measure 6
0000
0000
0000
0000
,  // measure 7
0000
0000
0000
0000
,  // measure 8
1100
0000
1000
0000
0001
0200
0000
0000
,  // measure 9
0320
0000
1030
0200
0001
0000
0010
0000
,  // measure 10
1000
0000
0310
0000
0100
2000
0000
0000
,  // measure 11
3002
0000
0103
0020
0000
0000
0000
0000
,  // measure 12
1030
0010
0100
0001
,  // measure 13
0010
0100
1000
0001
,  // measure 14
1000
0100
0010
0001
1000
0100
0010
0001
,  // measure 15
2002
0000
3003
0000
,  // measure 16
0110
0000
1001
0000
,  // measure 17
1000
1000
0000
0000
1001
0000
0000
0000
,  // measure 18
0101
0000
0110
0000
,  // measure 19
0001
0001
0000
0000
0101
0000
0000
0000
,  // measure 20
0110
0000
1001
0000
,  // measure 21
1000
1000
0000
0000
1001
0000
0000
0000
,  // measure 22
0110
0000
0101
0000
,  // measure 23
0001
0001
0000
0000
1001
0000
0000
0000
,  // measure 24
1000
0000
0100
0000
1000
0001
1000
0001
,  // measure 25
0010
0100
0010
0100
2000
0000
0010
0000
,  // measure 26
3001
0010
0100
0000
1000
0010
1000
0010
,  // measure 27
0100
0001
0100
0001
0020
0000
1000
0000
,  // measure 28
0031
0000
1000
0000
0010
0100
0010
0100
,  // measure 29
0001
0010
0001
0010
0200
0000
0001
0000
,  // measure 30
1300
0100
0010
0000
0100
1000
0100
1000
,  // measure 31
0001
0100
0001
0100
0020
0000
0001
0000
,  // measure 32
2030
0000
3100
0101
,  // measure 33
1000
0001
0000
0010
0100
0000
2000
0000
,  // measure 34
3001
0000
1000
0000
0002
0000
0000
0000
0013
0000
0100
0000
0000
0100
0000
0000
,  // measure 35
0010
0000
0010
0000
0002
0000
0000
0000
1003
0000
0001
0100
0001
0000
0001
0000
,  // measure 36
1001
0000
1000
0100
0010
0000
0010
0000
0001
0000
0100
0000
0001
0000
1000
0000
,  // measure 37
0001
0100
0001
0010
0100
1000
0100
1000
,  // measure 38
0100
0000
0010
0100
1000
0000
1000
0000
0001
0000
0100
0000
0001
0000
1000
0000
,  // measure 39
0001
0010
1000
0010
0002
0003
0002
0003
,  // measure 40
1001
0000
0000
1100
0000
1100
0000
0000
,  // measure 41
0001
0000
0001
0000
0000
0000
0101
0000
0000
0110
0000
0000
1010
0000
0000
0000
,  // measure 42
1100
0000
0000
0101
0000
0101
0000
0000
,  // measure 43
1000
0000
1000
0000
0000
0000
1100
0000
0000
0110
0000
0000
0011
0000
0000
0000
,  // measure 44
1000
0100
0001
0100
0010
0002
0000
0000
,  // measure 45
1003
0000
0010
0000
0100
0000
0010
0000
0000
1000
0000
0000
0001
0000
0000
0000
,  // measure 46
0010
0100
1000
0001
0010
0200
0000
0000
,  // measure 47
0301
0000
0100
0000
1000
0000
0001
0000
0000
1000
0000
0000
0100
0000
0000
0000
,  // measure 48
1100
0000
0100
0000
0010
0002
1000
0000
,  // measure 49
0103
0000
0010
0200
1000
0000
0010
0000
,  // measure 50
0001
0000
0310
0000
0100
0002
0010
0000
,  // measure 51
1003
0000
0010
0200
1000
0000
0010
0000
,  // measure 52
0301
0100
0010
0100
0001
0010
0100
0010
,  // measure 53
0001
1000
0010
0100
0010
1000
0001
0100
,  // measure 54
0001
1000
0100
1000
0001
0010
0100
0010
,  // measure 55
0002
0100
1003
0000
,  // measure 56
1001
0000
0000
0000
1000
0000
0010
0000
1000
0000
0000
0100
0010
0000
0100
0000
,  // measure 57
1000
0000
0100
0010
0001
0000
0020
0000
,  // measure 58
0130
0000
0000
0000
0010
0000
0001
0000
1000
0000
0000
0010
0100
0000
0010
0000
,  // measure 59
1000
0000
0001
0100
0101
0000
1100
0000
,  // measure 60
1000
0000
0000
0000
0001
0000
0100
0000
0001
0000
0000
1000
0010
0000
1000
0000
,  // measure 61
0100
0000
0010
0100
1000
0000
0002
0000
,  // measure 62
0103
0000
0000
0000
0001
0000
1000
0000
0010
0000
0000
0100
0010
0000
1000
0000
,  // measure 63
0100
0000
0010
0100
2000
0000
0000
3001
,  // measure 64
1001
0000
1000
0000
0001
0000
1000
0000
0100
0000
0000
0010
0100
0000
0010
0000
,  // measure 65
0001
0100
0010
0100
0001
1000
0200
0000
,  // measure 66
0310
0000
0100
0000
1000
0000
0001
0000
1000
0000
0000
0100
0010
0000
0100
0000
,  // measure 67
1000
0001
0100
0001
1001
0000
0110
0000
,  // measure 68
1001
0000
1000
0000
0001
0000
0010
0000
0001
0000
0000
0100
0010
0000
0100
0000
,  // measure 69
1000
0100
0001
0010
1000
0010
0002
0000
,  // measure 70
0103
0000
0010
0000
0100
0000
0001
0000
0010
0000
0000
0100
1000
0000
0001
0000
,  // measure 71
0100
0010
0001
0010
2000
0000
0100
0000
,  // measure 72
3100
0000
1000
0000
0001
0000
1000
0000
0100
0000
0000
0010
0001
0000
1000
0000
,  // measure 73
0001
0000
0100
0000
0001
0000
1000
0000
0010
0000
0000
0100
0000
0000
0010
0100
,  // measure 74
0001
0000
1000
0000
0100
0000
1000
0000
0001
0000
0000
0010
0001
0000
1000
0000
,  // measure 75
0100
0001
0100
0010
0002
0000
0100
0000
,  // measure 76
1003
0000
0001
0000
0100
0000
0001
0000
1000
0000
0000
0010
1000
0000
0001
0000
,  // measure 77
0010
0000
1000
0000
0010
0000
0001
0000
0100
0000
0000
0010
0000
0000
0100
0010
,  // measure 78
1000
0000
0001
0000
0100
0000
0001
0000
1000
0000
0000
0100
0010
0000
0100
0000
,  // measure 79
1000
0001
0010
0100
2000
0000
0200
0000
,  // measure 80
3300
0000
0000
0000
;

//---------------dance-single - ----------------
#NOTEDATA:;
#CHARTNAME:X-Scale 6;
#STEPSTYPE:dance-single;
#DESCRIPTION:;
#CHARTSTYLE:;
#DIFFICULTY:Easy;
#METER:4;
#RADARVALUES:0.342222,0.431353,0.100136,0.377434,0.003851,311.000000,298.000000,13.000000,49.000000,0.000000,0.000000,0.000000,0.000000,0.000000,0.342222,0.431353,0.100136,0.377434,0.003851,311.000000,298.000000,13.000000,49.000000,0.000000,0.000000,0.000000,0.000000,0.000000;
#CREDIT:;
#DISPLAYBPM:150.000000;
#NOTES:
// measure 0
0000
0000
0000
0000
,  // measure 1
0000
0000
0000
0000
,  // measure 2
0000
0000
0000
0000
,  // measure 3
0000
0000
0000
0000
,  // measure 4
0000
0000
0000
0000
,  // measure 5
0000
0000
0000
0000
,  // measure 6
0000
0000
0000
0000
,  // measure 7
0000
0000
0000
0000
,  // measure 8
0001
0000
0010
0000
,  // measure 9
0100
0000
1000
0000
,  // measure 10
0010
0000
0100
0000
,  // measure 11
0001
0000
1000
0000
,  // measure 12
1001
0001
0010
0001
,  // measure 13
0010
0100
1000
0100
,  // measure 14
1000
0010
0100
0001
,  // measure 15
1001
0000
0000
0000
,  // measure 16
0210
0000
1000
0000
,  // measure 17
0320
0000
0001
0000
,  // measure 18
2030
0000
0010
0000
,  // measure 19
3002
0000
0100
0000
,  // measure 20
2003
0000
0100
0000
,  // measure 21
3020
0000
1000
0000
,  // measure 22
0230
0000
1000
0000
,  // measure 23
0302
0000
0010
0000
,  // measure 24
1003
0000
0001
1000
0001
0000
0010
0000
,  // measure 25
0100
1000
0100
0000
0010
0000
0100
0000
,  // measure 26
1000
0001
1000
0000
0100
0010
0100
0000
,  // measure 27
0110
1001
0210
0000
,  // measure 28
1300
0000
0001
1000
0001
0000
0010
0100
,  // measure 29
0010
0000
0001
0000
1000
0010
1000
0000
,  // measure 30
0100
0010
0000
0000
0010
0001
1000
0001
,  // measure 31
0010
0001
1000
0001
0020
0000
0100
0000
,  // measure 32
0031
0000
1001
2000
,  // measure 33
3100
1100
0000
0000
1001
0000
0002
0000
,  // measure 34
0103
0000
0000
0000
0020
0000
0000
0000
1030
0000
0001
0000
0000
0001
0000
0000
,  // measure 35
0001
0200
0000
0000
0310
0000
0100
0001
,  // measure 36
1000
0000
0100
1000
0001
0000
0100
0001
,  // measure 37
1000
0000
0100
0010
0001
1000
0001
1000
,  // measure 38
0001
0000
0010
0100
1000
0000
0001
1000
,  // measure 39
0010
0000
0100
0010
1000
0000
0000
0000
,  // measure 40
2001
0000
0000
0100
0000
3200
0000
0000
,  // measure 41
0320
0000
0000
0001
0000
0000
0032
0000
,  // measure 42
0203
0000
0000
0010
0000
0320
0000
0000
,  // measure 43
2030
0000
0000
0001
0000
0000
3002
0000
,  // measure 44
0023
0000
0000
0001
0000
0032
0000
0000
,  // measure 45
0203
0000
0000
0010
0000
0000
0320
0000
,  // measure 46
2030
0000
0000
0100
0000
3200
0000
0000
,  // measure 47
0320
0000
0000
0001
0000
0000
0032
0000
,  // measure 48
1003
0001
0100
0010
,  // measure 49
1000
0001
0100
0010
,  // measure 50
1000
0100
0010
0001
,  // measure 51
1000
0100
0010
0001
,  // measure 52
1000
0001
0100
0010
,  // measure 53
1000
0001
0100
0010
,  // measure 54
1000
0001
1000
0001
0100
0010
0100
0010
,  // measure 55
1000
0100
1000
0100
0000
0000
0000
0000
,  // measure 56
1100
0000
0001
0000
1000
0000
0001
0100
,  // measure 57
0001
0010
0100
2000
,  // measure 58
3001
1000
0100
1000
0001
0000
0010
0100
,  // measure 59
0010
0000
0001
0000
1000
0001
1000
0000
,  // measure 60
0100
0000
0010
0000
0100
0000
1000
0100
,  // measure 61
1000
0001
0101
0200
,  // measure 62
0310
0100
0001
0100
0010
0000
1000
0000
,  // measure 63
0100
0000
0010
0100
0020
0030
0020
0030
,  // measure 64
0101
0001
0000
1000
0001
1000
0000
0100
,  // measure 65
0000
0010
0000
0001
0010
0001
0000
1000
,  // measure 66
0010
0100
0010
1000
0010
0000
1000
0000
,  // measure 67
0001
0010
0100
0010
0002
0000
0100
0000
,  // measure 68
1003
0001
0000
0100
0010
1000
0000
0001
,  // measure 69
0000
0010
0000
0100
0010
0001
0000
1000
,  // measure 70
0001
0100
0001
1000
0001
0000
0010
0000
,  // measure 71
0100
1000
0001
1000
0200
0000
0010
0000
,  // measure 72
1300
0000
0100
0000
0010
0002
0000
0000
,  // measure 73
2003
0000
3010
0200
0000
0000
0000
0000
,  // measure 74
0310
0000
0100
0000
0001
0020
0000
0000
,  // measure 75
0230
0000
1300
0002
0100
0000
0100
0000
,  // measure 76
1003
0000
0100
0000
0010
0002
0000
0000
,  // measure 77
0203
0000
0310
2000
0001
0000
0000
0000
,  // measure 78
3010
0000
1000
0000
0100
2000
0000
0000
,  // measure 79
3002
0000
0103
0020
0200
0000
0000
0000
,  // measure 80
0330
0000
0000
0000
;

//---------------dance-single - ----------------
#NOTEDATA:;
#CHARTNAME:X-Scale 3;
#STEPSTYPE:dance-single;
#DESCRIPTION:;
#CHARTSTYLE:;
#DIFFICULTY:Beginner;
#METER:2;
#RADARVALUES:0.167259,0.244947,0.200271,0.000000,0.000000,152.000000,126.000000,26.000000,0.000000,0.000000,0.000000,0.000000,0.000000,0.000000,0.167259,0.244947,0.200271,0.000000,0.000000,152.000000,126.000000,26.000000,0.000000,0.000000,0.000000,0.000000,0.000000,0.000000;
#CREDIT:;
#DISPLAYBPM:150.000000;
#NOTES:
// measure 0
0000
0000
0000
0000
,  // measure 1
0000
0000
0000
0000
,  // measure 2
0000
0000
0000
0000
,  // measure 3
0000
0000
0000
0000
,  // measure 4
0000
0000
0000
0000
,  // measure 5
0000
0000
0000
0000
,  // measure 6
0000
0000
0000
0000
,  // measure 7
0000
0000
0000
0000
,  // measure 8
1000
0000
0000
0000
,  // measure 9
0100
0000
0000
0000
,  // measure 10
0010
0000
0000
0000
,  // measure 11
0001
0000
0000
0000
,  // measure 12
1000
0000
0010
0000
,  // measure 13
0100
0000
0010
0000
,  // measure 14
1000
0000
0001
0000
,  // measure 15
0100
0000
0000
0000
,  // measure 16
1001
0000
0000
0000
,  // measure 17
0110
0000
0000
0000
,  // measure 18
1001
0000
0000
0000
,  // measure 19
0110
0000
0000
0000
,  // measure 20
1001
0000
0000
0000
,  // measure 21
0110
0000
0000
0000
,  // measure 22
1001
0000
0000
0000
,  // measure 23
0110
0000
0000
0000
,  // measure 24
1001
0000
1000
0000
,  // measure 25
0100
0000
0010
0000
,  // measure 26
0001
0000
0100
0000
,  // measure 27
0010
0000
1000
0000
,  // measure 28
0001
0000
1000
0000
,  // measure 29
0010
0000
0100
0000
,  // measure 30
0001
0000
0010
0000
,  // measure 31
0100
0000
1000
0000
,  // measure 32
0001
0000
0010
0000
,  // measure 33
0001
0000
1000
0000
,  // measure 34
0001
0000
0010
0000
,  // measure 35
0100
0000
1000
0000
,  // measure 36
0001
0000
1000
0000
,  // measure 37
0001
1000
0001
0000
,  // measure 38
0010
0000
0100
0000
,  // measure 39
1000
0000
0000
0000
,  // measure 40
1001
0000
0000
0000
,  // measure 41
0110
0000
0000
0000
,  // measure 42
1001
0000
0000
0000
,  // measure 43
0110
0000
0000
0000
,  // measure 44
1001
0000
0000
0000
,  // measure 45
0110
0000
0000
0000
,  // measure 46
1001
0000
0000
0000
,  // measure 47
0110
0000
0000
0000
,  // measure 48
1001
0000
1000
0000
,  // measure 49
0100
0000
0010
0000
,  // measure 50
0001
0000
0100
0000
,  // measure 51
0010
0000
1000
0000
,  // measure 52
0001
0000
0010
0000
,  // measure 53
0100
0000
0010
0000
,  // measure 54
0001
0000
1000
0000
,  // measure 55
0010
0000
1000
0000
,  // measure 56
0001
0000
1001
0000
,  // measure 57
0100
0000
0110
0000
,  // measure 58
0010
0000
1001
0000
,  // measure 59
1000
0000
0100
1000
,  // measure 60
0100
0000
1001
0000
,  // measure 61
0001
0000
0110
0000
,  // measure 62
0100
0000
1001
0000
,  // measure 63
0001
0000
0100
0000
,  // measure 64
1001
0000
1000
0000
,  // measure 65
0100
0000
0010
0000
,  // measure 66
0001
0000
1000
0000
,  // measure 67
0001
0000
0100
0010
,  // measure 68
0100
0000
0001
0000
,  // measure 69
0010
0000
0100
0000
,  // measure 70
1000
0000
0001
0000
,  // measure 71
1000
0000
0100
0010
,  // measure 72
0100
0000
1000
0000
,  // measure 73
0001
0000
1000
0000
,  // measure 74
0100
0000
0010
0000
,  // measure 75
0100
0000
1000
0000
,  // measure 76
0001
0000
0100
0000
,  // measure 77
0001
0000
1000
0000
,  // measure 78
0010
0000
0100
0000
,  // measure 79
0001
0000
1001
0000
;
