#TITLE:2019 Guy;
#SUBTITLE:;
#ARTIST:The Gentle Men;
#TITLETRANSLIT:;
#SUBTITLETRANSLIT:;
#ARTISTTRANSLIT:;
#GENRE:Emo Rock;
#CREDIT:;
#BANNER:2019 Guy-bn.png;
#BACKGROUND:2019 Guy-bg.png;
#LYRICSPATH:;
#CDTITLE:cdtitle.png;
#MUSIC:2019 Guy.ogg;
#OFFSET:-0.007000;
#SAMPLESTART:59.637001;
#SAMPLELENGTH:23.704000;
#SELECTABLE:YES;
#BPMS:0.000000=162.000000
;
#STOPS:
;
#BGCHANGES:0.000=2019 Guy.avi=1.000=1=0=1===CrossFade==,
99999=-nosongbg-=1.000=0=0=0 // don't automatically add -songbackground-
;
#KEYSOUNDS:;
#ATTACKS:;

//---------------dance-single - ----------------
#NOTES:
     dance-single:
     X-Scale 12:
     Hard:
     8:
     0.569110,0.727717,0.139926,0.205773,0.078194,484.000000,467.000000,17.000000,25.000000,0.000000,0.000000,0.569110,0.727717,0.139926,0.205773,0.078194,484.000000,467.000000,17.000000,25.000000,0.000000,0.000000:
// measure 0
0000
0000
0000
0000
,  // measure 1
0000
0000
0000
0000
,  // measure 2
0000
0000
0000
0000
,  // measure 3
0000
0000
0000
0000
,  // measure 4
0000
0000
0000
0000
,  // measure 5
0000
0000
0000
0000
,  // measure 6
0000
0000
0000
0000
,  // measure 7
0000
0000
0000
2000
,  // measure 8
3200
0000
0000
0300
0020
0000
0000
0030
,  // measure 9
0001
0010
1000
0010
0002
0000
0203
0000
,  // measure 10
0320
0000
0000
0030
2000
0000
0000
3000
,  // measure 11
0002
0000
0203
0000
1300
0100
0020
0000
,  // measure 12
2030
0000
0000
3000
0001
0000
0010
0000
,  // measure 13
0100
0000
1000
0200
0000
0300
2000
0000
,  // measure 14
0000
0000
3001
1000
0001
0010
0000
0100
,  // measure 15
1000
0000
0001
0000
0000
0000
1000
0001
1000
0000
0010
0000
0100
0000
0000
0000
,  // measure 16
0110
0000
0010
1000
0001
0000
1000
0100
,  // measure 17
0010
0001
1000
0001
0200
0000
0310
0100
,  // measure 18
0002
0000
1003
0001
1000
0000
0010
0100
,  // measure 19
1000
0100
0010
0100
0001
0000
1000
0010
,  // measure 20
0100
0000
0001
0010
0100
0000
1000
0000
,  // measure 21
0010
0000
0100
0010
1000
0000
0001
0100
,  // measure 22
0010
0001
0010
1000
0100
1000
0001
0010
,  // measure 23
1000
0000
0001
0000
0100
0000
1000
0100
1000
0000
0001
0000
1001
0000
0000
0000
,  // measure 24
1100
0000
1000
0200
0010
0300
0020
0000
,  // measure 25
1000
0100
0031
0010
,  // measure 26
0011
0000
0010
0200
1000
0300
2000
0000
,  // measure 27
0001
0100
3001
1000
,  // measure 28
1010
1000
0001
0010
,  // measure 29
0001
0000
0100
0000
0010
0000
1000
0010
,  // measure 30
1000
0100
1000
0100
0010
0001
0010
0001
,  // measure 31
1000
0010
1000
0010
1010
0000
0000
0000
,  // measure 32
0101
0001
0001
0100
0100
0100
0010
1000
,  // measure 33
0001
0010
0100
1000
0001
0010
0001
0010
,  // measure 34
0100
0100
0100
1000
1000
1000
0001
0100
,  // measure 35
0001
1000
0100
0010
0001
1000
0001
1000
,  // measure 36
0100
0100
0100
0010
0010
0010
0001
0100
,  // measure 37
1000
0001
0010
1000
0001
0010
0001
0010
,  // measure 38
0100
0100
0100
0010
0010
0010
1000
0010
,  // measure 39
0001
0000
0010
0000
0100
0000
1000
0100
1000
0000
1000
0000
0100
0000
1000
0000
,  // measure 40
1001
0000
0110
0000
1001
0000
1000
0100
,  // measure 41
1000
0000
0010
0100
0001
0000
0100
0010
,  // measure 42
1000
0001
0000
0000
0100
0000
0010
0100
,  // measure 43
0001
0000
0010
0100
1000
0000
0001
0100
,  // measure 44
0010
0100
0001
0000
1000
0000
0100
0010
,  // measure 45
0001
0000
1000
0010
1000
0000
0001
0010
,  // measure 46
0100
1000
0000
0000
0001
0000
1000
0100
,  // measure 47
0010
0000
0000
0000
0100
0000
0010
0000
0001
0000
1000
0001
1000
0001
1000
0000
,  // measure 48
0010
0100
0010
0000
0100
0010
0100
0000
0120
0000
0000
0000
0130
0000
0010
0000
,  // measure 49
1000
0000
0000
0001
1000
0000
0000
0000
0100
0000
0000
0000
0010
0000
0001
0000
,  // measure 50
1000
0001
0100
0000
0001
0000
0010
0100
,  // measure 51
1000
0000
0001
0000
1000
0000
0010
0100
,  // measure 52
0001
0100
0010
0000
0100
0000
0010
0100
,  // measure 53
0001
0000
1000
0100
0010
0000
0001
0100
,  // measure 54
1000
0100
0001
0000
1000
0001
1000
0010
,  // measure 55
0001
0010
0100
0001
1000
0100
0010
0001
,  // measure 56
1000
0000
0100
0000
1000
0000
0001
0100
0001
0000
0000
0000
0100
0000
0010
0000
,  // measure 57
1000
0000
0001
0100
0010
0000
1000
0100
,  // measure 58
0010
0001
1000
0000
0010
0000
0100
0010
,  // measure 59
1000
0000
0001
1000
0000
0000
0100
0010
,  // measure 60
0001
1000
0001
0000
1000
0000
0010
0100
,  // measure 61
0001
0000
1000
0100
0000
0000
1000
0010
,  // measure 62
0001
0010
0100
0000
0001
0000
1000
0001
,  // measure 63
0010
0000
0000
0000
0100
0000
1000
0000
0000
0000
0001
1000
0001
1000
0001
0000
,  // measure 64
0010
0100
0010
0000
0100
0010
0100
0000
0210
0000
0000
0000
1300
0000
0100
0000
,  // measure 65
0010
0000
0000
0100
0010
0000
0001
0000
0100
0000
0000
0000
0010
0000
0001
0000
,  // measure 66
0010
0100
0010
0000
1000
0000
0001
0010
,  // measure 67
0100
0000
0010
0100
1000
0000
0001
0100
,  // measure 68
1000
0100
0001
0000
0010
0000
0100
0010
,  // measure 69
0001
0000
1000
0010
2000
0000
3100
1000
,  // measure 70
0002
1000
0003
0000
0200
0000
0310
0100
,  // measure 71
0020
0000
0000
0000
1030
0000
0001
0000
1000
0000
0100
0000
0000
1000
0100
0000
,  // measure 72
0010
0000
0001
0000
1000
0100
1000
0100
1100
0000
1000
0000
1000
0000
0001
0000
,  // measure 73
0001
0001
0010
0100
1000
0001
1000
0010
,  // measure 74
0100
0001
0100
0001
1000
1000
1000
0100
,  // measure 75
0100
0100
0010
0001
1000
0001
0100
0010
,  // measure 76
1000
0001
1000
0001
0010
0010
0010
0001
,  // measure 77
0001
0001
0100
0010
1000
0001
0010
0100
,  // measure 78
1000
0010
1000
0010
0100
0100
0100
0001
,  // measure 79
0001
0000
0001
1000
0001
1000
0001
0000
0010
0000
0101
0000
0000
0000
0011
0000
,  // measure 80
0001
0100
1001
1001
0000
0000
0000
0000
;

//---------------dance-single - ----------------
#NOTES:
     dance-single:
     X-Scale 9:
     Medium:
     6:
     0.430360,0.529249,0.090540,0.353930,0.008231,366.000000,355.000000,11.000000,43.000000,0.000000,0.000000,0.430360,0.529249,0.090540,0.353930,0.008231,366.000000,355.000000,11.000000,43.000000,0.000000,0.000000:
// measure 0
0000
0000
0000
0000
,  // measure 1
0000
0000
0000
0000
,  // measure 2
0000
0000
0000
0000
,  // measure 3
0000
0000
0000
0000
,  // measure 4
0000
0000
0000
0000
,  // measure 5
0000
0000
0000
0000
,  // measure 6
0000
0000
0000
0000
,  // measure 7
0000
0000
0000
2000
,  // measure 8
3020
0000
0000
0030
2000
0000
0000
3000
,  // measure 9
0001
0000
0010
0001
2000
0000
3200
0000
,  // measure 10
2300
0000
0000
3000
0002
0000
0000
0003
,  // measure 11
0100
0000
0010
0000
1000
0001
2000
0000
,  // measure 12
3200
0000
0000
0300
0010
0000
0001
0000
,  // measure 13
1000
0000
0001
0020
0000
0030
0200
0000
,  // measure 14
0000
0000
1300
0000
0100
1000
0000
0001
,  // measure 15
1000
0000
0010
0100
0001
1000
1001
0000
,  // measure 16
1100
0000
1000
0100
0010
0000
0100
0010
,  // measure 17
0001
0000
1000
0010
0100
0000
0001
0010
,  // measure 18
0100
0000
0010
0100
1000
0000
0001
0100
,  // measure 19
0010
0000
1000
0100
0010
0000
0100
0010
,  // measure 20
0001
0000
1000
0010
0100
0000
0100
0001
,  // measure 21
1000
0000
0010
0100
0001
0000
1000
0100
,  // measure 22
0001
0000
0001
0100
1000
0000
0010
0100
,  // measure 23
0001
0000
1000
0100
0001
0100
1000
0000
,  // measure 24
1100
0000
1000
0100
1000
0000
0001
0000
,  // measure 25
0100
1000
0100
0001
,  // measure 26
1000
0010
0100
0001
,  // measure 27
1000
0100
1000
0001
,  // measure 28
0020
2030
3020
0032
,  // measure 29
2003
3020
1030
0001
,  // measure 30
1000
0100
0010
0001
0100
0010
1000
0100
,  // measure 31
0010
0001
0100
0010
1000
0000
0000
0000
,  // measure 32
1001
0000
1000
0100
0010
0000
0001
0000
,  // measure 33
1000
0010
0100
1000
0100
0010
1000
0001
,  // measure 34
1000
0000
0010
0100
0001
0000
1000
0000
,  // measure 35
0100
0010
0001
1000
0001
0100
0010
1000
,  // measure 36
0001
0000
1000
0100
0010
0000
0100
0000
,  // measure 37
1000
0000
0001
0100
1000
0100
0010
0100
,  // measure 38
0001
0000
1000
0100
0010
0000
0100
0000
,  // measure 39
1000
0001
0100
0010
0001
0010
1000
0001
,  // measure 40
1001
0000
0110
0000
2001
0000
3000
0200
,  // measure 41
0000
0300
2000
0000
3000
0000
0001
0000
,  // measure 42
0010
0000
0100
0000
2000
0000
3000
0002
,  // measure 43
0000
0003
2000
0000
3000
0000
0010
0000
,  // measure 44
0100
0000
0001
0000
1000
0000
0000
0100
,  // measure 45
0000
1000
0001
0000
0010
0000
0001
0000
,  // measure 46
0100
0000
0010
0000
2000
0000
3000
0002
,  // measure 47
0000
0003
0002
0000
0003
0000
0100
0000
,  // measure 48
0010
0000
1000
0000
1001
0000
1000
0100
,  // measure 49
0010
0000
0001
0000
0100
0000
0010
1000
,  // measure 50
0001
0010
0000
0000
0100
0000
1000
0001
,  // measure 51
1000
0000
0100
0000
0010
0000
0001
0100
,  // measure 52
1000
0100
0001
0000
1000
0000
0010
0100
,  // measure 53
0001
0000
1000
0000
0100
0000
1000
0001
,  // measure 54
0100
0010
0000
0000
1000
0000
0100
1000
,  // measure 55
0001
1000
0010
0000
0100
0010
0001
0010
,  // measure 56
1000
0000
0000
0000
0001
0000
1000
0001
2000
0000
0000
0000
3000
0000
0200
0000
,  // measure 57
0000
0300
2000
0000
3000
0000
0001
0000
,  // measure 58
0100
0000
0010
0000
2000
0000
3000
0002
,  // measure 59
0000
0003
2000
0000
3000
0000
0010
0100
,  // measure 60
0001
0100
0010
0000
2000
0000
3000
0200
,  // measure 61
0000
0310
0002
0000
0003
0000
1000
0001
,  // measure 62
0100
0010
0000
0000
2000
0000
3000
0002
,  // measure 63
0000
0003
0002
0000
0003
0000
1000
0000
,  // measure 64
0010
1000
0001
0000
1001
0000
1000
0100
,  // measure 65
0010
0000
0100
0000
1000
0000
0001
0100
,  // measure 66
0010
1000
0000
0000
0001
0000
0010
0100
,  // measure 67
1000
0000
0001
0000
1000
0000
0010
0100
,  // measure 68
1000
0100
0010
0000
1000
0000
0001
0100
,  // measure 69
0001
0010
0200
0300
,  // measure 70
2000
3000
0002
0003
,  // measure 71
0020
0030
0200
0001
,  // measure 72
0010
0000
1000
0000
1300
0000
0100
0010
,  // measure 73
0001
0000
1000
0001
0100
0000
0001
0010
,  // measure 74
0100
0000
0100
0000
1100
0000
1000
0001
,  // measure 75
0010
0000
0100
1000
0001
0000
1000
0100
,  // measure 76
0001
0000
0001
0100
1100
0000
0010
0100
,  // measure 77
0001
0000
1000
0100
0010
0000
0100
0010
,  // measure 78
0001
0000
1000
0000
0001
0100
0001
0100
,  // measure 79
0000
0000
0010
0100
0010
0000
1000
0000
0100
0000
0010
0000
0001
0000
0100
0000
,  // measure 80
0010
1000
0001
0001
0000
0000
0000
0000
;

//---------------dance-single - ----------------
#NOTES:
     dance-single:
     X-Scale 6:
     Easy:
     3:
     0.312775,0.430015,0.074078,0.864247,0.000000,266.000000,257.000000,9.000000,105.000000,0.000000,0.000000,0.312775,0.430015,0.074078,0.864247,0.000000,266.000000,257.000000,9.000000,105.000000,0.000000,0.000000:
0000
0000
0000
0000
,
0000
0000
0000
0000
,
0000
0000
0000
0000
,
0000
0000
0000
0000
,
0000
0000
0000
0000
,
0000
0000
0000
0000
,
0000
0000
0000
0000
,
0000
0000
0000
0000
,
0001
0000
0010
0000
,
0100
0000
1000
0000
,
0001
0000
0010
0000
,
0100
0000
1000
0000
,
0001
0000
0100
0000
,
0010
0000
1000
0000
,
0001
0000
0100
0000
,
0010
0000
0000
0000
1000
0100
1000
0000
,
0210
0300
2000
3000
,
0010
0100
0002
0000
0023
0000
0130
1000
,
0002
0003
2000
3000
,
0010
1000
0002
0000
0023
0000
0230
0000
,
2300
3000
0002
0203
,
0320
0000
1030
0002
0000
0003
0020
0000
,
0000
0000
0130
0000
0010
0000
0001
1000
,
0000
0000
0010
1000
0001
1000
0001
0000
,
1001
1000
0001
1000
,
0001
1000
0001
1000
,
0110
0010
0100
0010
,
0100
0010
0100
0010
,
2001
3200
0320
0032
,
2003
0000
3002
0000
0013
0000
0100
1000
,
0002
0000
0003
0020
0000
0030
0200
0000
,
0000
0000
1300
0000
,
1001
0000
0000
1000
0100
0000
1000
0000
,
0001
0000
1000
0000
0001
0100
0001
0100
,
0001
0000
0000
0010
0100
0000
1000
0000
,
0000
0001
0000
0000
0010
0100
0010
0100
,
0010
0000
0000
0001
0100
0000
0010
0000
,
0100
0000
0001
0000
1000
0001
1000
0001
,
1000
0000
0000
0010
0100
0000
0001
0000
,
0000
0100
0000
0000
0001
0010
0001
0010
,
0011
0000
0110
0000
2100
0000
3000
0002
,
0000
0003
0200
0000
0300
0000
0020
0000
,
0230
0000
0302
0000
0023
0000
0030
0200
,
0000
0300
2000
0000
3000
0000
0002
0000
,
0023
0000
0230
0000
2300
0000
3000
0002
,
0000
1003
0200
0000
0300
0000
0020
0000
,
0032
0000
2003
0000
3020
0000
0030
0200
,
0000
0300
0200
0000
0300
0000
0002
0000
,
0023
0000
0230
0000
2300
0000
3000
0001
,
1000
0200
0320
0032
,
2003
0000
3002
0000
0203
0000
0300
0010
,
0200
0302
0023
0230
,
2300
0000
3002
0000
2003
0000
3000
0100
,
0010
0000
0000
0001
0000
0000
1000
0001
,
1000
0100
0000
0000
0010
0000
0001
0000
,
1000
0001
1000
0000
0010
0000
0100
0000
,
0010
0000
2000
0000
3002
0000
0003
0200
,
0000
0300
0002
0000
0003
0000
0010
0100
,
0020
0000
0032
0000
2003
0000
3000
0020
,
0000
0030
2000
0000
3000
0000
0200
0000
,
0320
0000
0032
0000
2003
0000
3000
0020
,
0000
1030
0002
0000
0003
0000
0020
0000
,
0230
0000
2300
0000
3002
0000
0003
0200
,
0000
0300
0200
0000
0300
0000
0002
0000
,
0023
0000
0230
0000
2300
0000
3000
0001
,
0100
0020
0230
0302
,
0023
0000
0230
0000
2300
0000
3000
0010
,
2000
3200
0320
0032
,
2003
0000
3002
0000
0203
0000
0300
0010
,
0100
0001
2000
3000
,
0200
0300
0002
0003
,
0200
0300
2000
0000
,
0000
0000
0000
0000
3001
0000
0000
0010
,
0000
0001
1000
0001
,
0010
0000
0100
0000
1000
0000
0000
0010
,
0000
1000
0001
1000
,
0100
0000
0010
0000
0001
0000
0000
1000
,
0000
0001
1000
0010
,
0100
0000
0001
0000
1000
0000
0000
1001
,
0000
0001
0100
0010
,
0100
0001
0100
0001
0000
0000
0000
0000
;

//---------------dance-single - ----------------
#NOTES:
     dance-single:
     X-Scale 2:
     Beginner:
     2:
     0.172849,0.230466,0.082309,0.000000,0.000000,147.000000,137.000000,10.000000,0.000000,0.000000,0.000000,0.172849,0.230466,0.082309,0.000000,0.000000,147.000000,137.000000,10.000000,0.000000,0.000000,0.000000:
0000
0000
0000
0000
,
0000
0000
0000
0000
,
0000
0000
0000
0000
,
0000
0000
0000
0000
,
0000
0000
0000
0000
,
0000
0000
0000
0000
,
0000
0000
0000
0000
,
0000
0000
0000
0000
,
1000
0000
0000
0000
,
0100
0000
0000
0000
,
0010
0000
0000
0000
,
0001
0000
0000
0000
,
1000
0000
0000
0000
,
0100
0000
0000
0000
,
0010
0000
0000
0000
,
0001
0000
0000
0000
,
1001
0000
1000
0000
,
0001
0000
1000
0000
,
0001
0000
0010
0000
,
0100
0000
0010
0000
,
0100
0000
1000
0000
,
0010
0000
1000
0000
,
0010
0000
0100
0000
,
0001
0000
0100
0000
,
1001
0000
0000
0000
,
0000
0000
0000
0000
,
0110
0000
0000
0000
,
0000
0000
0000
0000
,
1001
0000
0001
0000
,
1000
0000
0001
0000
,
1000
0000
0001
0000
,
1000
0000
0001
0000
,
1001
0000
1000
0000
,
0100
0000
1000
0000
,
0100
0000
0010
0000
,
0001
0000
0010
0000
,
0001
0000
1000
0000
,
0010
0000
1000
0000
,
0010
0000
0100
0000
,
0001
0000
0100
0000
,
0001
0001
0001
0000
,
1000
0000
0100
0000
,
1000
0000
0100
0000
,
0010
0000
0001
0000
,
0010
0000
0001
0000
,
0100
0000
0010
0000
,
0100
0000
0010
0000
,
1000
0000
0001
1000
,
0100
1000
0100
0000
,
0010
0000
0001
0000
,
1000
0001
1000
0000
,
0010
0000
0100
0000
,
0001
0100
0001
0000
,
0010
0000
0100
0000
,
0010
0000
0100
0000
,
1000
1000
0010
0000
,
1000
0000
1001
0000
,
0001
0000
0100
0000
,
0001
0000
0100
0000
,
0010
0000
1000
0000
,
0010
0000
1000
0000
,
0100
0000
0010
0000
,
0100
0000
0010
0000
,
0001
0000
1000
0100
,
0010
0100
0010
0000
,
0001
0000
1000
0000
,
0010
1000
0010
0000
,
0100
0000
0010
0000
,
1000
0100
1000
0000
,
0001
0000
0010
0000
,
0001
0000
0010
0000
,
0100
0000
1000
0000
,
0000
0000
1001
0000
,
0000
0000
0100
0000
,
0010
0000
0110
0000
,
0000
0000
1000
0000
,
0001
0000
1001
0000
,
0000
0000
0100
0000
,
0010
0000
0110
0000
,
1000
0000
0010
0000
,
1000
0000
0000
0000
;

//---------------dance-single - ----------------
#NOTES:
     dance-single:
     X-Scale 14:
     Challenge:
     10:
     0.710211,0.793873,0.765476,0.000000,0.082309,604.000000,511.000000,93.000000,0.000000,0.000000,0.000000,0.710211,0.793873,0.765476,0.000000,0.082309,604.000000,511.000000,93.000000,0.000000,0.000000,0.000000:
// measure 0
0000
0000
0000
0000
,  // measure 1
0000
0000
0000
0000
,  // measure 2
0000
0000
0000
0000
,  // measure 3
0000
0000
0000
0000
,  // measure 4
0000
0000
0000
0000
,  // measure 5
0000
0000
0000
0000
,  // measure 6
0000
0000
0000
0000
,  // measure 7
0000
0000
0000
0000
,  // measure 8
1000
0100
0010
0001
1000
0100
0010
0001
,  // measure 9
1000
0100
0010
0001
1000
0100
0010
0001
,  // measure 10
1000
0010
0100
0001
1000
0010
0100
0001
,  // measure 11
1000
0010
0100
0001
1000
0010
0100
0001
,  // measure 12
1000
0001
0010
0100
1000
0001
0010
0100
,  // measure 13
1000
0001
0010
0100
1000
0001
0010
0100
,  // measure 14
1000
0001
0100
0010
1000
0001
0100
0010
,  // measure 15
1000
0000
0001
0000
0100
0000
0010
0100
0010
0000
0100
0000
0010
0000
0000
0000
,  // measure 16
0101
0001
0100
0001
0101
0100
0010
0100
,  // measure 17
1000
0100
0010
0100
1010
0000
0100
1000
,  // measure 18
1100
0100
1000
0001
1001
1000
0001
1000
,  // measure 19
0100
0001
0100
1000
1100
0000
1001
0000
,  // measure 20
0101
0100
0001
0010
0101
0001
0100
1000
,  // measure 21
0100
0001
0100
0010
0110
0100
0010
1000
,  // measure 22
0100
0001
0100
0010
0011
0001
1000
0001
,  // measure 23
0100
0000
0010
0000
0100
0000
0001
0100
0001
0000
0100
0000
0001
0000
0000
0000
,  // measure 24
1001
0110
1001
0110
,  // measure 25
1001
0110
1001
0110
,  // measure 26
1100
0101
1100
0101
,  // measure 27
1010
0011
1010
0011
,  // measure 28
1010
1100
0011
1100
,  // measure 29
0011
1010
0101
1010
,  // measure 30
0101
0100
0100
0100
0001
0001
0001
0001
,  // measure 31
1000
1000
1000
1000
1010
0000
0000
0000
,  // measure 32
1001
1000
0100
0010
0101
0001
0010
0100
,  // measure 33
0010
1000
0010
0100
0010
0001
0010
0001
,  // measure 34
1001
0001
0100
0010
0110
0100
0001
1000
,  // measure 35
0100
0001
0100
1000
0001
0010
0100
1000
,  // measure 36
1100
0001
0010
0001
0101
0100
0010
0100
,  // measure 37
1000
0100
0010
1000
0001
0010
0100
1000
,  // measure 38
1010
1000
0001
0010
0101
0001
1000
0100
,  // measure 39
0010
0000
0100
0000
1000
0000
0001
1000
0001
0000
0010
0000
0100
0000
0010
0000
,  // measure 40
0101
0000
0110
0000
1100
0000
1000
0100
,  // measure 41
0010
0000
0001
0100
0000
0000
0100
0010
,  // measure 42
1000
0001
0100
0000
0001
0000
0010
0100
,  // measure 43
1000
0000
0001
1000
0000
0000
0001
1000
,  // measure 44
1001
0001
0011
0000
0100
0000
0010
0100
,  // measure 45
1000
0000
0010
0100
0000
0000
0001
0100
,  // measure 46
1000
0100
0001
0000
0010
0000
0100
1000
,  // measure 47
0001
0000
0000
0000
0100
0000
0010
0000
0000
0000
1000
0010
1000
0010
1000
0000
,  // measure 48
0001
0100
0001
0000
1000
0100
0010
0001
1000
0000
0000
0000
1000
0000
0010
0000
,  // measure 49
1000
0000
0000
0001
0010
0000
0101
0000
0000
0000
0100
0000
0010
0000
1000
0000
,  // measure 50
0001
0010
0100
0000
1010
0000
1000
0100
,  // measure 51
0011
0000
1000
0001
0000
1000
0010
0100
,  // measure 52
1010
1000
1001
0000
0001
0000
1000
0010
,  // measure 53
0100
0000
0001
0010
0000
0001
0100
1000
,  // measure 54
0001
0010
1000
0000
0001
0001
1000
1000
,  // measure 55
1010
0010
0110
0100
0001
0101
0001
1000
,  // measure 56
1100
0000
0100
0000
0110
0000
0001
0010
0001
0000
0000
0000
1000
0000
0100
0000
,  // measure 57
0001
0100
1000
0100
0001
0100
1000
0010
,  // measure 58
1010
0000
0001
0000
1001
0000
0001
0010
,  // measure 59
1000
0010
0100
0010
0001
0010
0100
1000
,  // measure 60
1100
0001
0101
0000
1001
0000
1000
0100
,  // measure 61
0001
1000
0010
0001
0100
0001
0010
0100
,  // measure 62
1010
0000
1000
0000
1001
0000
0001
0100
,  // measure 63
0010
0000
0001
0000
0010
0000
0100
0000
0001
0000
1000
0001
1000
0001
1000
0000
,  // measure 64
0010
0100
0010
0000
1000
0100
0010
0001
1000
0000
0000
0000
0001
0000
0100
0000
,  // measure 65
0010
0000
0000
0100
0001
0000
1001
0000
0000
0000
0000
0000
1000
0000
0100
0000
,  // measure 66
0010
0100
1000
0000
1100
0000
0001
0100
,  // measure 67
1010
0000
0100
1000
0001
0000
1000
0100
,  // measure 68
1100
0001
1001
0000
0101
0000
0100
0010
,  // measure 69
1000
0000
0001
0010
1000
0000
1000
0010
,  // measure 70
0001
1000
0000
0000
0001
0100
1000
0100
,  // measure 71
0010
0000
0100
0000
0001
0000
0010
0000
0001
0000
1000
0000
0100
1000
0100
0000
,  // measure 72
1000
0000
0001
0000
0100
0001
1000
0001
0100
0000
0001
0000
0010
0000
0011
0000
,  // measure 73
0001
1000
1010
1000
1001
0010
0001
1000
,  // measure 74
0010
0100
0010
0100
0110
0010
1000
1001
,  // measure 75
0001
0010
0101
0100
0110
0100
0001
0010
,  // measure 76
0011
0010
0001
1000
1001
0100
1000
1010
,  // measure 77
0010
0100
0110
0010
1010
1000
0100
0010
,  // measure 78
0001
1000
0001
0010
0011
0010
0010
0110
,  // measure 79
0000
0000
1000
0001
1000
0000
0100
0000
0010
0000
0101
0000
0000
0000
1100
0000
,  // measure 80
1010
1010
0011
0011
0000
0000
0000
0000
;
