#TITLE:1999;
#SUBTITLE:;
#ARTIST:Charli XCX & Troye Sivan;
#TITLETRANSLIT:;
#SUBTITLETRANSLIT:;
#ARTISTTRANSLIT:;
#GENRE:Electropop;
#CREDIT:;
#BANNER:1999-bn.png;
#BACKGROUND:1999-bg.png;
#LYRICSPATH:;
#CDTITLE:cdtitle.png;
#MUSIC:1999.ogg;
#OFFSET:-0.004000;
#SAMPLESTART:46.456001;
#SAMPLELENGTH:15.500000;
#SELECTABLE:YES;
#BPMS:0.000000=124.000000
;
#STOPS:
;
#BGCHANGES:0.000=1999.avi=1.000=0=0=0=StretchNoLoop====,
99999=-nosongbg-=1.000=0=0=0 // don't automatically add -songbackground-
;
#KEYSOUNDS:;
#ATTACKS:;

//---------------dance-single - ----------------
#NOTES:
     dance-single:
     X-Scale 12:
     Hard:
     8:
     0.512914,0.614267,0.080296,0.126180,0.303979,313.000000,306.000000,7.000000,11.000000,0.000000,0.000000,0.512914,0.614267,0.080296,0.126180,0.303979,313.000000,306.000000,7.000000,11.000000,0.000000,0.000000:
// measure 0
0000
0000
0000
0000
,  // measure 1
0000
0000
0000
0000
,  // measure 2
0000
0000
0000
0000
,  // measure 3
0000
0000
0000
0000
,  // measure 4
1000
0000
1010
0001
0100
0010
1000
0000
,  // measure 5
0001
0000
0010
0000
0100
0000
0000
0100
1000
0000
0010
0000
0100
0000
0001
0000
,  // measure 6
0010
0000
0100
0000
1000
0000
0000
0010
1000
0000
0010
0000
0001
0000
0010
0000
,  // measure 7
0100
0000
0000
0000
0000
0000
0001
0000
0000
0000
0000
0000
1000
0000
0000
0100
1000
0100
1000
0000
0000
0000
0000
0000
,  // measure 8
1001
0000
0010
0000
0001
0000
1000
0100
0010
0100
1000
0000
0001
0000
0000
0000
,  // measure 9
0100
0010
0100
0001
0010
0100
0010
0001
,  // measure 10
1000
0000
0010
0000
1000
0000
0000
0010
0100
0000
0001
0010
0000
0001
0000
0000
,  // measure 11
1000
0000
0010
0000
1000
0000
0001
0100
0001
0000
0010
0100
0000
0010
0100
0000
,  // measure 12
2000
0000
0000
0000
3010
1000
0000
0000
0100
0010
0000
0000
0001
0100
0000
0000
,  // measure 13
0001
0000
0100
0001
0100
0000
0010
1000
0010
0000
1000
0100
0000
0010
0000
0000
,  // measure 14
0001
0000
0100
0010
0100
0000
0001
0010
0100
0000
1000
0010
0000
1000
0010
0000
,  // measure 15
0100
0010
0100
0000
0001
0010
0100
0010
0001
0000
1000
0100
0000
1000
0000
0000
,  // measure 16
1001
0000
0020
0000
0100
0100
0000
0000
,  // measure 17
1030
0010
0001
0010
0100
0100
0001
2000
,  // measure 18
0010
0000
0100
0000
0001
0001
3000
1000
,  // measure 19
0100
0010
0001
0100
1000
0100
0001
0010
,  // measure 20
0011
0000
0020
0000
1000
1000
0000
0000
,  // measure 21
0031
0010
1000
0100
0001
0010
0100
1000
,  // measure 22
0010
0000
0000
0000
0010
0000
0000
0100
0010
0000
0100
0000
0001
0000
0010
0000
,  // measure 23
0200
0000
0300
0000
,  // measure 24
1010
0000
0000
1000
0001
0000
1000
0000
0100
0000
0010
0000
0001
0000
0000
0000
,  // measure 25
0100
0000
0001
0010
0000
0001
0010
0000
0100
0000
1000
0000
0010
0000
0001
0000
,  // measure 26
0010
1000
0020
0000
0130
0001
1000
0100
,  // measure 27
0010
0000
0001
0100
0010
0000
1000
0100
,  // measure 28
0010
0000
0000
0001
0100
0000
0001
0000
0010
0000
0100
0000
1000
0000
0000
0000
,  // measure 29
0010
0000
1000
0100
0000
1000
0100
0000
0010
0000
0001
0000
0100
0000
0010
0000
,  // measure 30
1000
0001
0200
0000
1300
0100
0010
1000
,  // measure 31
0001
0000
0000
0100
0001
0000
0100
0000
0001
0000
0010
0000
0100
0000
0100
0000
,  // measure 32
0110
0000
0010
0001
0000
0100
0001
0000
0020
0000
0000
0000
1030
0000
0010
0000
,  // measure 33
0001
0000
1000
0100
0000
1000
0010
0000
0200
0000
0000
0000
1300
0000
0100
0000
,  // measure 34
0010
0000
1000
0001
0000
1000
0100
0000
1000
0000
0001
0000
1000
0000
0010
0000
,  // measure 35
0100
0000
0001
0010
0000
0001
0100
0000
0001
0000
1000
0000
0100
0000
0010
0000
,  // measure 36
0001
0000
0000
0001
0100
0000
0001
0000
0010
0000
0100
0000
1000
0000
0000
0000
,  // measure 37
0010
0000
1000
0100
0000
1000
0100
0000
0010
0000
0001
0000
0100
0000
1000
0000
,  // measure 38
0100
0001
0200
0000
0310
0100
0001
0000
,  // measure 39
1000
0000
0000
0100
1000
0000
0010
0000
1000
0000
0100
0000
0010
0000
0001
0000
,  // measure 40
0011
0000
0000
0100
0001
0000
0010
0000
0100
0000
1000
0000
0010
0000
0000
0000
,  // measure 41
1000
0000
0100
0010
0000
0100
0010
0000
0001
0000
0100
0000
0010
0000
0001
0000
,  // measure 42
0010
0100
0020
0000
0031
0010
1000
0000
,  // measure 43
0100
0000
0000
1000
0100
0000
0010
0000
0001
0000
1000
0000
0001
0000
1000
0000
,  // measure 44
0010
0000
0000
0100
0000
0000
0010
0000
0000
0000
0010
0000
0000
0000
0000
0000
;

//---------------dance-single - ----------------
#NOTES:
     dance-single:
     X-Scale 9:
     Medium:
     6:
     0.403121,0.383917,0.022942,0.103238,0.063090,246.000000,244.000000,2.000000,9.000000,0.000000,0.000000,0.403121,0.383917,0.022942,0.103238,0.063090,246.000000,244.000000,2.000000,9.000000,0.000000,0.000000:
0000
0000
0000
0000
,
0000
0000
0000
0000
,
0000
0000
0000
0000
,
0000
0000
0000
0000
,
0000
0000
1000
0100
0010
0100
1000
0000
,
0001
0100
0001
0000
0010
0100
1000
0001
,
1000
0100
0010
0000
0001
0100
0001
0000
,
0010
0000
0100
0000
1000
0010
1000
0000
,
1010
0000
0001
0000
1000
0100
1000
0000
,
0010
0100
0010
0000
1000
0001
1000
0100
,
0010
0000
0001
0000
0100
0010
0100
0000
,
0001
1000
0001
0000
1000
0010
1000
0100
,
0010
0000
0001
0000
0100
0010
0100
0000
,
0001
0100
0001
0000
1000
0010
1000
0100
,
0010
0000
0001
0001
0000
0000
1000
0000
,
0010
0100
0010
0000
1000
0001
1000
0100
,
0010
0002
0000
1000
,
1003
0001
0010
0100
1000
0010
1000
0200
,
0010
0000
0010
0000
0000
0000
1300
0100
,
0010
0001
0001
0000
1000
0010
1000
0100
,
0010
0002
0000
1000
,
1003
0001
1000
0010
0001
0010
1000
0200
,
0010
0300
0001
0200
0010
0300
1000
0200
,
0010
0000
0300
0000
,
1001
0000
0001
0010
1000
0010
0001
0000
,
0100
0000
0000
0010
0000
0000
0100
0000
0001
0000
0010
0000
0100
0000
1000
0000
,
0100
1000
0100
0000
0010
0001
0100
0001
,
0010
0000
0100
1000
0010
0000
1000
0100
,
0010
0000
0001
0100
1000
0100
0001
0000
,
0010
0000
0000
0001
0000
0000
0010
0000
0001
0000
1000
0000
0100
0000
0010
0000
,
0001
1000
0010
0000
1000
0100
1000
0010
,
0200
0000
0302
0000
1003
0100
0020
0000
,
0031
0000
0000
0100
0000
0000
0001
0000
0010
0000
0100
0000
1000
0000
0000
0000
,
0010
0000
0000
1000
0000
0000
0010
0000
0100
0000
0001
0000
1000
0000
0100
0000
,
0010
0000
0000
0001
0000
0000
0100
0000
0001
0000
0010
0000
1000
0000
0010
0000
,
0001
0000
0000
1000
0000
0000
0001
0000
1000
0000
0100
0000
0010
0000
0100
0000
,
1000
0000
0001
0100
0010
0100
0001
0000
,
1000
0000
0000
0010
0000
0000
1000
0000
0100
0000
0010
0000
0001
0000
0100
0000
,
0001
0100
0001
0000
1000
0010
1000
0000
,
0100
0000
0000
0010
0000
0000
0100
0000
0010
0000
0001
0000
0100
0000
0001
0000
,
0010
0000
0100
1000
0010
1000
0100
0000
,
0010
0000
0000
0001
0000
0000
0100
0000
0001
0000
0010
0000
0100
0000
1000
0000
,
0100
1000
0100
0000
0010
0001
0010
0000
,
0001
0000
0000
1000
0000
0000
0001
0000
0010
0000
0100
0000
1000
0000
0010
0000
,
1000
0000
0000
0100
0000
0000
1000
0000
0000
0000
1000
0000
0000
0000
0000
0000
;

//---------------dance-single - ----------------
#NOTES:
     dance-single:
     X-Scale 6:
     Easy:
     4:
     0.353960,0.358323,0.022942,0.114709,0.000000,216.000000,214.000000,2.000000,10.000000,0.000000,0.000000,0.353960,0.358323,0.022942,0.114709,0.000000,216.000000,214.000000,2.000000,10.000000,0.000000,0.000000:
0000
0000
0000
0000
,
0000
0000
0000
0000
,
0000
0000
0000
0000
,
0000
0000
0000
0000
,
0000
0100
1000
0010
,
1000
0100
0010
0000
0001
0000
0100
0000
,
0001
0010
0100
0000
1000
0100
1000
0000
,
0001
0100
0001
0000
1000
0100
0010
0000
,
0110
0100
1000
0001
,
1000
0100
1000
0000
0001
0000
0100
0010
,
0100
0001
1000
0100
,
1000
0001
1000
0000
0010
0000
0100
0000
,
0001
0000
1000
0000
0100
1000
0100
0000
,
0010
0001
0010
0000
0001
0100
0010
0100
,
0001
0000
1000
1000
0000
0000
0100
0000
,
1000
0010
1000
0000
0001
0100
0010
0100
,
0001
0000
1000
0000
0100
0010
0001
0000
,
1000
0010
1000
0000
0001
1000
0100
1000
,
0001
0000
0100
0000
0010
0100
0010
0000
,
1000
0100
1000
0000
0001
0010
0100
0010
,
0001
0000
1000
0000
0010
0100
0010
0000
,
1000
0100
1000
0000
0001
1000
0100
1000
,
0002
0000
0013
0002
0000
0000
0013
0002
,
0000
0000
0003
0000
,
1010
1000
0001
1000
,
0100
0000
0010
0000
0001
0000
1000
0010
,
1000
0010
1000
0000
0001
0010
0001
0000
,
1000
0000
0001
0100
0001
0000
1000
0100
,
1000
0010
0100
0001
,
1000
0000
0100
0000
0010
0100
1000
0100
,
0010
0000
0001
0000
1000
0010
1000
0000
,
0002
0000
2003
0000
3001
0010
0200
0000
,
1300
0000
0100
0000
1000
0010
1000
0000
,
0001
0010
0001
0000
1000
0010
0100
0010
,
1000
0000
0100
0000
0010
0001
0010
0000
,
0001
0100
0001
0000
1000
0010
0100
0010
,
1000
0100
0010
0001
,
1000
0010
1000
0000
0001
0000
0100
0010
,
0100
0010
0100
0000
0001
0010
0001
0000
,
1000
0000
0200
0000
0320
0000
0032
0003
,
0002
0003
1000
0100
0010
0100
1000
0000
,
0001
0000
0100
0000
0010
0000
1000
0100
,
1000
0100
1000
0000
0001
0100
0001
0000
,
1000
0000
0010
0000
0100
0010
0001
0010
,
0100
0000
0000
0100
0000
0100
0000
0000
;

//---------------dance-single - ----------------
#NOTES:
     dance-single:
     X-Scale 2:
     Beginner:
     1:
     0.131096,0.151416,0.011471,0.000000,0.000000,80.000000,79.000000,1.000000,0.000000,0.000000,0.000000,0.131096,0.151416,0.011471,0.000000,0.000000,80.000000,79.000000,1.000000,0.000000,0.000000,0.000000:
0000
0000
0000
0000
,
0000
0000
0000
0000
,
0000
0000
0000
0000
,
0000
0000
0000
0000
,
0000
0100
0000
1000
,
0000
0001
0000
0100
,
0000
0001
0000
1000
,
0000
0100
0000
0010
,
0000
0001
0000
0100
,
0000
0001
0000
0010
,
0000
0100
0000
1000
,
0000
0010
0000
1000
,
0000
0001
0000
1000
,
0000
0100
0000
1000
,
0000
0010
0000
0010
,
0000
1000
0000
0001
,
0000
0100
0000
0010
,
0000
0100
0000
0001
,
0000
1000
0000
0001
,
0000
0010
0000
0100
,
0000
0010
0000
0001
,
0000
1000
0000
0010
,
0010
0000
0000
0000
,
0000
0000
0000
0000
,
1001
1000
0000
0001
,
0000
1000
0000
0100
,
0000
0010
0000
0001
,
0000
1000
0000
0001
,
0000
0010
0000
0001
,
0000
1000
0000
0100
,
0000
0010
0000
0100
,
0000
1000
0000
0001
,
0000
0100
0000
0010
,
0000
1000
0000
0001
,
0000
0010
0000
0100
,
0000
1000
0000
0010
,
0000
0100
0000
0001
,
0000
1000
0000
0100
,
0000
1000
0000
0001
,
0000
0100
0000
0001
,
0000
1000
0000
0100
,
0000
0010
0000
0001
,
0000
1000
0000
0010
,
0000
0100
0000
0001
,
0001
0000
0000
0000
;
