#TITLE:100 Times;
#SUBTITLE:;
#ARTIST:Jax Jones;
#TITLETRANSLIT:;
#SUBTITLETRANSLIT:;
#ARTISTTRANSLIT:;
#GENRE:House;
#CREDIT:;
#BANNER:100 Times-bn.png;
#BACKGROUND:100 Times-bg.png;
#LYRICSPATH:;
#CDTITLE:cdtitle.png;
#MUSIC:100 Times.ogg;
#OFFSET:-0.004000;
#SAMPLESTART:54.472000;
#SAMPLELENGTH:16.322001;
#SELECTABLE:YES;
#BPMS:0.000000=122.000000
;
#STOPS:
;
#BGCHANGES:
;
#KEYSOUNDS:;
#ATTACKS:;

//---------------dance-single - ----------------
#NOTES:
     dance-single:
     X-Scale 13:
     Hard:
     9:
     0.520740,0.616916,0.049148,0.212977,0.524251,445.000000,439.000000,6.000000,26.000000,0.000000,0.000000,0.520740,0.616916,0.049148,0.212977,0.524251,445.000000,439.000000,6.000000,26.000000,0.000000,0.000000:
// measure 0
0000
0000
0000
0000
,  // measure 1
0000
0000
0000
0000
,  // measure 2
0000
0000
0000
0000
,  // measure 3
0000
0000
0000
0000
,  // measure 4
1020
0100
0001
0100
,  // measure 5
2030
0000
0000
0000
,  // measure 6
3200
0000
0000
0000
,  // measure 7
0000
0000
0320
0000
,  // measure 8
0032
0000
0000
0000
,  // measure 9
0203
0000
0000
0000
,  // measure 10
0320
0000
0000
0000
,  // measure 11
2030
0000
0000
0000
0000
0000
0000
0000
0000
0000
0000
0000
3001
1000
0001
0020
,  // measure 12
0000
0030
0100
0000
0020
0000
0000
0000
0030
0000
0000
0000
0001
0010
0100
2000
,  // measure 13
0000
3000
0001
0000
0100
0000
0010
0200
0000
0300
0001
0000
0010
0000
1000
0000
,  // measure 14
0001
0000
0100
0000
2000
0000
0000
0000
3000
0000
0000
0000
0100
1000
0001
0200
,  // measure 15
0000
0300
0010
0000
1000
0000
0100
0020
0000
0030
0001
0000
0100
0000
0010
0100
,  // measure 16
0001
0000
0010
0000
0200
0000
0000
0000
0300
0000
0000
0000
1000
0001
1000
0200
,  // measure 17
0000
0300
0100
0000
1000
0000
0010
2000
0000
3000
0100
0000
0010
0000
0100
0000
,  // measure 18
1000
0000
0001
0000
2000
0000
0000
0000
3000
0000
0000
0000
0010
1000
0001
0020
,  // measure 19
0000
0030
0100
0000
0010
0000
0001
2000
0000
3000
0010
0000
1000
0000
0001
1000
,  // measure 20
0001
0000
0100
0000
0001
0000
0000
0010
0000
0000
0001
0000
1000
0000
0000
0010
,  // measure 21
0000
0000
0100
0000
0100
0000
0000
0001
0000
0000
1000
0000
0100
0000
0000
1000
,  // measure 22
0000
0000
0001
0000
0001
0000
0000
0100
0000
0000
0010
0000
0100
0000
0000
0001
,  // measure 23
0000
0000
0010
0000
0010
0000
0000
0100
0000
0000
1000
0000
0001
0000
0000
1000
,  // measure 24
0100
0000
0000
0000
0000
0000
1000
0000
0000
0000
0000
0000
0001
0000
0000
0000
0000
0000
0000
0000
0000
0010
0000
0000
0000
0000
0000
0000
0000
0000
0100
0000
0000
0000
0000
0000
1000
0000
0000
0000
0100
0000
1000
0000
0000
0000
0000
0000
,  // measure 25
0001
0000
0100
0001
0000
0000
1000
0000
0100
1000
0000
0000
0001
0000
0100
0001
0000
0000
0100
0000
0010
0100
0000
0000
,  // measure 26
0001
0000
0010
0100
0000
0000
1000
0000
0010
0100
0000
0000
0001
0000
0010
0100
0000
0000
1000
0000
0010
0100
0000
0000
,  // measure 27
0001
0000
0100
0000
0010
0000
0000
1000
0200
0000
0300
1000
0100
1000
0002
0003
,  // measure 28
1001
0000
1000
0000
0001
0000
0000
0010
0100
0000
0010
0000
0001
0100
0010
0100
,  // measure 29
0001
0000
0010
0000
0100
0000
1000
0100
1000
0000
0001
0000
0100
0000
0000
0010
,  // measure 30
0100
0000
0001
0000
0001
0000
0000
1000
0010
0000
1000
0000
0001
0010
0100
0010
,  // measure 31
0001
0000
1000
0000
1000
0000
0100
0010
0100
0000
1000
0000
0010
0000
0001
0000
,  // measure 32
1000
0000
0100
0000
0001
0000
0000
0100
0001
0000
1000
0000
0010
0100
0001
0100
,  // measure 33
0010
0000
1000
0000
0100
0000
1000
0001
0010
0000
0100
0000
0010
0000
0000
0001
,  // measure 34
1000
0000
0100
0000
0100
0000
0000
0010
0001
0000
1000
0000
0010
1000
0001
1000
,  // measure 35
0010
0000
0100
0000
0100
0000
0001
0010
0100
0000
1000
0000
0001
0000
1000
0001
,  // measure 36
1000
0000
0100
0000
0010
0000
0100
0000
1000
0000
0001
0000
0100
0001
0010
0100
,  // measure 37
1000
0000
0001
0000
1000
0000
0001
0100
0010
0100
0001
0000
0010
0000
0100
0010
,  // measure 38
0001
0000
0100
0000
0010
0000
0000
1000
0001
0000
0001
0000
0100
0001
1000
0001
,  // measure 39
0010
0000
0100
0000
1000
0000
0010
1000
0001
1000
0010
0000
0100
0000
0010
0100
,  // measure 40
0001
0000
0010
0000
0100
0000
0000
1000
0100
0000
1000
0000
0001
0100
0010
0100
,  // measure 41
1000
0000
0100
0000
0010
0000
0000
1000
0001
1000
0100
0000
0010
0000
0001
1000
,  // measure 42
0010
0000
0100
0000
0010
0000
0000
1000
0100
0000
1000
0000
0001
0010
0100
1000
,  // measure 43
0001
0000
0100
0000
0001
0000
0000
0010
0100
0010
0001
0000
1000
0000
0001
0000
,  // measure 44
1001
0000
0000
0000
0000
0000
1000
0000
0000
0000
0000
0000
1000
0000
0000
0000
0000
0000
0000
0000
0000
0001
0000
0000
0100
0000
0000
0000
0001
0000
0000
0000
1000
0000
0000
0000
0100
0000
0000
0000
0010
0000
0000
0000
0001
0000
0000
0000
,  // measure 45
1000
0000
0000
0000
0000
0000
0010
0000
0000
0000
0000
0000
0010
0000
0000
0000
0000
0000
0000
0000
0000
0100
0000
0000
0010
0000
0000
0000
0100
0000
0000
0000
1000
0000
0000
0000
0100
0000
0000
0000
0001
0000
0000
0000
0010
0000
0000
0000
,  // measure 46
0100
1000
0100
0010
0100
1000
0100
1000
,  // measure 47
0002
0000
0003
0000
1000
0000
0100
0000
0010
0000
0000
0010
0000
0000
0001
0000
,  // measure 48
0011
0000
0000
0000
0000
0000
1000
0000
0000
0000
0000
0000
1000
0000
0000
0000
0000
0000
0000
0000
0000
0001
0000
0000
0100
0000
0000
0000
0010
0000
0000
0000
0100
0000
0000
0000
1000
0000
0000
0000
0100
0000
0000
0000
0001
0000
0000
0000
,  // measure 49
0010
0000
0000
0000
0000
0000
0100
0000
0000
0000
0000
0000
0100
0000
0000
0000
0000
0000
0000
0000
0000
1000
0000
0000
0010
0000
0000
0000
1000
0000
0000
0000
0100
0000
0000
0000
0010
0000
0000
0000
0100
0000
0000
0000
1000
0000
0000
0000
,  // measure 50
0001
0100
0100
0010
1000
0001
0100
0001
,  // measure 51
1000
0000
0010
0000
1000
0000
0000
0001
0000
0000
0010
0000
0001
0000
0010
0000
,  // measure 52
0011
0000
0000
0000
0000
0000
0010
0000
0000
0000
0000
0000
0001
0000
0000
0000
0000
0000
0000
0000
0000
1000
0000
0000
0010
0000
0000
0000
0100
0000
0000
0000
0001
0000
0000
0000
0010
0000
0000
0000
1000
0000
0000
0000
0010
0000
0000
0000
,  // measure 53
0001
0000
0000
0000
0000
0000
1000
0000
0000
0000
0000
0000
1000
0000
0000
0000
0000
0000
0000
0000
0000
0010
0000
0000
0100
0000
0000
0000
0010
0000
0000
0000
0001
0000
0000
0000
0010
0000
0000
0000
1000
0000
0000
0000
0001
0000
0000
0000
,  // measure 54
0100
0010
1000
0100
0001
0100
1000
0001
,  // measure 55
0200
0000
0300
0000
0010
0000
0100
0000
0010
0000
0000
0010
0000
0000
1000
0000
,  // measure 56
0101
0000
0000
0000
0000
0000
0100
0000
0000
0000
0000
0000
0010
0000
0000
0100
0000
0000
0000
0000
0000
0010
0000
0000
0100
0000
0000
0000
0001
0000
0000
0000
0010
0000
0000
0000
0100
0000
0000
0000
1000
0000
0000
0000
0001
0000
0000
0000
,  // measure 57
1000
0000
0000
0000
0000
0000
0010
0000
0000
0000
0000
0000
1000
0000
0000
0100
0000
0000
0000
0000
0000
0100
0000
0000
0010
0000
0000
0000
0100
0000
0000
0000
1000
0000
0000
0000
0001
0000
0000
0000
0100
0000
0000
0000
0010
0000
0000
0000
,  // measure 58
1000
0000
0001
0000
0100
0001
0000
0001
1000
0000
0100
0000
0010
0100
0000
0100
,  // measure 59
1000
0000
0001
0000
1000
0000
0000
0010
0000
0000
0100
0000
0001
0000
0010
0000
,  // measure 60
0200
0300
0000
0000
;

//---------------dance-single - ----------------
#NOTES:
     dance-single:
     X-Scale 9:
     Medium:
     6:
     0.404890,0.442336,0.024574,0.360422,0.188403,346.000000,343.000000,3.000000,44.000000,0.000000,0.000000,0.404890,0.442336,0.024574,0.360422,0.188403,346.000000,343.000000,3.000000,44.000000,0.000000,0.000000:
0000
0000
0000
0000
,
0000
0000
0000
0000
,
0000
0000
0000
0000
,
0000
0000
0000
0000
,
2100
0000
0000
0000
,
3002
0000
0000
0000
,
0023
0000
0000
0000
,
0000
0000
0230
0000
,
0320
0000
0000
0000
,
0032
0000
0000
0000
,
0203
0000
0000
0000
,
0320
0000
0000
0000
2000
0000
0000
0030
,
3010
0000
1000
0000
0010
0000
1000
0100
,
0010
0000
0100
0000
0010
0000
0001
1000
0000
0000
0010
0000
1000
0000
0100
0000
,
0001
0100
1000
0000
0001
0000
1000
0000
,
0100
0000
1000
0000
0001
0000
1000
0001
0000
0000
0010
0000
0100
0000
1000
0000
,
0001
1000
0200
0000
0300
0000
0010
0100
,
1000
0000
0001
0000
1000
0000
0010
1000
0000
0000
0001
0000
0010
0000
1000
0000
,
0010
0100
1000
0000
0001
0000
1000
0100
,
0001
0000
0100
0000
0010
0000
0001
0010
0000
0000
0001
0000
1000
0000
0100
1000
,
0100
1000
0001
1000
0100
1000
0200
0000
,
0310
0001
1000
0001
0010
0001
0200
0000
,
0310
0100
1000
0100
0001
0100
0020
0000
,
1030
0000
0001
0000
0010
0000
0100
0000
0010
0000
0000
0010
0000
0000
0001
0000
,
1000
0100
0001
0100
1000
0001
0200
0000
,
0310
0100
1000
0100
0001
0010
0200
0000
,
1300
0100
0001
0100
1000
0001
0020
0000
,
0130
0000
0010
0000
0001
0000
0100
0000
0002
0000
0000
0000
0000
0000
0000
0003
,
1001
0000
1000
0000
1000
0000
0000
0001
0000
0000
0100
0000
0010
0000
0000
1000
,
0100
0000
0010
0000
0010
0000
0100
0010
0000
0000
0001
0000
0001
0000
0010
0000
,
1000
0000
0010
0000
0001
0000
0000
0001
0000
0000
1000
0000
0100
0000
0000
1000
,
0010
0000
0100
0000
0100
0000
0000
1000
0000
0000
0100
0000
0010
0000
0000
0100
,
0010
0000
1000
0000
1000
0000
0000
0100
0000
0000
0010
0000
0001
0000
0000
0100
,
0010
0000
1000
0000
1000
0000
0000
0100
0000
0000
0001
0000
0100
0000
0000
0100
,
1000
0000
0001
0000
0001
0000
0000
0100
0000
0000
0010
0000
1000
0000
0000
0001
,
1000
0000
0100
0000
0100
0000
0000
0010
0000
0000
0001
0000
1000
0000
0100
0000
,
0001
0000
0100
0000
2000
0000
0000
0010
3000
0000
0010
0000
0100
0010
0100
0001
,
0000
0000
0010
0000
0100
0000
1000
0100
0000
0000
1000
0000
0001
0000
0010
0000
,
1000
0000
0010
0000
0002
0000
0000
0100
0003
0000
0100
0000
0010
0100
0010
1000
,
0000
0000
0100
0000
0010
0000
0001
1000
0000
0000
0100
0000
1000
0000
0010
0000
,
0001
0000
0010
0000
2000
0000
0000
0001
3000
0000
0001
0000
1000
0100
1000
0001
,
0000
0000
1000
0000
0001
0000
0100
0001
0000
0000
0010
0000
0100
0000
1000
0000
,
0001
0000
0100
0000
0002
0000
0000
1000
0003
0000
1000
0000
0001
0010
0001
1000
,
0000
0000
0010
0000
1000
0000
0100
0010
0000
0000
0100
0000
1000
0000
0001
0000
,
1001
1000
1000
0000
0010
0100
0010
0000
,
1000
0100
1000
0000
0001
0100
0001
0000
,
0010
0100
0010
0001
1000
0001
0010
0001
,
2000
0000
0000
0000
3100
0000
0010
0000
0002
0003
0000
0002
0003
0000
0200
0300
,
0010
0100
0010
0000
1000
0001
1000
0000
,
0010
1000
0010
0000
0100
0010
0100
0000
,
0001
0010
0100
1000
0001
1000
0100
1000
,
0010
0000
0000
0100
0000
0000
0001
0000
1000
0000
0000
0100
0000
0000
0010
0000
,
0001
0000
1000
0000
0001
0000
0000
0000
0020
0000
0030
0200
0000
0300
0020
0000
,
0230
0000
1300
0000
1000
0000
0000
0000
0002
0000
0003
0200
0000
0300
0002
0000
,
0203
0310
0010
0001
0010
1000
0010
0100
,
0002
0000
0000
0000
1003
0000
0001
0000
0200
0300
0000
0200
0300
0000
0010
0000
,
1000
0000
0100
0000
1000
0000
0000
0000
0002
0000
0003
0020
0000
0030
0002
0000
,
0023
0000
0130
0000
0100
0000
0000
0000
2000
0000
3000
0200
0000
0300
2000
0000
,
3200
0310
0010
0100
1000
0001
1000
0010
,
0100
0000
0000
0001
0000
0000
1000
0000
0001
0000
0000
0010
0000
0000
0100
0000
,
1000
0000
0000
0000
;

//---------------dance-single - ----------------
#NOTES:
     dance-single:
     X-Scale 5:
     Easy:
     3:
     0.283189,0.344039,0.032766,0.163828,0.000000,242.000000,238.000000,4.000000,20.000000,0.000000,0.000000,0.283189,0.344039,0.032766,0.163828,0.000000,242.000000,238.000000,4.000000,20.000000,0.000000,0.000000:
0000
0000
0000
0000
,
0000
0000
0000
0000
,
0000
0000
0000
0000
,
0000
0000
0000
0000
,
0001
0000
0000
0000
,
0010
0000
0000
0000
,
0100
0000
0000
0000
,
0000
0000
0010
0000
,
0001
0000
0000
0000
,
1000
0000
0000
0000
,
0010
0000
0000
0000
,
0100
0000
0000
0000
,
0001
1000
0001
1000
,
0001
0000
0010
0000
,
0100
0010
0100
0000
,
0010
0000
0001
0000
,
1000
0001
1000
0000
,
0010
0000
0100
0000
,
0010
1000
0010
0000
,
0100
0000
0001
0000
,
1000
0100
0010
0000
0100
0010
0002
0000
,
1003
0001
0100
0000
0010
1000
0200
0000
,
0310
0100
1000
0000
0001
0100
0020
0000
,
1030
0010
0100
0000
0001
0000
0000
0000
,
1000
0001
0100
0000
0010
0100
0002
0000
,
1003
0100
0010
0000
0001
1000
0020
0000
,
0130
0010
1000
0000
0100
0010
0002
0000
,
1003
0001
0100
0000
0010
0000
0000
0000
,
0110
0100
0010
0000
1000
0000
0001
0000
,
1000
0100
1000
0000
0001
0000
0010
0000
,
0100
0010
0100
0000
1000
0000
0001
0000
,
1000
0010
1000
0000
0010
0000
0100
0000
,
0001
0100
0001
0000
0010
0000
0100
0000
,
1000
0100
1000
0000
0001
0000
0100
0000
,
0010
0100
0010
0000
1000
0000
0001
0000
,
1000
0100
1000
0000
0010
0000
0100
0001
,
1000
0001
0020
0000
0130
0000
0010
0000
,
0001
0010
0001
0000
0001
0000
1000
0100
,
0010
0100
2000
0000
3001
0000
0100
0000
,
0010
0100
0010
0000
1000
0000
0001
0100
,
0010
0100
0002
0000
1003
0000
0001
0000
,
0010
0100
0010
0000
0001
0000
0100
0001
,
0010
0001
0200
0000
0310
0000
0100
0000
,
0001
1000
0001
0000
0010
0000
0100
1000
,
1100
1000
0001
1000
,
0001
0010
0100
0000
0010
0000
0100
0000
,
0010
0000
0001
1000
0100
0010
0001
1000
,
0001
0000
1000
0100
0010
0000
0001
0000
,
1000
0001
1000
0000
0010
0000
0100
0000
,
0010
1000
0010
0000
0100
0000
0001
0000
,
0100
0000
0001
0100
0010
1000
0001
0100
,
0010
1000
0000
1000
,
1001
0000
0001
0000
0020
0000
0000
0130
,
0020
0030
0011
0000
0002
0000
0000
1003
,
0002
0003
0010
0001
1000
0100
0010
0001
,
2000
0000
3010
1000
0001
0000
0010
0000
,
0100
0000
1000
0000
0020
0000
0000
0130
,
0020
0030
1000
0000
0002
0000
0000
0013
,
0002
0003
1000
0001
0100
0010
1000
0001
,
0100
0010
0100
0020
,
0030
0000
0000
0000
;

//---------------dance-single - ----------------
#NOTES:
     dance-single:
     X-Scale 1:
     Beginner:
     1:
     0.108829,0.147445,0.008191,0.000000,0.000000,93.000000,92.000000,1.000000,0.000000,0.000000,0.000000,0.108829,0.147445,0.008191,0.000000,0.000000,93.000000,92.000000,1.000000,0.000000,0.000000,0.000000:
0000
0000
0000
0000
,
0000
0000
0000
0000
,
0000
0000
0000
0000
,
0000
0000
0000
0000
,
1000
0000
0000
0000
,
0000
0000
0000
0000
,
0000
0000
0000
0000
,
0000
0000
0000
0000
,
0001
0000
0000
0000
,
0000
0000
0000
0000
,
0000
0000
0000
0000
,
0000
0000
0000
0000
,
1000
0000
0000
0000
,
0100
0000
0000
0000
,
0010
0000
0000
0000
,
0001
0000
1000
0000
,
0001
0000
0000
0000
,
0100
0000
0000
0000
,
0010
0000
0000
0000
,
1000
0000
0000
0000
,
0001
0000
0010
0000
,
0001
0000
0010
0000
,
0100
0000
1000
0000
,
0100
0000
1000
0000
,
0001
0000
0100
0000
,
0001
0000
0100
0000
,
0010
0000
1000
0000
,
0010
0000
1000
0000
,
1001
0000
1000
0000
,
0001
0000
1000
0000
,
0001
0000
0010
0000
,
0100
0000
0010
0000
,
0100
0000
1000
0000
,
0100
0000
1000
0000
,
0100
0000
0010
0000
,
0100
0000
0010
0000
,
0001
0000
0100
0000
,
0001
0000
0100
0000
,
0010
0000
0100
0000
,
0010
0000
0100
0000
,
0001
0000
1000
0000
,
0001
0000
1000
0000
,
0100
0000
0010
0000
,
0100
0000
0010
0000
,
0001
0000
1000
0000
,
0001
0000
1000
0000
,
0010
0000
0100
0000
,
0010
0000
0100
0000
,
0001
0000
1000
0000
,
0001
0000
1000
0000
,
0100
0000
0010
0000
,
0100
0000
0010
0000
,
0001
0000
1000
0000
,
0001
0000
1000
0000
,
0010
0000
0100
0000
,
0010
0000
0100
0000
,
0001
0000
0010
0000
,
0001
0000
0010
0000
,
0100
0000
0010
0000
,
0100
0000
0010
0000
,
0001
0000
0000
0000
;
