#TITLE:+5 STAR+;
#SUBTITLE:;
#ARTIST:CL;
#TITLETRANSLIT:5 STAR;
#SUBTITLETRANSLIT:;
#ARTISTTRANSLIT:;
#GENRE:R&B;
#CREDIT:;
#BANNER:+5 STAR+-bn.png;
#BACKGROUND:+5 STAR+-bg.png;
#LYRICSPATH:;
#CDTITLE:cdtitle.png;
#MUSIC:+5 STAR+.ogg;
#OFFSET:-0.004000;
#SAMPLESTART:41.189999;
#SAMPLELENGTH:15.763000;
#SELECTABLE:YES;
#BPMS:0.000000=118.000000
;
#STOPS:
;
#BGCHANGES:0.000=+5 STAR+.avi=1.000=1=0=0=StretchNoLoop==CrossFade==,
99999=-nosongbg-=1.000=0=0=0 // don't automatically add -songbackground-
;
#KEYSOUNDS:;
#ATTACKS:;

//---------------dance-single - ----------------
#NOTES:
     dance-single:
     X-Scale 11:
     Hard:
     8:
     0.445748,0.539278,0.297595,0.514028,0.189379,346.000000,313.000000,33.000000,57.000000,0.000000,0.000000,0.445748,0.539278,0.297595,0.514028,0.189379,346.000000,313.000000,33.000000,57.000000,0.000000,0.000000:
// measure 0
0000
0000
0000
0000
,  // measure 1
0000
0000
0000
0000
,  // measure 2
0000
0000
0000
0000
,  // measure 3
0000
0000
0000
0000
,  // measure 4
2000
0000
0000
3000
0001
0010
0200
1000
,  // measure 5
1300
0000
1000
0000
0001
0100
0000
0000
0010
0000
0100
0000
0001
0000
0010
0000
,  // measure 6
0200
0000
0000
0000
0300
0000
1000
0100
1000
0000
0001
0000
0020
0000
0001
0000
,  // measure 7
0031
0001
1000
0010
2000
0000
3100
0010
,  // measure 8
0002
0000
0000
0000
0023
0000
0030
0000
0001
0000
1000
0000
0010
0000
0100
0010
,  // measure 9
0100
0100
0001
0010
0200
0000
0301
0100
,  // measure 10
2000
0000
3001
0100
0001
1000
0200
0000
,  // measure 11
0010
0300
0100
1000
0000
0001
0100
0001
,  // measure 12
2001
3000
0002
0003
0101
0000
1000
1000
,  // measure 13
0100
0000
0000
0001
0000
0000
0100
0000
0000
0010
0000
0000
0001
0000
0000
0100
0000
0000
0001
0000
1000
0000
0001
0000
,  // measure 14
2000
0000
3000
0000
0002
0000
1003
0001
1000
0000
0000
0000
0001
0000
0100
0000
,  // measure 15
0010
0000
0000
0100
0000
0000
0001
0000
1000
0000
0010
0000
0100
0000
0000
0000
0000
0000
0010
0000
0000
1000
0000
0000
,  // measure 16
1010
0000
1000
0001
1000
0000
0100
0000
0010
0000
0000
0000
0001
0100
0001
0000
,  // measure 17
0010
0000
0000
0000
0000
0000
0100
0000
0000
0010
0000
0000
0100
0000
0000
0000
0000
0000
1000
0000
0000
0000
0000
0000
1100
0000
0000
0000
0000
0000
0001
0000
0000
0000
0000
0000
0100
0000
0000
0000
0001
0000
0000
0000
0100
0000
0000
0000
,  // measure 18
0102
0003
2000
3000
1010
0000
1000
0100
,  // measure 19
1100
0000
0000
1000
0000
0000
1001
0000
0000
0001
0000
0000
0101
0000
0000
0100
0000
0000
0100
0000
0001
0000
1000
0000
,  // measure 20
0001
0020
0032
2003
,  // measure 21
3100
1000
0000
0000
1100
0000
0000
0000
1010
0000
0000
0000
0001
0000
0100
0000
,  // measure 22
0101
0000
0000
0000
1000
0000
0010
0000
1010
0000
0000
0000
1000
0001
0000
0000
,  // measure 23
0100
0010
0000
0000
1000
0000
0100
0000
0010
0100
1000
0000
0001
0000
1000
0000
,  // measure 24
1001
0001
0200
0000
1300
0100
0010
0100
,  // measure 25
0002
0000
0013
0000
1001
0001
0000
0100
,  // measure 26
0101
0001
2000
0000
3010
1000
0001
0010
,  // measure 27
0110
0000
1001
0000
1100
1000
0001
0100
,  // measure 28
0000
0001
1000
0010
1000
0000
0100
0000
2000
0000
0000
0000
3002
0000
0000
0000
,  // measure 29
0003
0000
1000
0010
0200
0000
0320
0000
,  // measure 30
1030
0000
0001
0010
0001
0000
0100
0000
0002
0000
0000
0000
2003
0000
0000
0000
,  // measure 31
3000
0000
0000
0000
0001
0010
0001
0000
0200
0000
0000
0000
0320
0000
0000
0000
,  // measure 32
1030
0000
0000
0100
0000
0001
0000
0010
0000
0200
0000
0000
0300
0002
0000
0000
,  // measure 33
0003
0020
0000
0000
0030
0000
0000
0000
0100
0000
1000
0000
0100
0000
0001
0000
,  // measure 34
0100
0010
0001
1000
0002
0000
0203
0000
,  // measure 35
0302
0000
1003
0100
0000
0000
1001
0000
,  // measure 36
0110
0200
0320
2030
,  // measure 37
3001
0100
0000
0000
0001
0000
0000
0000
1001
0000
1000
0000
0001
0000
0100
0000
,  // measure 38
0101
0100
0001
0010
0100
1000
1100
0100
,  // measure 39
1000
0000
0000
1000
0000
0000
0001
0000
1000
0000
0010
0000
0100
0000
0000
0001
0000
0000
2000
0000
0000
0000
0000
0000
,  // measure 40
3100
0010
0002
0000
0013
0100
1000
0001
,  // measure 41
0200
0000
0000
0310
0000
0000
0101
0000
0000
1000
0001
0100
,  // measure 42
0001
0000
0010
0000
1000
0000
0010
0000
0001
0000
0100
0000
0010
0100
0001
0000
,  // measure 43
0101
0000
1000
0001
1000
0000
0001
0000
0010
0100
0010
0000
0100
0000
1000
0000
,  // measure 44
1001
0002
2003
3200
,  // measure 45
1300
0100
0000
0000
0110
0000
0000
0000
0001
0000
0101
0000
0100
0000
0000
0000
,  // measure 46
0110
0000
0000
0000
0020
0000
0000
0000
2030
0000
0000
0000
3001
0010
0000
0000
,  // measure 47
0100
1000
0000
0000
0200
0000
0000
0000
0320
0000
0000
0000
0032
0000
0000
0000
,  // measure 48
1003
0010
1000
0000
0001
0010
0100
0010
,  // measure 49
0002
0000
0003
0200
0000
0300
2000
0000
3000
0020
0000
0030
0002
0000
0000
0000
,  // measure 50
1003
0100
1000
0000
0001
0100
0001
1000
,  // measure 51
1001
0000
1100
0000
1010
1000
0002
0200
,  // measure 52
0303
0000
0000
0000
;

//---------------dance-single - ----------------
#NOTES:
     dance-single:
     X-Scale 8:
     Medium:
     6:
     0.368451,0.444420,0.297595,0.306613,0.063126,286.000000,253.000000,33.000000,34.000000,0.000000,0.000000,0.368451,0.444420,0.297595,0.306613,0.063126,286.000000,253.000000,33.000000,34.000000,0.000000,0.000000:
0000
0000
0000
0000
,
0000
0000
0000
0000
,
0000
0000
0000
0000
,
0000
0000
0000
0000
,
0020
0000
0030
0000
1000
0100
2000
0000
,
3000
0000
0001
0010
1000
0100
1000
0010
,
0002
0000
0000
0000
0003
0000
1000
0001
1000
0000
0010
0000
0200
0000
0000
0000
,
0300
0000
0001
0010
0200
0000
0301
0100
,
2000
0000
3002
0003
0010
0001
0200
0000
,
0300
0000
0010
0100
0002
0000
1003
1000
,
0200
0000
0000
0000
0320
0000
0031
0010
0001
0000
1000
0000
0020
0000
0000
0000
,
0100
0000
0030
0000
0010
1000
0001
0100
,
0101
0000
1000
0000
1001
0000
0001
0010
,
1000
0100
0001
1000
0100
0000
0010
0100
,
1100
0000
1000
0000
1001
0000
0001
1000
,
0100
0001
0010
1000
0001
0000
0010
0100
,
1000
0000
0100
0010
0100
0000
1000
0000
0001
0000
0000
0000
0100
0001
1000
0000
,
0010
0000
0100
0001
0010
0000
0100
0000
1000
0000
0001
0000
0001
0000
0100
0000
,
0001
0000
0010
0100
1000
0000
0001
1000
,
1010
0000
0110
0000
0011
1000
1000
0000
,
0010
2000
3200
0320
,
0031
0010
0000
0000
0011
0000
0000
0000
1001
0000
0000
0000
1000
0000
0000
0000
,
1100
0000
0000
0000
0200
0000
0000
0000
0320
0000
0000
0000
0130
1000
0000
0000
,
0001
0100
0000
0000
0001
0000
0000
0000
1001
0000
0000
0000
1000
0000
0000
0000
,
1100
0100
0010
0000
0101
0000
0001
1000
,
0100
0000
1000
0000
0001
0100
0001
0000
,
0010
0100
1000
0000
1100
0000
0100
0010
,
0001
0000
1000
0000
0001
0100
0010
0100
,
0001
0000
1000
0010
,
1000
0000
0001
0100
,
0001
0000
1000
0010
,
1000
0000
0001
0100
,
0001
0010
1000
0010
0002
0000
2003
0000
,
3200
0300
0010
0100
,
1000
0000
0001
0100
1000
0000
0001
0010
,
1000
0000
0100
0010
0001
0000
0011
0000
,
1001
2000
3200
0320
,
0031
0010
0000
0000
0100
0000
0000
0000
1010
0000
1000
0000
0001
0000
1000
0000
,
0010
0000
0000
0000
0200
0000
0000
0000
0302
0000
0000
0000
0013
0100
0000
0000
,
0010
0001
0000
0000
1000
0000
0010
0000
0010
0000
1000
0000
0001
0000
0000
0000
,
1001
1000
0100
0000
0110
0000
0010
0001
,
1000
0000
1001
0000
0001
0010
0100
0000
,
1000
0001
0100
0000
0010
0100
0001
0010
,
0110
1001
1100
0101
,
0001
0020
0230
2300
,
3100
0010
0000
0000
0110
0000
0000
0000
1000
0000
1001
0000
0000
0000
0000
0000
,
0011
0000
0000
0000
0002
0000
0000
0000
0023
0000
0000
0000
0130
1000
0000
0000
,
0100
0010
0000
0000
0011
0000
0000
0000
1000
0000
1001
0000
0000
0000
0000
0000
,
1010
1000
0002
0000
0003
0000
0010
0100
,
2000
0000
3100
0000
0000
0110
0000
0000
,
0101
0001
2000
0000
3010
1000
0001
1000
,
0200
0000
0310
0000
0000
0110
0000
0100
;

//---------------dance-single - ----------------
#NOTES:
     dance-single:
     X-Scale 5:
     Easy:
     3:
     0.215144,0.278657,0.027054,0.072144,0.000000,167.000000,164.000000,3.000000,8.000000,0.000000,0.000000,0.215144,0.278657,0.027054,0.072144,0.000000,167.000000,164.000000,3.000000,8.000000,0.000000,0.000000:
0000
0000
0000
0000
,
0000
0000
0000
0000
,
0000
0000
0000
0000
,
0000
0000
0000
0000
,
1000
0000
0000
0000
0001
0000
0000
0010
,
0001
0010
0000
0000
0100
0000
0000
0000
,
1000
0000
0000
0000
0010
0000
0000
1000
,
0001
1000
0000
0000
0100
0000
0000
0000
,
0010
0000
0000
0000
0001
0000
0000
0010
,
0100
0010
0000
0000
0001
0000
0000
0000
,
1000
0000
0010
0000
,
1000
0000
0001
0000
,
1001
0000
1000
0000
0100
0000
0010
0100
,
0010
0000
0001
0000
1000
0010
1000
0000
,
0001
0010
0100
1000
,
0010
1000
0010
0000
0100
0000
0001
0000
,
1000
0000
0001
0000
0100
0000
0010
0100
,
0010
0000
1000
0000
0100
0010
0100
0000
,
1000
0001
0100
0001
,
1000
0000
1000
0000
1000
0100
0010
0000
,
0000
0001
1000
0001
,
1000
0001
1001
1000
,
0010
1000
0001
0010
,
0001
1000
0001
0000
0010
0000
0100
0000
,
1000
0100
2000
0000
3001
0000
0010
0100
,
0020
0031
1000
0010
,
1000
0001
2000
0000
3100
0000
0010
0001
,
0020
0000
0100
0030
0010
0000
0001
0000
,
1000
0000
0000
0000
,
0001
0000
0000
0000
,
1000
0000
0000
0000
,
0001
0000
0000
0000
,
0010
0000
0100
1000
,
0100
0000
0010
0000
,
0001
0000
1000
0001
,
1000
0000
0000
0100
,
0100
1000
0001
1000
,
0001
1000
1001
0001
,
0100
0001
0010
0100
,
1000
0100
1000
0000
0001
0000
1000
0000
,
0010
1000
0002
0000
0013
0000
0100
1000
,
0002
0013
0001
1000
,
0100
0010
0002
0000
1003
0000
0100
1000
,
0002
0000
0010
0003
0001
0010
0100
0000
,
0100
0000
1000
0000
,
0100
0000
1000
0000
,
0001
0000
0100
0000
,
0001
0000
0100
0000
,
0001
0000
1000
0000
,
0001
0000
1000
0000
,
0100
0000
0010
0000
,
0100
0000
0010
0000
;

//---------------dance-single - ----------------
#NOTES:
     dance-single:
     X-Scale 2:
     Beginner:
     1:
     0.104351,0.160972,0.027054,0.000000,0.000000,81.000000,78.000000,3.000000,0.000000,0.000000,0.000000,0.104351,0.160972,0.027054,0.000000,0.000000,81.000000,78.000000,3.000000,0.000000,0.000000,0.000000:
0000
0000
0000
0000
,
0000
0000
0000
0000
,
0000
0000
0000
0000
,
0000
0000
0000
0000
,
0001
0000
0000
0000
,
0010
0000
0000
0000
,
0100
0000
0000
0000
,
1000
0000
0000
0000
,
0010
0000
0000
0000
,
0100
0000
0000
0000
,
0001
0000
0000
0000
,
1000
0000
0000
0000
,
1001
0000
0001
1000
,
0001
0000
0010
0000
,
0100
0000
1000
0100
,
1000
0000
0001
0000
,
1000
0000
0010
0100
,
0010
0000
1000
0000
,
0001
0000
0100
0000
,
0010
1000
0010
0000
,
1000
0000
0000
0000
,
0100
0000
0110
0000
,
0010
0000
0001
0000
,
1000
0000
0001
0000
,
0010
0000
0100
0000
,
1000
0100
1000
0100
,
1000
0000
0001
0000
,
0100
0000
0001
0000
,
1000
0000
0000
0000
,
0100
0000
0000
0000
,
0010
0000
0000
0000
,
0001
0000
0000
0000
,
0100
0000
0000
0000
,
0010
0000
0000
0000
,
1000
0000
0000
0000
,
0001
0000
0000
0000
,
0010
0000
0000
0000
,
0100
0000
0110
0000
,
0010
0000
0001
0000
,
1000
0000
0010
0000
,
1000
0000
0001
0000
,
0010
0100
0010
0100
,
0010
0000
0001
0000
,
1000
0000
0010
0000
,
1000
0000
0000
0000
,
0100
0000
0000
0000
,
0010
0000
0000
0000
,
0001
0000
0000
0000
,
0100
0000
0000
0000
,
0010
0000
0000
0000
,
1000
0000
0000
0000
,
0001
0000
0000
0000
;
