#VERSION:0.80;
#TITLE:Yeah 3x;
#SUBTITLE:Long Version;
#ARTIST:Chris Brown;
#TITLETRANSLIT:;
#SUBTITLETRANSLIT:;
#ARTISTTRANSLIT:;
#GENRE:;
#ORIGIN:;
#CREDIT:hooky;
#BANNER:Yeah 3x.png;
#BACKGROUND:Yeah 3x-bg.png;
#LYRICSPATH:;
#CDTITLE:;
#MUSIC:yeah 3x.mp3;
#OFFSET:-0.016;
#SAMPLESTART:73.860;
#SAMPLELENGTH:16.220;
#SELECTABLE:YES;
#DISPLAYBPM:130.000;
#BPMS:0.000=130.000;
#STOPS:;
#DELAYS:;
#WARPS:;
#TIMESIGNATURES:0.000=4=4;
#TICKCOUNTS:0.000=4;
#COMBOS:0.000=1;
#SPEEDS:0.000=1.000=0.000=0;
#SCROLLS:0.000=1.000;
#FAKES:;
#LABELS:0.000=Song Start;
#BGCHANGES:;
#KEYSOUNDS:;
#ATTACKS:;

//---------------dance-single - ----------------
#NOTEDATA:;
#CHARTNAME:;
#STEPSTYPE:dance-single;
#DESCRIPTION:;
#CHARTSTYLE:;
#DIFFICULTY:Hard;
#METER:9;
#RADARVALUES:0.421,0.432,0.315,0.278,0.004,559.000,75.000,66.000,0.000,0.000,0.000,0.000,0.000,0.421,0.432,0.315,0.278,0.004,559.000,75.000,66.000,0.000,0.000,0.000,0.000,0.000;
#CREDIT:;
#OFFSET:-0.016;
#BPMS:0.000=130.010
;
#STOPS:;
#DELAYS:;
#WARPS:;
#TIMESIGNATURES:0.000=4=4
;
#TICKCOUNTS:0.000=4
;
#COMBOS:0.000=1
;
#SPEEDS:0.000=1.000=0.000=0
;
#SCROLLS:0.000=1.000
;
#FAKES:;
#LABELS:0.000=Song Start
;
#DISPLAYBPM:130.000;
#NOTES:
// measure 0
0000
0000
0000
0000
,  // measure 1
0000
0000
0000
0000
,  // measure 2
0000
0000
0000
0000
,  // measure 3
0000
0000
0000
0000
,  // measure 4
1000
0100
1000
0100
1000
0100
1000
0100
,  // measure 5
0010
0001
0010
0001
0010
0001
0010
0001
,  // measure 6
1000
1000
1000
1000
0001
0001
0001
0001
,  // measure 7
0220
0000
0000
0000
0330
0000
0000
0000
1000
0000
0000
0100
0000
0000
1000
0000
,  // measure 8
2000
0000
0000
3200
0000
0000
0320
0000
,  // measure 9
0000
0000
0000
0031
,  // measure 10
0002
0000
0000
0023
0000
0000
0230
0000
,  // measure 11
0000
0000
0000
0300
,  // measure 12
0020
0000
0000
0230
0000
0000
2300
0000
,  // measure 13
0000
0000
0000
3100
,  // measure 14
0020
0000
0000
0032
0000
0000
0203
0000
,  // measure 15
0010
0010
0310
0110
,  // measure 16
0010
0000
0010
0000
1000
0100
1000
0000
,  // measure 17
0010
0001
0010
0100
0010
0000
1100
0000
,  // measure 18
0010
0100
0010
0001
0010
0000
0101
0000
,  // measure 19
1000
0100
1000
0000
0010
0001
0010
0000
,  // measure 20
1100
0000
0110
0000
0100
0010
0100
0000
,  // measure 21
1000
0001
0010
0001
0100
0000
0110
0000
,  // measure 22
0100
0010
0100
0001
0020
0000
0130
0000
,  // measure 23
2000
0100
0002
3003
,  // measure 24
1000
0100
1000
0000
0100
0000
1000
0000
,  // measure 25
0010
0001
0010
0000
0001
0000
0010
0000
,  // measure 26
0100
0010
0100
0000
0010
0000
0100
0000
,  // measure 27
1000
0100
1000
0000
0001
0010
0001
0000
,  // measure 28
1000
1000
0200
0300
,  // measure 29
0010
0010
0002
0003
,  // measure 30
1000
0100
1000
0100
1000
0000
1000
0000
,  // measure 31
0001
0010
0001
0010
0001
0000
0001
0000
,  // measure 32
2100
0100
3100
1100
,  // measure 33
0012
0010
0013
0011
,  // measure 34
0210
0010
0310
0110
,  // measure 35
1002
1000
1003
1001
,  // measure 36
1000
0100
1000
0000
0010
0001
0010
0000
,  // measure 37
0100
0010
0100
0000
1000
0100
1000
0000
,  // measure 38
0001
0001
0010
0010
,  // measure 39
0220
0000
0000
0330
,  // measure 40
2000
0000
0000
3002
0000
0000
0103
0000
,  // measure 41
0010
0000
0100
0000
0010
0100
0010
0000
,  // measure 42
0200
0000
0000
0320
0000
0000
0130
0000
,  // measure 43
0100
0000
0100
0000
0010
0100
0010
0000
,  // measure 44
0002
0000
0000
2003
0000
0000
3010
0000
,  // measure 45
0100
0000
0010
0000
0100
0010
0100
0000
,  // measure 46
0020
0000
0000
2030
0000
0000
3100
0000
,  // measure 47
0010
0000
0010
0000
0100
0010
0110
0000
,  // measure 48
1000
0000
1100
0000
0010
0001
0010
0000
,  // measure 49
0100
0000
0110
0000
0010
0100
0010
0000
,  // measure 50
1000
0000
1100
0000
0100
1000
0100
0000
,  // measure 51
0100
0000
0011
0000
0010
0001
0100
0000
,  // measure 52
0001
0000
0011
0000
0100
1000
0100
0000
,  // measure 53
0010
0000
0110
0000
0100
0010
0100
0000
,  // measure 54
0001
0000
0011
0000
0010
0001
0010
0000
,  // measure 55
0010
0000
1100
0000
0100
1000
0010
0000
,  // measure 56
0100
0000
0100
0000
0001
0010
0001
0000
,  // measure 57
0100
1000
0100
0010
0100
0000
0011
0000
,  // measure 58
0100
0010
0100
1000
0100
0000
1010
0000
,  // measure 59
0001
0010
0001
0000
0100
1000
0100
0000
,  // measure 60
0011
0000
0110
0000
0010
0100
0010
0000
,  // measure 61
0001
1000
0100
1000
0010
0000
0110
0000
,  // measure 62
0010
0100
0010
1000
0100
1000
0100
0000
,  // measure 63
0002
0010
2000
3003
,  // measure 64
0001
0010
0001
0000
0010
0000
0001
0000
,  // measure 65
0100
1000
0100
0000
1000
0000
0100
0000
,  // measure 66
0010
0100
0010
0000
0100
0000
0010
0000
,  // measure 67
0001
0010
0001
0000
1000
0100
1000
0000
,  // measure 68
0001
0001
0020
0030
,  // measure 69
0100
0100
2000
3000
,  // measure 70
0001
0010
0001
0010
0001
0000
0001
0000
,  // measure 71
1000
0100
1000
0100
1000
0000
1000
0000
,  // measure 72
0120
0100
0130
0110
,  // measure 73
2000
0001
3001
1001
,  // measure 74
1200
1000
1300
1100
,  // measure 75
0021
0001
0031
0011
,  // measure 76
0001
0010
0001
0000
0100
1000
0100
0000
,  // measure 77
0010
0100
0010
0000
0001
0010
0001
0000
,  // measure 78
1000
1000
0100
0100
,  // measure 79
0220
0000
0000
0330
,  // measure 80
0002
0000
0000
2003
0000
0000
3010
0000
,  // measure 81
0100
0000
0010
0000
0100
0010
0100
0000
,  // measure 82
0020
0000
0000
0230
0000
0000
0310
0000
,  // measure 83
0010
0000
0010
0000
0100
0010
0100
0000
,  // measure 84
2000
0000
0000
3002
0000
0000
0103
0000
,  // measure 85
0010
0000
0100
0000
0010
0100
0010
0000
,  // measure 86
0200
0000
0000
0302
0000
0000
0013
0000
,  // measure 87
0100
0000
0100
0000
0010
0100
0110
0000
,  // measure 88
0001
0000
0011
0000
0100
1000
0100
0000
,  // measure 89
0010
0000
0110
0000
0100
0010
0100
0000
,  // measure 90
0001
0000
0011
0000
0010
0001
0010
0000
,  // measure 91
0010
0000
1100
0000
0100
1000
0010
0000
,  // measure 92
1000
0000
1100
0000
0010
0001
0010
0000
,  // measure 93
0100
0000
0110
0000
0010
0100
0010
0000
,  // measure 94
1000
0000
1100
0000
0100
1000
0100
0000
,  // measure 95
0100
0000
0011
0000
0010
0001
0100
0000
,  // measure 96
1000
0100
1000
0000
0010
0001
0010
0000
,  // measure 97
0100
0010
0100
0010
0110
0000
1000
0000
,  // measure 98
0010
0001
0010
0001
1000
0100
1000
0000
,  // measure 99
0010
0100
0010
0110
0110
0000
0100
0000
,  // measure 100
1000
0100
1000
0100
1000
0000
1000
0000
,  // measure 101
0010
0001
0010
0001
0010
0000
0010
0000
,  // measure 102
0100
0100
0010
0010
,  // measure 103
0110
1001
0110
1001
,  // measure 104
0200
0000
0000
0320
0000
0000
2030
0000
,  // measure 105
0000
0000
0000
3001
,  // measure 106
0002
0000
0000
0203
0000
0000
0320
0000
,  // measure 107
0000
0000
0000
0030
,  // measure 108
0200
0000
0000
0320
0000
0000
2030
0000
,  // measure 109
0000
0000
0000
3100
,  // measure 110
0020
0000
0000
0032
0000
0000
1003
0000
,  // measure 111
0100
0010
0100
0010
0100
0010
0110
0000
,  // measure 112
1000
1100
1000
1100
,  // measure 113
0001
0011
0001
0011
,  // measure 114
0100
0110
0100
0110
,  // measure 115
2000
0000
0002
3003
,  // measure 116
0100
0110
0001
0101
,  // measure 117
1000
1010
0001
1001
,  // measure 118
0100
1100
0010
0110
,  // measure 119
1000
0001
1000
0001
1000
0001
1001
0000
,  // measure 120
1000
0000
1100
0000
0010
0001
0010
0000
,  // measure 121
0100
0000
0110
0000
0010
0100
0010
0000
,  // measure 122
0001
0000
0011
0000
1000
0100
1000
0000
,  // measure 123
0100
0000
0110
0000
0010
0100
0010
0000
,  // measure 124
1000
0000
1010
0000
0010
0100
0010
0000
,  // measure 125
0001
0000
0101
0000
0010
1000
0100
0000
,  // measure 126
1000
0000
0011
0000
0100
0010
0100
0000
,  // measure 127
0020
0000
0000
0000
0000
0000
0000
0000
0100
0000
0000
0100
0000
0000
0200
0000
,  // measure 128
0000
0000
0330
0000
;

//---------------dance-single - ----------------
#NOTEDATA:;
#CHARTNAME:;
#STEPSTYPE:dance-single;
#DESCRIPTION:;
#CHARTSTYLE:;
#DIFFICULTY:Medium;
#METER:8;
#RADARVALUES:0.317,0.378,0.130,0.088,0.002,476.000,31.000,21.000,0.000,0.000,0.000,0.000,0.000,0.317,0.378,0.130,0.088,0.002,476.000,31.000,21.000,0.000,0.000,0.000,0.000,0.000;
#CREDIT:;
#OFFSET:-0.016;
#BPMS:0.000=130.010
;
#STOPS:;
#DELAYS:;
#WARPS:;
#TIMESIGNATURES:0.000=4=4
;
#TICKCOUNTS:0.000=4
;
#COMBOS:0.000=1
;
#SPEEDS:0.000=1.000=0.000=0
;
#SCROLLS:0.000=1.000
;
#FAKES:;
#LABELS:0.000=Song Start
;
#DISPLAYBPM:130.000;
#NOTES:
0000
0000
0000
0000
,
0000
0000
0000
0000
,
0000
0000
0000
0000
,
0000
0000
0000
0000
,
1000
1000
1000
1000
,
0001
0001
0001
0001
,
0100
0010
0100
0010
0100
0010
0100
0010
,
0220
0000
0000
0330
,
0100
0000
0000
0010
0000
0000
0200
0000
,
0000
0000
0000
0300
,
1000
0000
0000
0100
0000
0000
2000
0000
,
0000
0000
0000
3000
,
0010
0000
0000
0100
0000
0000
0002
0000
,
0000
0000
0000
0003
,
0010
0000
0000
1000
0000
0000
0100
0000
,
0010
0010
0010
0110
,
1000
0100
1000
0100
,
0010
0000
0100
0000
0001
0100
0001
0000
,
1000
0010
0100
0010
,
1000
0010
1010
0101
,
0011
0001
0100
0010
,
1000
0000
0010
1000
0010
0000
0100
0000
,
0001
0010
0001
0100
,
0010
1010
0101
0000
,
0010
0010
0100
0100
,
0010
1000
0100
1000
,
0010
0010
0100
0100
,
0001
0010
0001
0100
,
0010
0000
0100
0010
,
1000
0000
1000
0000
0100
1000
0100
0000
,
0010
0010
0100
0100
,
0010
0010
0100
0100
,
0001
0001
0001
0101
,
1000
1000
1000
1010
,
0100
0100
0100
0110
,
0001
0001
0001
0011
,
1000
0100
1000
0100
,
0010
0001
0010
0001
,
0100
0010
1000
0100
,
1000
0100
1000
0000
0010
0001
0010
0000
,
0100
0010
0100
0010
,
1000
0100
1000
0010
,
0100
0001
0100
0001
,
0010
0001
0100
0010
,
1000
0100
1000
0010
,
0100
0001
0010
0001
,
0100
0010
1000
0100
,
1000
0100
1000
0000
0001
0010
0001
0000
,
0100
0100
0010
0010
,
0100
0000
0010
0000
0100
0010
0100
0000
,
0001
0001
1000
1000
,
0001
0000
1000
0000
0001
1000
0001
0000
,
0010
0110
1000
0100
,
1000
0000
0011
0000
0001
0100
0001
0000
,
1000
0000
1100
0000
0010
0100
0010
0000
,
1000
1000
0002
0003
,
1000
1000
0010
0100
,
0001
0000
0001
0000
1000
0100
1000
0000
,
0010
0010
0100
0010
,
1000
0000
0100
0000
1000
0100
1000
0000
,
0010
0010
0100
0100
,
0001
0001
1000
1000
,
0100
1000
0100
0000
0010
0000
0010
0000
,
0200
0000
0020
0330
,
0100
0100
0010
0010
,
0100
0001
0010
0001
,
0100
0100
0010
0010
,
1000
0100
1000
0010
,
0100
0000
0010
0100
,
0001
0000
0001
0000
0010
0001
0010
0000
,
0100
0100
0010
0010
,
0100
0100
0010
0010
,
1000
1000
1000
1010
,
0001
0001
0001
0101
,
0010
0010
0010
0110
,
1000
1000
1000
1100
,
0001
0010
0001
0010
,
0100
1000
0100
1000
,
0010
0100
0001
0010
,
0001
0010
0001
0000
0100
1000
0100
0000
,
0010
0100
0010
0100
,
0001
0010
0001
0100
,
0010
1000
0010
1000
,
0100
1000
0010
0100
,
0001
0010
0001
0100
,
0010
1000
0100
1000
,
0010
0100
0001
0010
,
0001
0010
0001
0000
1000
0100
1000
0000
,
0010
0010
0100
0100
,
0010
0000
0100
0000
0010
0100
0010
0000
,
1000
1000
0001
0001
,
1000
0000
0001
0000
1000
0001
1000
0000
,
0100
0110
0001
0010
,
0001
0000
1100
0000
1000
0010
1000
0000
,
0001
0000
0011
0000
0100
0010
0100
0000
,
0001
0001
2000
3000
,
1000
0100
0010
0100
,
0001
0000
0100
0010
0100
0000
0100
0000
,
0010
1000
0100
0010
,
0100
0000
0001
0100
0001
0000
0010
0000
,
0100
0010
1000
0100
,
1000
0010
0100
0001
,
0010
0001
0010
0000
1000
0100
1000
0000
,
0110
1001
0110
1001
,
0220
0000
0000
0000
,
0000
0000
0000
0330
,
2002
0000
0000
0000
,
0000
0000
0000
3003
,
2020
0000
0000
0000
,
0000
0000
0000
3030
,
0202
0000
0000
0000
,
0000
0000
0000
0303
,
0100
0010
0100
0010
,
1000
0001
1000
0001
,
1000
0010
0100
0010
,
1000
0010
0100
0010
,
0001
0100
0001
0010
,
0001
0100
0001
0010
,
0001
1000
0001
0000
0010
0100
0010
0000
,
0220
0000
0000
0330
,
0100
0010
0100
0000
0010
0000
0010
0000
,
1000
0100
1000
0010
,
0100
0001
0010
0001
,
0100
0000
0010
0000
1000
0010
1000
0000
,
0001
0100
0010
1000
,
0100
1000
0010
0100
,
0001
0100
0010
1000
,
1000
0000
0100
0000
1000
0000
0000
0000
0001
0000
0000
0010
0000
0000
0220
0000
,
0000
0000
0330
0000
;

//---------------dance-single - ----------------
#NOTEDATA:;
#CHARTNAME:;
#STEPSTYPE:dance-single;
#DESCRIPTION:;
#CHARTSTYLE:;
#DIFFICULTY:Easy;
#METER:5;
#RADARVALUES:0.256,0.323,0.181,0.084,0.000,363.000,43.000,20.000,0.000,0.000,0.000,0.000,0.000,0.256,0.323,0.181,0.084,0.000,363.000,43.000,20.000,0.000,0.000,0.000,0.000,0.000;
#CREDIT:;
#OFFSET:-0.016;
#BPMS:0.000=130.010
;
#STOPS:;
#DELAYS:;
#WARPS:;
#TIMESIGNATURES:0.000=4=4
;
#TICKCOUNTS:0.000=4
;
#COMBOS:0.000=1
;
#SPEEDS:0.000=1.000=0.000=0
;
#SCROLLS:0.000=1.000
;
#FAKES:;
#LABELS:0.000=Song Start
;
#DISPLAYBPM:130.000;
#NOTES:
0000
0000
0000
0000
,
0000
0000
0000
0000
,
0000
0000
0000
0000
,
0000
0000
0000
0000
,
1000
0000
0000
0000
,
0001
0000
0000
0000
,
1000
1000
0001
0001
,
0220
0000
0000
0330
,
0200
0000
0000
0300
,
0000
0000
0000
0000
,
0020
0000
0000
0030
,
0000
0000
0000
0000
,
0200
0000
0000
0300
,
0000
0000
0000
0000
,
0020
0000
0000
0030
,
1000
0100
0010
0001
,
0100
0010
0100
0010
,
1000
0100
1000
0000
,
0010
0100
0001
0010
,
0001
0001
2000
3000
,
0010
0100
0010
1000
,
0100
1000
0010
0000
,
0100
0001
0010
0001
,
0200
0000
0020
0330
,
0010
1000
0100
1000
,
0010
1000
0100
0000
,
0010
0001
0100
0001
,
0010
0001
0100
0000
,
0010
0010
0110
0000
,
0100
0100
0110
0000
,
0010
1000
0010
1000
,
0001
0100
0001
0100
,
1000
1000
1000
0000
,
0001
0001
0001
0000
,
0010
0010
0010
0000
,
0100
0100
0100
0000
,
0010
0100
0010
0100
,
0001
1000
0001
1000
,
0100
0100
1000
1000
,
0110
0000
0010
0010
,
0110
0000
1010
0000
,
0101
0000
1000
1000
,
1100
0000
0011
0000
,
0110
0000
0010
0010
,
1010
0000
0101
0000
,
1100
0000
0010
0010
,
0101
0000
0011
0000
,
1100
0100
0100
0100
,
1100
0010
0100
0001
,
0010
0001
0100
0010
,
1000
0100
1000
0010
,
0100
0100
0100
0000
,
0010
0100
0001
0010
,
0001
0100
0010
1000
,
0100
1000
0010
0100
,
0010
0010
0010
0000
,
0010
0100
0010
0100
,
0001
0010
0001
0000
,
0100
0010
1000
0100
,
1000
1000
0002
0003
,
0100
0010
0100
0001
,
0010
0001
0100
0000
,
0010
1000
0100
1000
,
0020
0000
0200
0330
,
0100
0001
0010
0001
,
0100
0001
0010
0000
,
0100
1000
0010
1000
,
0100
1000
0010
0000
,
0100
0100
0110
0000
,
0010
0010
0110
0000
,
0100
0001
0100
0001
,
1000
0010
1000
0010
,
0001
0001
0001
0000
,
1000
1000
1000
0000
,
0100
0100
0100
0000
,
0010
0010
0010
0000
,
0100
0010
0100
0010
,
1000
0001
1000
0001
,
0010
0010
0001
0001
,
0110
0000
0100
0100
,
0110
0000
0101
0000
,
1010
0000
0001
0001
,
0011
0000
1100
0000
,
0110
0000
0100
0100
,
0101
0000
1010
0000
,
0011
0000
0100
0100
,
1010
0000
1100
0000
,
0011
0010
0010
0010
,
0011
0100
0010
1000
,
0100
1000
0010
0100
,
0001
0010
0001
0100
,
0010
0010
0010
0000
,
0100
0010
1000
0100
,
1000
0010
0100
0001
,
0010
0001
0100
0010
,
0100
0100
0100
0000
,
1000
0100
1000
0100
,
0010
0001
0011
0000
,
0100
0010
0100
0010
,
1000
0100
2200
3300
,
0010
0001
0100
0000
,
0100
0010
1000
0000
,
1000
1000
0100
0100
,
0011
0011
0011
0011
,
2000
0000
0000
3000
,
0000
0000
0000
0000
,
0002
0000
0000
0003
,
0000
0000
0000
0000
,
0200
0000
0000
0300
,
0000
0000
0000
0000
,
0020
0000
0000
0030
,
0100
0010
0100
0110
,
1100
0000
1000
0000
,
0001
0000
0001
0000
,
0101
0000
0010
0000
,
0100
0000
0010
0000
,
1000
0000
0100
0000
,
1000
0000
0010
0000
,
0100
0000
0001
0000
,
0100
0001
0100
0101
,
1000
0000
1000
0000
,
0001
1000
0010
0100
,
0001
0001
1000
1000
,
0010
0100
0010
1000
,
0100
1000
0010
0100
,
0001
0001
0010
0001
,
1000
0010
0100
0010
,
2000
0000
0002
0000
,
3003
0000
0000
0000
;

//---------------dance-single - hooky----------------
#NOTEDATA:;
#CHARTNAME:hooky;
#STEPSTYPE:dance-single;
#DESCRIPTION:hooky;
#CHARTSTYLE:;
#DIFFICULTY:Beginner;
#METER:2;
#RADARVALUES:0.109,0.161,0.021,0.000,0.000,177.000,5.000,0.000,0.000,0.000,0.000,0.000,0.000,0.109,0.161,0.021,0.000,0.000,177.000,5.000,0.000,0.000,0.000,0.000,0.000,0.000;
#CREDIT:hooky;
#OFFSET:-0.016;
#BPMS:0.000=130.010
;
#STOPS:;
#DELAYS:;
#WARPS:;
#TIMESIGNATURES:0.000=4=4
;
#TICKCOUNTS:0.000=4
;
#COMBOS:0.000=1
;
#SPEEDS:0.000=1.000=0.000=0
;
#SCROLLS:0.000=1.000
;
#FAKES:;
#LABELS:0.000=Song Start
;
#DISPLAYBPM:130.000;
#NOTES:
0000
0000
0000
0000
,
0000
0000
0000
0000
,
0000
0000
0000
0000
,
0000
0000
0000
0000
,
0000
0000
0000
0000
,
0000
0000
0000
0000
,
0000
0000
0000
0000
,
0000
0000
0000
0000
,
1001
0000
0000
0000
,
0000
0000
0000
0000
,
0000
0000
0000
0000
,
0000
0000
0000
0000
,
0000
0000
0000
0000
,
0000
0000
0000
0000
,
0000
0000
0000
0000
,
0000
0000
0000
0000
,
0100
0000
0100
0000
,
0100
0000
0100
0000
,
0010
0000
0010
0000
,
0010
0000
0010
0000
,
1000
1000
1000
0000
,
0001
0001
0001
0000
,
1000
0000
0000
0000
,
0001
0000
0000
0000
,
0100
0000
0100
0000
,
0010
0000
0010
0000
,
0100
0000
0100
0000
,
0010
0000
0010
0000
,
1000
1000
1000
0000
,
0001
0001
0001
0000
,
1000
0000
0000
0000
,
0001
0000
0000
0000
,
0100
0000
0000
0000
,
0010
0000
0000
0000
,
0100
0000
0000
0000
,
0010
0000
0000
0000
,
1000
0000
0001
0000
,
1000
0000
0001
0000
,
0100
0000
0000
0000
,
0001
0000
0000
0000
,
1000
0000
0000
0000
,
0001
0000
0000
0000
,
1000
0000
0000
0000
,
0001
0000
0000
0000
,
0100
0000
0000
0000
,
0010
0000
0000
0000
,
0100
0000
0000
0000
,
0010
0000
0000
0000
,
1000
1000
1000
0000
,
0001
0001
0001
0000
,
0100
0000
0010
0000
,
1000
1000
1000
0000
,
0001
0000
0000
0000
,
0100
0000
0000
0000
,
0010
0000
0000
0000
,
0100
0100
0100
0000
,
0010
0000
0010
0000
,
0010
0000
0010
0000
,
0100
0000
0100
0000
,
0100
0000
0100
0000
,
0001
0001
0001
0000
,
1000
1000
1000
0000
,
0001
0000
0000
0000
,
1000
0000
0000
0000
,
0010
0000
0010
0000
,
0100
0000
0100
0000
,
0010
0000
0010
0000
,
0100
0000
0100
0000
,
0001
0001
0001
0000
,
1000
1000
1000
0000
,
0001
0000
0000
0000
,
1000
0000
0000
0000
,
0010
0000
0000
0000
,
0100
0000
0000
0000
,
0010
0000
0000
0000
,
0100
0000
0000
0000
,
0001
0000
1000
0000
,
0001
0000
1000
0000
,
0010
0000
0000
0000
,
1000
0000
0000
0000
,
0001
0000
0000
0000
,
1000
0000
0000
0000
,
0001
0000
0000
0000
,
1000
0000
0000
0000
,
0010
0000
0000
0000
,
0100
0000
0000
0000
,
0010
0000
0000
0000
,
0100
0000
0000
0000
,
0001
0001
0001
0000
,
1000
1000
1000
0000
,
0010
0000
0100
0000
,
0001
0001
0001
0000
,
1000
0000
0000
0000
,
0010
0000
0000
0000
,
0100
0000
0000
0000
,
0010
0010
0010
0000
,
1000
0000
0010
0000
,
1000
0001
1001
0000
,
0100
0000
0010
0000
,
0100
0010
0110
0000
,
1000
0000
0000
0000
,
0001
0000
0000
0000
,
0100
0000
0000
0000
,
0010
0000
0010
0000
,
0110
0000
0000
0000
,
0000
0000
0000
0000
,
0000
0000
0000
0000
,
0000
0000
0000
0000
,
0000
0000
0000
0000
,
0000
0000
0000
0000
,
0000
0000
0000
0000
,
0000
0000
0000
0000
,
1000
0000
0000
0000
,
0001
0000
0000
0000
,
1000
0000
0000
0000
,
0001
0000
0000
0000
,
0100
0000
0000
0000
,
0010
0000
0000
0000
,
0100
0000
0000
0000
,
0010
0000
0000
0000
,
1000
0000
1000
0000
,
0001
0000
0001
0000
,
1000
0000
1000
0000
,
0001
0000
0001
0000
,
0100
0100
0100
0000
,
0010
0010
0010
0000
,
1000
0000
0010
0000
,
0100
0000
1001
0000
;

//---------------dance-single - hooky----------------
#NOTEDATA:;
#CHARTNAME:hooky;
#STEPSTYPE:dance-single;
#DESCRIPTION:hooky;
#CHARTSTYLE:;
#DIFFICULTY:Challenge;
#METER:14;
#RADARVALUES:0.684,0.703,0.585,0.109,0.387,973.000,139.000,26.000,0.000,0.000,0.000,0.000,0.000,0.684,0.703,0.585,0.109,0.387,973.000,139.000,26.000,0.000,0.000,0.000,0.000,0.000;
#CREDIT:hooky;
#OFFSET:-0.016;
#BPMS:0.000=130.010
;
#STOPS:;
#DELAYS:;
#WARPS:;
#TIMESIGNATURES:0.000=4=4
;
#TICKCOUNTS:0.000=4
;
#COMBOS:0.000=1
;
#SPEEDS:0.000=1.000=0.000=0
;
#SCROLLS:0.000=1.000
;
#FAKES:;
#LABELS:0.000=Song Start
;
#DISPLAYBPM:130.000;
#NOTES:
0000
0000
0000
0000
,
0000
0000
0000
0000
,
0000
0000
0000
0000
,
0000
0000
0000
0000
,
1000
0100
1000
0100
1000
0100
1000
0100
,
0010
0001
0010
0001
0010
0001
0010
0001
,
1000
0001
1000
0001
1000
0001
1000
0001
1000
0001
1000
0001
1000
0001
1000
0001
,
0220
0000
0000
0000
0330
0000
0000
0000
1000
0000
0000
0100
0000
0000
0010
0000
,
0100
0000
0000
0100
0000
0000
0010
0000
0000
0010
0000
0000
0200
0000
0000
0000
,
0000
0000
0000
0000
0000
0000
0310
0010
,
0100
0000
0000
0100
0000
0000
0010
0000
0000
0010
0000
0000
0200
0000
0000
0000
,
0000
0000
0000
0300
,
0001
0000
0000
0001
0000
0000
0010
0000
0000
0010
0000
0000
0200
0000
0000
0000
,
0000
0000
0000
0000
0000
0000
0310
0100
,
0010
0000
0000
0010
0000
0000
0100
0000
0000
0100
0000
0000
0010
0000
0000
0000
,
1000
0001
1000
0001
1000
0001
1001
0000
,
0110
0000
0000
0010
0100
0000
0100
0000
1100
0000
0100
1000
0100
0000
1000
0000
,
0110
0000
0000
0100
0010
0000
1000
0000
0100
0000
0010
0001
0010
0000
0100
0000
,
0010
0000
1000
0100
1000
0000
0010
0000
0100
0000
0100
0010
0100
0000
0100
0000
,
0010
0000
0010
0000
1000
0100
1000
0000
0010
0001
0010
0000
0100
0010
0100
0000
,
1100
0000
0000
0100
1000
0000
0100
0000
1000
0000
0010
0100
0010
0000
0100
0000
,
0110
0000
0000
0001
1000
0000
0100
0000
0010
0000
0100
1000
0100
0000
1000
0000
,
0110
0000
0000
0001
1000
0000
0100
0000
0010
0000
0100
0010
0100
0000
0100
0000
,
0110
0000
0000
0010
0100
0000
1000
0000
0010
0000
0000
0100
0000
0000
0001
0000
,
1001
0000
0000
1000
0100
0000
0010
0000
0001
0000
1000
0001
1000
0000
0100
0000
,
0110
0000
0000
0001
0010
0000
0100
0000
1000
0000
0010
0001
0010
0000
0100
0000
,
1100
0000
0000
0010
0100
0000
0010
0000
1000
0000
0001
0100
0001
0000
1000
0000
,
1100
0000
0000
0010
0100
0000
0100
0000
0100
0000
0010
0100
0010
0000
0100
0000
,
1100
0000
0000
0001
0100
0000
0001
0000
0010
0000
0001
0010
0001
0000
0100
0000
,
0110
0000
0000
0001
1000
0000
0100
0000
0010
0000
0010
0100
0010
0000
0010
0000
,
1100
0000
0000
0100
0010
0000
0001
0000
1000
0000
0010
0100
0010
0000
0000
0000
,
1000
1000
0100
0100
0010
0010
0001
0000
,
2010
0010
0010
0010
0010
3010
1010
0000
,
0102
0100
0100
0100
0100
0103
0101
0000
,
0210
0010
0010
0010
0010
0310
0110
0000
,
2001
0001
0001
0001
0001
3001
1001
0000
,
1000
0100
1000
0100
1000
0100
1000
0100
,
0010
0001
0010
0001
0010
0001
0010
0001
,
1000
0001
1000
0001
1000
0001
1000
0001
1000
0001
1000
0001
1000
0001
1000
0001
,
0220
0000
0000
0000
0000
0000
0330
0000
1000
0000
0000
0100
0000
0000
0010
0000
,
1100
0100
1000
1100
0100
1000
1100
0100
,
1000
0100
0010
0001
0010
0001
1000
0001
,
1001
0001
1000
1001
0001
1000
1001
0001
,
1000
0100
0010
0100
0010
0100
0010
0100
,
0011
0001
0010
0011
0001
0010
0011
0001
,
0010
0100
0010
0100
0010
0100
0010
0100
,
0110
0010
0100
0110
0010
0100
0110
0010
,
0100
0010
0001
0100
0010
1000
0110
0000
,
1100
0000
0000
0100
1000
0000
0100
0000
0010
0001
0010
0000
0100
0000
0010
0000
,
0110
0000
0000
0010
0100
0000
0100
0000
0010
0100
0010
0000
1000
0000
1100
0000
,
0011
0000
0000
0001
1000
0000
0100
0000
0010
0000
0100
0010
0100
0000
0010
0000
,
0110
0000
0000
1000
0001
0000
1000
0001
1000
0001
1000
0000
0110
0000
0000
0000
,
1001
0000
0000
0001
1000
0000
0100
0010
0100
0000
0010
0000
0100
0000
0010
0000
,
0110
0000
0000
0001
0010
0000
0100
0010
0100
0010
0100
0000
0100
0000
0100
0000
,
1001
0000
0000
1000
0100
0000
0010
0001
0010
0001
0010
0000
1001
0000
0110
0000
,
2001
0100
0010
3001
,
0110
0000
0000
0100
0010
0000
0010
0000
0011
0000
0010
0001
0010
0000
0001
0000
,
0110
0000
0000
0010
0100
0000
0001
0000
0010
0000
0100
1000
0100
0000
0010
0000
,
0100
0000
0001
0010
0001
0000
0100
0000
0010
0000
0010
0100
0010
0000
0010
0000
,
0100
0000
0100
0000
0001
0010
0001
0000
0100
1000
0100
0000
0010
0100
0010
0000
,
0011
0000
0000
0010
0001
0000
0010
0000
0001
0000
0100
0010
0100
0000
0010
0000
,
0110
0000
0000
1000
0001
0000
0010
0000
0100
0000
0010
0001
0010
0000
0001
0000
,
0110
0000
0000
1000
0001
0000
0010
0000
0100
0000
0010
0100
0010
0000
0010
0000
,
0110
0000
0000
0100
0010
0000
0001
0000
0100
0000
0000
0010
0000
0000
1000
0000
,
1001
0000
0000
0001
0010
0000
0100
0000
1000
0000
0001
1000
0001
0000
0010
0000
,
0110
0000
0000
1000
0100
0000
0010
0000
0001
0000
0100
1000
0100
0000
0010
0000
,
0011
0000
0000
0100
0010
0000
0100
0000
0001
0000
1000
0010
1000
0000
0001
0000
,
0011
0000
0000
0100
0010
0000
0010
0000
0010
0000
0100
0010
0100
0000
0010
0000
,
0011
0000
0000
1000
0010
0000
1000
0000
0100
0000
1000
0100
1000
0000
0010
0000
,
0110
0000
0000
1000
0001
0000
0010
0000
0100
0000
0100
0010
0100
0000
0100
0000
,
0011
0000
0000
0010
0100
0000
1000
0000
0001
0000
0100
0010
0100
0000
0000
0000
,
0001
0001
0010
0010
0100
0100
1000
0000
,
0102
0100
0100
0100
0100
0103
0101
0000
,
2010
0010
0010
0010
0010
3010
1010
0000
,
0120
0100
0100
0100
0100
0130
0110
0000
,
1002
1000
1000
1000
1000
1003
1001
0000
,
0001
0010
0001
0010
0001
0010
0001
0010
,
0100
1000
0100
1000
0100
1000
0100
1000
,
0001
1000
0001
1000
0001
1000
0001
1000
0001
1000
0001
1000
0001
1000
0001
1000
,
0220
0000
0000
0000
0000
0000
0330
0000
0001
0000
0000
0010
0000
0000
0100
0000
,
0011
0010
0001
0011
0010
0001
0011
0010
,
0001
0010
0100
1000
0100
1000
0001
1000
,
1001
1000
0001
1001
1000
0001
1001
1000
,
0001
0010
0100
0010
0100
0010
0100
0010
,
1100
1000
0100
1100
1000
0100
1100
1000
,
0100
0010
0100
0010
0100
0010
0100
0010
,
0110
0100
0010
0110
0100
0010
0110
0100
,
0010
0100
1000
0010
0100
0001
0110
0000
,
0011
0000
0000
0010
0001
0000
0010
0000
0100
1000
0100
0000
0010
0000
0100
0000
,
0110
0000
0000
0100
0010
0000
0010
0000
0100
0010
0100
0000
0001
0000
0011
0000
,
1100
0000
0000
1000
0001
0000
0010
0000
0100
0000
0010
0100
0010
0000
0100
0000
,
0110
0000
0000
0001
1000
0000
0001
1000
0001
1000
0001
0000
0110
0000
0000
0000
,
1001
0000
0000
1000
0001
0000
0010
0100
0010
0000
0100
0000
0010
0000
0100
0000
,
0110
0000
0000
1000
0100
0000
0010
0100
0010
0100
0010
0000
0010
0000
0010
0000
,
1001
0000
0000
0001
0010
0000
0100
1000
0100
1000
0100
0000
1001
0000
0110
0000
,
1002
0010
0100
1003
,
1000
0000
0100
1000
0100
0000
0010
0100
0010
0000
0001
0010
0001
0000
0001
0000
,
0100
0000
0010
0100
0010
0100
0110
0000
1001
0000
0001
1000
0001
0000
1001
0000
,
0110
0000
1000
0100
1000
0000
0100
0010
0100
0000
0010
0001
0010
0000
0010
0000
,
0010
0000
0010
0100
0010
0100
1001
0000
0110
0000
0100
0010
0100
0000
0110
0000
,
1000
0010
1000
0000
0001
0100
0001
0000
1100
0000
0100
0000
0110
0000
0000
0000
,
0010
0001
0010
0000
1000
0100
1000
0000
0011
0000
0010
0000
0110
0000
0000
0000
,
1000
0100
1000
0000
0010
0001
0010
0000
0100
0010
0100
0000
0001
1000
0001
0000
,
1001
0110
1001
0110
,
1000
0000
0000
0100
0000
0000
0010
0000
0000
0100
0000
0000
0020
0000
0000
0000
,
0000
0000
0000
0000
0000
0000
1030
0100
,
0010
0000
0000
0010
0000
0000
0001
0000
0000
0001
0000
0000
0200
0000
0000
0000
,
0000
0000
0000
0300
,
0100
0000
0000
0100
0000
0000
0010
0000
0000
0010
0000
0000
2000
0000
0000
0000
,
0000
0000
0000
0000
0000
0000
3100
0010
,
0001
0000
0000
0001
0000
0000
0100
0000
0000
0100
0000
0000
0002
0000
0000
0000
,
1003
0100
1000
0100
1000
0100
1100
0000
,
0110
0000
0000
0100
0010
0000
1010
0000
0000
0001
0100
0000
0101
0000
0000
0000
,
0110
0000
1001
0000
1000
0100
1000
0000
,
0011
0000
0000
0010
0001
0000
0110
0000
0000
0100
0010
0000
1100
0000
0000
0000
,
0110
0000
0011
0000
0100
0010
0100
0000
,
1010
0000
0000
1000
0010
0000
0101
0000
0000
0001
0100
0000
1001
0000
0000
0000
,
0100
0000
0010
0000
1000
0010
0100
0000
,
0110
0000
0000
0100
0001
0000
0110
0000
0000
0000
0001
1000
0110
0000
0000
0000
,
1000
0001
1000
0001
1000
0001
1001
0000
,
1100
0000
0000
0100
1000
0000
0100
0000
1000
0000
0010
0001
0010
0000
0100
0000
,
0110
0000
0000
0010
0100
0000
0100
0000
0010
0000
1000
0010
1000
0000
0100
0000
,
0110
0000
0000
0001
0010
0000
0100
0000
0010
0000
0001
0010
0001
0000
0100
0000
,
1100
0000
0000
0100
1000
0000
0100
0000
0010
0000
0100
0010
0100
0000
1000
0000
,
1100
0000
0000
0100
1000
0000
0100
0010
0100
0000
0010
0000
0100
0000
0010
0000
,
0101
0000
0000
0001
0100
0000
0010
0000
0100
0000
0010
0100
0010
0000
0100
0000
,
0101
0000
0000
0001
0100
0000
0010
0100
0010
0000
0100
0000
0010
0000
0100
0000
,
0110
0000
0000
0010
0100
0000
1000
0100
2000
0000
0000
3200
0000
0000
0020
0000
,
0000
0000
0330
0000
;

//---------------dance-single - hooky----------------
#NOTEDATA:;
#CHARTNAME:hooky;
#STEPSTYPE:dance-single;
#DESCRIPTION:hooky;
#CHARTSTYLE:;
#DIFFICULTY:Edit;
#METER:14;
#RADARVALUES:0.680,0.703,0.572,0.084,0.393,976.000,136.000,20.000,10.000,0.000,6.000,0.000,0.000,0.680,0.703,0.572,0.084,0.393,976.000,136.000,20.000,10.000,0.000,6.000,0.000,0.000;
#CREDIT:hooky;
#OFFSET:-0.016;
#BPMS:0.000=130.010
;
#STOPS:;
#DELAYS:;
#WARPS:;
#TIMESIGNATURES:0.000=4=4
;
#TICKCOUNTS:0.000=4
;
#COMBOS:0.000=1
;
#SPEEDS:0.000=1.000=0.000=0
;
#SCROLLS:0.000=1.000
;
#FAKES:;
#LABELS:0.000=Song Start
;
#DISPLAYBPM:130.000;
#NOTES:
0000
0000
0000
0000
,
0000
0000
0000
0000
,
0000
0000
0000
0000
,
0000
0000
0000
0000
,
1000
0100
1000
0100
1000
0100
1000
0100
,
0010
0001
0010
0001
0010
0001
0010
0001
,
1000
0001
1000
0001
1000
0001
1000
0001
1000
0001
1000
0001
1000
0001
1000
0001
,
0400
0040
0000
0000
0000
0000
0000
0000
0330
0000
0000
0000
0000
0000
0000
0000
1000
0000
0000
0000
0000
0000
0100
0000
0000
0000
0000
0000
0010
0000
0000
0000
,
0100
0000
0000
0100
0000
0000
0010
0000
0000
0010
0000
0000
0200
0000
0000
0000
,
00M0
0000
00M0
0000
00M0
0000
0310
0010
,
0100
0000
0000
0100
0000
0000
0010
0000
0000
0010
0000
0000
0200
0000
0000
0000
,
00M0
00M0
00M0
03M0
,
0001
0000
0000
0001
0000
0000
0010
0000
0000
0010
0000
0000
0200
0000
0000
0000
,
00M0
0000
00M0
0000
03M0
0000
0010
0100
,
0010
0000
0000
0010
0000
0000
0100
0000
0000
0100
0000
0000
0010
0000
0000
0000
,
1000
0001
1000
0001
1000
0001
1001
0000
,
0110
0000
0000
0010
0100
0000
0100
0000
1100
0000
0100
1000
0100
0000
1000
0000
,
0110
0000
0000
0100
0010
0000
1000
0000
0100
0000
0010
0001
0010
0000
0100
0000
,
0010
0000
1000
0100
1000
0000
0010
0000
0100
0000
0100
0010
0100
0000
0100
0000
,
0010
0000
0010
0000
1000
0100
1000
0000
0010
0001
0010
0000
0100
0010
0100
0000
,
1100
0000
0000
0100
1000
0000
0100
0000
1000
0000
0010
0100
0010
0000
0100
0000
,
0110
0000
0000
0001
1000
0000
0100
0000
0010
0000
0100
1000
0100
0000
1000
0000
,
0110
0000
0000
0001
1000
0000
0100
0000
0010
0000
0100
0010
0100
0000
0100
0000
,
0110
0000
0000
0010
0100
0000
1000
0000
0010
0000
0000
0100
0000
0000
0001
0000
,
1001
0000
0000
1000
0100
0000
0010
0000
0001
0000
1000
0001
1000
0000
0100
0000
,
0110
0000
0000
0001
0010
0000
0100
0000
1000
0000
0010
0001
0010
0000
0100
0000
,
1100
0000
0000
0010
0100
0000
0010
0000
1000
0000
0001
0100
0001
0000
1000
0000
,
1100
0000
0000
0010
0100
0000
0100
0000
0100
0000
0010
0100
0010
0000
0100
0000
,
1100
0000
0000
0001
0100
0000
0001
0000
0010
0000
0001
0010
0001
0000
0100
0000
,
0110
0000
0000
0001
1000
0000
0100
0000
0010
0000
0010
0100
0010
0000
0010
0000
,
1100
0000
0000
0100
0010
0000
0001
0000
1000
0000
0010
0100
0010
0000
0000
0000
,
1000
1000
0100
0100
0010
0010
0001
0000
,
2010
0010
0010
0010
0010
3010
1010
0000
,
0102
0100
0100
0100
0100
0103
0101
0000
,
0210
0010
0010
0010
0010
0310
0110
0000
,
2001
0001
0001
0001
0001
3001
1001
0000
,
1000
0100
1000
0100
1000
0100
1000
0100
,
0010
0001
0010
0001
0010
0001
0010
0001
,
1000
0001
1000
0001
1000
0001
1000
0001
1000
0001
1000
0001
1000
0001
1000
0001
,
0400
0040
0000
0000
0000
0000
0000
0000
0330
0000
0000
0000
0000
0000
0000
0000
1000
0000
0000
0000
0000
0000
0100
0000
0000
0000
0000
0000
0010
0000
0000
0000
,
1100
0100
1000
1100
0100
1000
1100
0100
,
1000
0100
0010
0001
0010
0001
1000
0001
,
1001
0001
1000
1001
0001
1000
1001
0001
,
1000
0100
0010
0100
0010
0100
0010
0100
,
0011
0001
0010
0011
0001
0010
0011
0001
,
0010
0100
0010
0100
0010
0100
0010
0100
,
0110
0010
0100
0110
0010
0100
0110
0010
,
0100
0010
0001
0100
0010
1000
0110
0000
,
1100
0000
0000
0100
1000
0000
0100
0000
0010
0001
0010
0000
0100
0000
0010
0000
,
0110
0000
0000
0010
0100
0000
0100
0000
0010
0100
0010
0000
1000
0000
1100
0000
,
0011
0000
0000
0001
1000
0000
0100
0000
0010
0000
0100
0010
0100
0000
0010
0000
,
0110
0000
0000
1000
0001
0000
1000
0001
1000
0001
1000
0000
0110
0000
0000
0000
,
1001
0000
0000
0001
1000
0000
0100
0010
0100
0000
0010
0000
0100
0000
0010
0000
,
0110
0000
0000
0001
0010
0000
0100
0010
0100
0010
0100
0000
0100
0000
0100
0000
,
1001
0000
0000
1000
0100
0000
0010
0001
0010
0001
0010
0000
1001
0000
0110
0000
,
2001
0100
0010
3001
,
0110
0000
0000
0100
0010
0000
0010
0000
0011
0000
0010
0001
0010
0000
0001
0000
,
0110
0000
0000
0010
0100
0000
0001
0000
0010
0000
0100
1000
0100
0000
0010
0000
,
0100
0000
0001
0010
0001
0000
0100
0000
0010
0000
0010
0100
0010
0000
0010
0000
,
0100
0000
0100
0000
0001
0010
0001
0000
0100
1000
0100
0000
0010
0100
0010
0000
,
0011
0000
0000
0010
0001
0000
0010
0000
0001
0000
0100
0010
0100
0000
0010
0000
,
0110
0000
0000
1000
0001
0000
0010
0000
0100
0000
0010
0001
0010
0000
0001
0000
,
0110
0000
0000
1000
0001
0000
0010
0000
0100
0000
0010
0100
0010
0000
0010
0000
,
0110
0000
0000
0100
0010
0000
0001
0000
0100
0000
0000
0010
0000
0000
1000
0000
,
1001
0000
0000
0001
0010
0000
0100
0000
1000
0000
0001
1000
0001
0000
0010
0000
,
0110
0000
0000
1000
0100
0000
0010
0000
0001
0000
0100
1000
0100
0000
0010
0000
,
0011
0000
0000
0100
0010
0000
0100
0000
0001
0000
1000
0010
1000
0000
0001
0000
,
0011
0000
0000
0100
0010
0000
0010
0000
0010
0000
0100
0010
0100
0000
0010
0000
,
0011
0000
0000
1000
0010
0000
1000
0000
0100
0000
1000
0100
1000
0000
0010
0000
,
0110
0000
0000
1000
0001
0000
0010
0000
0100
0000
0100
0010
0100
0000
0100
0000
,
0011
0000
0000
0010
0100
0000
1000
0000
0001
0000
0100
0010
0100
0000
0000
0000
,
0001
0001
0010
0010
0100
0100
1000
0000
,
0102
0100
0100
0100
0100
0103
0101
0000
,
2010
0010
0010
0010
0010
3010
1010
0000
,
0120
0100
0100
0100
0100
0130
0110
0000
,
1002
1000
1000
1000
1000
1003
1001
0000
,
0001
0010
0001
0010
0001
0010
0001
0010
,
0100
1000
0100
1000
0100
1000
0100
1000
,
0001
1000
0001
1000
0001
1000
0001
1000
0001
1000
0001
1000
0001
1000
0001
1000
,
0040
0400
0000
0000
0000
0000
0000
0000
0330
0000
0000
0000
0000
0000
0000
0000
0001
0000
0000
0000
0000
0000
0010
0000
0000
0000
0000
0000
0100
0000
0000
0000
,
0011
0010
0001
0011
0010
0001
0011
0010
,
0001
0010
0100
1000
0100
1000
0001
1000
,
1001
1000
0001
1001
1000
0001
1001
1000
,
0001
0010
0100
0010
0100
0010
0100
0010
,
1100
1000
0100
1100
1000
0100
1100
1000
,
0100
0010
0100
0010
0100
0010
0100
0010
,
0110
0100
0010
0110
0100
0010
0110
0100
,
0010
0100
1000
0010
0100
0001
0110
0000
,
0011
0000
0000
0010
0001
0000
0010
0000
0100
1000
0100
0000
0010
0000
0100
0000
,
0110
0000
0000
0100
0010
0000
0010
0000
0100
0010
0100
0000
0001
0000
0011
0000
,
1100
0000
0000
1000
0001
0000
0010
0000
0100
0000
0010
0100
0010
0000
0100
0000
,
0110
0000
0000
0001
1000
0000
0001
1000
0001
1000
0001
0000
0110
0000
0000
0000
,
1001
0000
0000
1000
0001
0000
0010
0100
0010
0000
0100
0000
0010
0000
0100
0000
,
0110
0000
0000
1000
0100
0000
0010
0100
0010
0100
0010
0000
0010
0000
0010
0000
,
1001
0000
0000
0001
0010
0000
0100
1000
0100
1000
0100
0000
1001
0000
0110
0000
,
1002
0010
0100
1003
,
1000
0000
0100
1000
0100
0000
0010
0100
0010
0000
0001
0010
0001
0000
0001
0000
,
0100
0000
0010
0100
0010
0100
0110
0000
1001
0000
0001
1000
0001
0000
1001
0000
,
0110
0000
1000
0100
1000
0000
0100
0010
0100
0000
0010
0001
0010
0000
0010
0000
,
0010
0000
0010
0100
0010
0100
1001
0000
0110
0000
0100
0010
0100
0000
0110
0000
,
1000
0010
1000
0000
0001
0100
0001
0000
1100
0000
0100
0000
0110
0000
0000
0000
,
0010
0001
0010
0000
1000
0100
1000
0000
0011
0000
0010
0000
0110
0000
0000
0000
,
1000
0100
1000
0000
0010
0001
0010
0000
0100
0010
0100
0000
0001
1000
0001
0000
,
1001
0110
1001
0110
,
1000
0000
0000
0100
0000
0000
0010
0000
0000
0100
0000
0000
0020
0000
0000
0000
,
0000
0000
0000
0000
0000
0000
1030
0100
,
0010
0000
0000
0010
0000
0000
0001
0000
0000
0001
0000
0000
0200
0000
0000
0000
,
0000
0000
0000
0300
,
0100
0000
0000
0100
0000
0000
0010
0000
0000
0010
0000
0000
2000
0000
0000
0000
,
0000
0000
0000
0000
0000
0000
3100
0010
,
0001
0000
0000
0001
0000
0000
0100
0000
0000
0100
0000
0000
0002
0000
0000
0000
,
1003
0100
1000
0100
1000
0100
1100
0000
,
0110
0000
0000
0100
0010
0000
1010
0000
0000
0001
0100
0000
0101
0000
0000
0000
,
0110
0000
1001
0000
1000
0100
1000
0000
,
0011
0000
0000
0010
0001
0000
0110
0000
0000
0100
0010
0000
1100
0000
0000
0000
,
0110
0000
0011
0000
0100
0010
0100
0000
,
1010
0000
0000
1000
0010
0000
0101
0000
0000
0001
0100
0000
1001
0000
0000
0000
,
0100
0000
0010
0000
1000
0010
0100
0000
,
0110
0000
0000
0100
0001
0000
0110
0000
0000
0001
1000
0000
0110
0000
0000
0000
,
1000
0001
1000
0001
1000
0001
1001
0000
,
1100
0000
0000
0100
1000
0000
0100
0000
1000
0000
0010
0001
0010
0000
0100
0000
,
0110
0000
0000
0010
0100
0000
0100
0000
0010
0000
1000
0010
1000
0000
0100
0000
,
0110
0000
0000
0001
0010
0000
0100
0000
0010
0000
0001
0010
0001
0000
0100
0000
,
1100
0000
0000
0100
1000
0000
0100
0000
0010
0000
0100
0010
0100
0000
1000
0000
,
1100
0000
0000
0100
1000
0000
0100
0010
0100
0000
0010
0000
0100
0000
0010
0000
,
0101
0000
0000
0001
0100
0000
0010
0000
0100
0000
0010
0100
0010
0000
0100
0000
,
0101
0000
0000
0001
0100
0000
0010
0100
0010
0000
0100
0000
0010
0000
0100
0000
,
0110
0000
0000
0010
0100
0000
1000
0100
2000
0000
0000
3200
0000
0000
0020
0000
,
0000
0000
0330
0000
;
