#TITLE:G.U.Y.;
#SUBTITLE:;
#ARTIST:Lady Gaga;
#TITLETRANSLIT:;
#SUBTITLETRANSLIT:;
#ARTISTTRANSLIT:;
#GENRE:;
#CREDIT:hooky;
#BANNER:G.U.Y..png;
#BACKGROUND:G.U.Y.-bg.png;
#LYRICSPATH:;
#CDTITLE:;
#MUSIC:G.U.Y..ogg;
#OFFSET:-8.731000;
#SAMPLESTART:43.621002;
#SAMPLELENGTH:15.000000;
#SELECTABLE:YES;
#DISPLAYBPM:110.000000;
#BPMS:0.000000=110.000000
;
#STOPS:
;
#BGCHANGES:-4.000=black.png=1.000=0=0=0=StretchNoLoop====,
0.000=G.U.Y..mp4=1.000=0=0=0=StretchNoLoop====,
99999=-nosongbg-=1.000=0=0=0 // don't automatically add -songbackground-
;
#KEYSOUNDS:;
#ATTACKS:;

//---------------dance-single - ----------------
#NOTES:
     dance-single:
     :
     Hard:
     11:
     0.357052,0.317100,0.165156,0.209198,0.148641,193.000000,15.000000,19.000000,0.000000,0.000000,0.000000,0.357052,0.317100,0.165156,0.209198,0.148641,193.000000,15.000000,19.000000,0.000000,0.000000,0.000000:
// measure 0
1100
0000
0000
0000
0010
0000
0000
0010
0000
0000
0001
0000
0100
0000
0001
0000
,  // measure 1
0010
0000
0000
0000
0100
0000
0000
0100
0000
0000
1000
0000
0010
0000
0000
0000
,  // measure 2
0110
0000
0000
0000
0100
0000
0000
0001
0000
0000
0010
0000
0001
0000
1000
0000
,  // measure 3
1010
0000
0000
0000
0100
0000
0000
0100
0000
0000
0010
0001
0100
0000
0000
0000
,  // measure 4
0110
0000
0000
0000
0100
0000
0000
0100
0000
0000
0010
0000
1000
0000
0100
0000
,  // measure 5
1000
0000
0000
0000
0010
0000
0000
0010
0000
0000
1000
0001
1000
0000
0000
0000
,  // measure 6
0100
0000
0000
0000
0010
0100
0000
0100
0000
0000
1000
0010
1000
0000
0001
0000
,  // measure 7
1001
0000
0000
0000
1000
0001
0000
1000
0000
0000
0100
0000
0200
0000
0000
0000
,  // measure 8
0310
0000
0000
0001
0010
0000
0000
0000
0010
0000
0000
0000
0010
0000
0000
0000
,  // measure 9
0001
0000
0000
0001
1000
0000
0000
0000
1000
0000
0000
0000
1000
0000
0000
0000
,  // measure 10
0010
0000
0000
1000
0010
0000
0000
0000
0010
0000
0000
0000
0010
0000
0000
0000
,  // measure 11
0100
0000
0000
0001
0100
0000
0000
0000
0100
0000
0000
0000
0100
0000
0000
0000
,  // measure 12
0001
0010
0001
0010
0001
0010
0001
0010
,  // measure 13
0001
1000
0001
1000
0001
1000
0001
1000
,  // measure 14
0010
1000
0010
1000
0100
0010
0100
0010
,  // measure 15
0100
0100
0100
0100
0220
0000
0330
0000
,  // measure 16
0020
0000
0000
0032
0000
0103
0100
0100
,  // measure 17
0001
0000
0010
0001
0000
1000
1001
0000
,  // measure 18
0120
0000
0000
2030
0000
3100
0100
1000
,  // measure 19
0000
0010
0000
0002
0000
0000
0013
0000
,  // measure 20
2000
0000
0000
3002
0000
0103
0100
0100
,  // measure 21
0000
0000
0010
1000
0000
0100
0100
0000
,  // measure 22
0110
0000
0000
0000
0000
0000
0000
0010
0000
0000
0010
0000
0000
0000
0001
0000
,  // measure 23
0000
0100
0000
1000
0000
0010
0000
0001
,  // measure 24
0002
0000
0000
2003
0000
3010
0010
0010
,  // measure 25
1000
0000
0100
1000
0000
0001
1001
0000
,  // measure 26
0210
0000
0000
0302
0000
0013
0010
0001
,  // measure 27
0000
0100
0000
2000
0000
0000
3100
0000
,  // measure 28
0002
0000
0000
2003
0000
3010
0010
0010
,  // measure 29
0000
0000
0100
0001
0000
0010
0010
0000
,  // measure 30
0110
0000
0000
0000
0000
0000
0000
0100
0000
0000
0100
0000
0000
0000
0000
0000
,  // measure 31
1000
0010
0001
0010
1000
0000
1001
0000
,  // measure 32
1001
0000
0000
0010
0000
0000
0100
0000
0000
0001
0000
0000
0010
0000
0010
0000
,  // measure 33
0001
0000
0000
1000
0000
0000
0010
0000
0000
0100
0010
0000
1000
0000
1000
0000
,  // measure 34
0100
0000
0000
0010
0000
0000
0001
0000
0000
0100
0000
0000
1000
0000
0100
0000
,  // measure 35
0001
0000
0000
0010
0000
0000
1000
0000
0000
0010
0000
0000
0022
0000
0000
0000
,  // measure 36
0033
0000
0000
0000
;

//---------------dance-single - ----------------
#NOTES:
     dance-single:
     :
     Medium:
     7:
     0.245375,0.237825,0.132125,0.110104,0.000000,134.000000,12.000000,10.000000,0.000000,0.000000,0.000000,0.245375,0.237825,0.132125,0.110104,0.000000,134.000000,12.000000,10.000000,0.000000,0.000000,0.000000:
1000
0000
1000
0000
0010
0010
0010
0000
,
0100
0000
0001
0000
0010
0010
0010
0000
,
0001
0100
0010
0010
,
0220
0030
0010
0310
,
0010
0000
1000
0000
0100
1000
0100
0000
,
0010
0000
0010
0000
0001
0100
0010
0000
,
1000
0001
1000
1000
,
2002
3003
0220
0330
,
0010
0010
0010
0010
,
1000
1000
1000
1000
,
0001
0001
0001
0001
,
0100
0100
0100
0100
,
0010
1000
0010
0000
0100
0000
0100
0000
,
0001
0010
0001
0000
0001
0000
0001
0000
,
0100
0100
0010
0010
,
1000
0001
1000
0001
1000
0000
0000
0000
,
0200
0000
0310
0010
,
0001
0100
0010
0000
1000
0000
0010
0000
,
0200
0000
0301
0001
,
0010
0001
0010
0000
0001
0000
0000
0000
,
0100
0000
0100
0000
,
0010
1000
0100
0000
1000
0000
0000
0000
,
0010
0000
0010
0000
,
0100
0100
0100
0000
,
1001
0000
0010
0000
,
0100
0001
0100
0000
0010
0000
0010
0000
,
1010
0000
0100
0000
,
0101
0000
0000
0000
0001
0010
0001
0000
,
1001
0000
0010
0000
,
0010
1000
0100
0000
1000
0000
1000
0000
,
1001
0000
0110
0000
,
1010
0000
0101
0000
,
1000
0100
1000
1000
,
0001
0010
0001
0001
,
0100
0010
0100
0100
,
0010
1000
0100
2002
,
3003
0000
0000
0000
;

//---------------dance-single - ----------------
#NOTES:
     dance-single:
     :
     Easy:
     5:
     0.202906,0.198188,0.264250,0.044042,0.000000,101.000000,24.000000,4.000000,0.000000,0.000000,0.000000,0.202906,0.198188,0.264250,0.044042,0.000000,101.000000,24.000000,4.000000,0.000000,0.000000,0.000000:
1000
0000
1000
0000
,
0001
0001
0001
0000
,
0100
0010
1000
1000
,
1001
0000
0100
0100
,
0110
0000
0010
0000
,
0010
1000
0100
0000
,
1000
1000
0001
0001
,
1001
0000
0110
0000
,
0010
0000
0010
0000
,
0100
0000
0100
0000
,
0001
0000
0001
0000
,
1000
0000
1000
0000
,
0010
0010
0010
0010
,
0100
0100
0100
0100
,
0001
1000
0001
0100
,
0010
0010
2002
3003
,
0110
0000
0010
0000
,
0010
1000
0100
0100
,
1100
0000
0101
0000
,
0001
0010
0001
0001
,
1001
0000
0100
0000
,
0010
1000
0100
0100
,
1001
0000
0110
0000
,
0010
1000
0100
0100
,
1001
0000
0110
0000
,
0010
1000
0100
0100
,
1010
0000
0101
0000
,
0011
0001
0100
0010
,
1010
0000
1100
0000
,
0101
0010
0001
0100
,
0110
0000
1001
0000
,
0011
0000
1100
0000
,
0010
0000
0010
0000
,
0100
0000
0100
0000
,
0010
0000
0010
0000
,
0100
0000
0100
0220
,
0330
0000
0000
0000
;

//---------------dance-single - ----------------
#NOTES:
     dance-single:
     :
     Beginner:
     2:
     0.097521,0.096341,0.176167,0.000000,0.000000,46.000000,16.000000,0.000000,0.000000,0.000000,0.000000,0.097521,0.096341,0.176167,0.000000,0.000000,46.000000,16.000000,0.000000,0.000000,0.000000,0.000000:
1000
0000
0000
0000
,
0001
0000
0000
0000
,
1000
0000
1000
0000
,
0010
0000
0000
0000
,
1000
0000
0000
0000
,
0001
0000
0000
0000
,
0100
0000
0100
0000
,
0001
0000
0000
0000
,
1001
0000
0000
0000
,
0110
0000
0000
0000
,
1001
0000
0000
0000
,
0110
0000
0000
0000
,
1000
0000
1000
0000
,
1000
0000
1000
0000
,
0001
0000
0001
0000
,
1000
1000
1000
0000
,
0110
0000
0000
0000
,
0100
0000
0000
0000
,
1001
0000
0000
0000
,
0010
0000
0000
0000
,
0110
0000
0000
0000
,
0100
0000
0000
0000
,
1001
0000
0001
0000
,
1000
0000
0001
0000
,
1001
0000
0000
0000
,
0100
0000
0000
0000
,
0110
0000
0000
0000
,
0010
0000
0000
0000
,
1001
0000
0000
0000
,
1000
0000
0000
0000
,
0110
0000
0000
0000
,
0100
0000
0100
0000
,
1001
0000
0000
0000
,
1001
0000
0000
0000
,
1001
0000
0000
0000
,
1001
0000
0000
0000
;
