#TITLE:Bubble POP!;
#SUBTITLE:;
#ARTIST:현아;
#TITLETRANSLIT:;
#SUBTITLETRANSLIT:;
#ARTISTTRANSLIT:HyunA;
#CREDIT:hooky;
#BANNER:Bubble Pop.png;
#BACKGROUND:Bubble Pop-bg.png;
#LYRICSPATH:;
#CDTITLE:cdtitle.png;
#MUSIC:Bubble POP!.mp3;
#OFFSET:0.455;
#SAMPLESTART:45.980;
#SAMPLELENGTH:15.000;
#SELECTABLE:YES;
#DISPLAYBPM:146.000;
#BPMS:0.000=146.000,338.000=73.000,342.000=146.000,402.000=36.500,403.000=73.000,419.000=146.000;
#STOPS:;
#BGCHANGES:-4.000=cdtitle.png=1.000=1=0=1,
0.000=Bubble Pop.avi=1.000=0=0=0,
99999=-nosongbg-=1.000=0=0=0 // don't automatically add -songbackground-
;

//---------------dance-single - ----------------
#NOTES:
     dance-single:
     :
     Hard:
     11:
     0.592,0.665,0.443,0.259,0.068:
0000
0000
0000
0000
,
0000
0000
0000
0000
,
0100
0010
0110
0000
1000
0000
1100
0000
,
0001
0011
0100
0110
,
0010
0001
0011
0000
1100
0000
1100
0000
,
0100
1000
0100
1000
0000
0010
0001
0000
,
2002
0000
3003
0000
0100
0000
0010
0100
,
0010
0000
1000
0100
0000
0010
0001
0010
,
0000
1000
0100
1000
0011
0000
0011
0000
,
0100
0010
1000
0100
0000
0010
0001
0000
,
0220
0000
0330
0000
0110
0000
0001
1000
,
0001
0000
0100
0010
0200
0000
0001
0000
,
1300
0000
0010
0001
0010
0000
1000
0100
,
1000
0000
0010
0100
0010
1000
0010
0000
,
0100
0010
0100
0000
0010
0000
1000
1000
,
1000
0000
0001
0001
0001
0000
0100
0010
,
0100
0010
2000
0000
3001
0000
2000
0000
,
3010
0100
0001
0010
0000
0000
0100
1000
,
0100
0010
0100
0010
0000
0000
0110
0000
,
0001
0010
0001
0010
0000
0000
0100
0000
,
0100
0000
0100
0000
0110
0000
0001
0010
,
0001
0000
1000
0100
1000
0000
0010
0100
,
0010
1000
0100
0000
0110
0000
1000
0100
,
1000
0000
0010
0001
0010
0000
0100
0010
,
0001
0010
0100
0000
0110
0000
0002
0000
,
1003
0010
0100
0001
0000
0100
0010
0100
,
1000
0100
0010
0100
0010
0001
0010
0000
,
1000
0010
0100
0010
0200
0000
0010
0000
,
0010
0000
0310
0000
1001
0000
1000
0100
,
0010
0100
0010
0100
0001
0010
0001
0100
,
0001
0010
0002
0000
1003
0000
0010
0100
,
0001
0010
0001
0010
0100
0010
0100
0010
,
1000
0100
2000
0000
3001
0000
1000
0100
,
0010
0100
0010
0100
0001
0000
1000
0010
,
0000
0100
0001
0000
1000
0100
1000
0100
,
1000
0100
1100
0000
0010
0001
0010
0001
,
0011
0000
0011
0000
1100
0000
1000
0100
,
0010
0100
0010
0001
0010
0001
0010
0001
,
0100
0010
0200
0000
0310
0000
0001
0010
,
0001
0100
0010
0001
0100
0010
0100
0010
,
1000
0100
0010
0100
0001
0000
1000
0100
,
0010
0100
0010
0000
0200
0000
0310
0000
,
0002
0000
1003
0000
0001
0010
0001
0010
,
0001
0010
0011
0000
1000
0100
1000
0100
,
1100
1100
0011
1100
,
0010
0100
0010
0100
0000
0001
1000
0000
,
0220
0000
0330
0000
1100
0000
0010
0001
,
0010
0000
0100
0010
0000
1000
0100
1000
,
0000
0010
0001
0010
0110
0000
1001
0000
,
1000
0010
0100
0001
0000
0001
0100
0000
,
2002
0000
3003
0000
0110
0000
0001
0010
,
0001
0000
1000
0100
0020
0000
0100
0000
,
0100
0000
0000
0000
0130
0000
0000
0000
1000
0000
0100
0000
0010
0000
0100
0010
,
0100
0000
1000
0000
0100
0000
0000
0000
0010
0000
0001
0000
0010
0000
0100
0010
,
0100
0000
0010
0000
0100
0000
0000
0000
0001
0000
0100
0000
0010
0000
1000
0010
,
1000
0010
0100
0000
0001
0100
0001
0000
,
1000
0100
0010
0100
0010
1000
0010
0100
,
0010
0100
0001
0010
0001
0010
1000
0001
,
0100
0010
0100
0010
0110
0000
0120
0000
,
1030
0010
0100
0001
0100
0000
0010
0100
,
0000
0100
0010
0000
1010
0000
1000
0010
,
0100
0000
0001
0010
0100
0000
1000
0010
,
0100
0010
0100
0000
0110
0000
1000
0100
,
0010
0000
0001
0100
0010
0000
1000
0001
,
1000
0011
1010
0200
,
0301
1000
0100
0020
0000
0130
0001
0010
,
1000
0010
0100
0010
0100
0000
1100
0000
,
0100
0001
0010
0001
0012
0000
0100
0000
,
0010
0000
1003
0000
1001
0000
0001
0010
,
0100
0010
0100
0010
1000
0100
1000
0010
,
1000
0100
2000
0000
3001
0000
0100
0010
,
1000
0100
1000
0100
0010
0100
0010
0100
,
0001
0010
0002
0000
1003
0000
0001
0010
,
0100
0010
0100
0010
1000
0000
0001
0100
,
0000
0010
1000
0000
0001
0010
0001
0010
,
0001
0010
0011
0000
0100
1000
0100
1000
,
1100
0000
1100
0000
0011
0000
0001
0010
,
0100
0010
0100
1000
0100
1000
0100
1000
,
0010
0100
0020
0000
0130
0000
1000
0100
,
1000
0010
0100
1000
0010
0100
0010
0100
,
0001
0010
0100
0010
1000
0000
0001
0010
,
0100
0010
0100
0000
0020
0000
0130
0000
,
2000
0000
3001
0000
1000
0100
1000
0100
,
1000
0100
1100
0000
0001
0010
0001
0010
,
0011
0011
2002
0000
,
0000
0000
3003
0000
1100
0000
0010
1000
,
0010
0000
0000
0000
0000
0000
0110
0000
0000
0000
0000
0000
0001
0000
0100
0000
0001
0000
0100
0000
0000
0001
0000
0000
,
0101
0000
0000
0000
0110
0000
0000
0000
1000
0000
0100
0010
0100
0000
0010
0000
,
0210
0000
0302
0000
0103
0100
0100
0100
,
0220
0000
0330
0000
1100
0000
0000
0010
,
0011
0000
0000
0000
0110
0000
0000
0000
1000
0100
1000
0100
0000
0000
1000
0000
,
0100
0000
0000
0000
0110
0000
0000
0000
0001
0000
0100
0010
0100
0000
0010
0000
,
1010
0000
0101
0000
0100
0010
0100
0010
,
0200
0000
0020
0000
0330
0000
0000
0000
1000
0000
0010
0001
0010
0000
0001
0000
,
0110
0000
0000
0000
0010
0000
0000
0000
0001
0010
0001
0010
0000
0000
0100
0000
,
0010
0000
0110
0000
2000
3200
0320
0032
,
0113
0100
0010
0100
0000
1000
1000
1000
,
2002
0000
0000
0000
3003
0000
0000
0000
1000
0100
1000
0100
1000
0100
1000
0000
,
1100
0000
0110
0000
0000
0110
0011
0000
,
0220
0000
0330
0000
1000
0100
0010
0001
,
0010
0000
0100
0000
2000
0000
3000
0000
2002
0000
0000
3003
1001
0000
0100
0000
,
0100
0010
0100
0000
1000
0000
0010
0100
0000
0100
0000
0000
0110
0000
0010
0000
,
0010
0100
0010
0000
0001
0000
0100
0010
0000
0010
0000
0000
1100
0000
0010
0000
,
0001
0010
0001
0000
0010
0000
0100
0010
0000
0010
0100
0000
1000
0100
1000
0100
,
1000
0100
1100
0000
0010
0001
0010
0001
0011
0000
0011
0000
1100
0000
0000
0000
,
0010
0001
0100
0010
1000
0000
0100
0010
,
0100
0001
0000
1000
0020
0000
0130
0000
,
1000
0100
0010
0100
0010
0000
0001
0000
,
1000
0001
0000
0010
0100
0020
0000
0030
,
1000
0000
0010
0001
0010
0000
0100
0000
,
0010
0100
0000
0100
0010
0000
0010
0100
,
0010
0100
0010
0100
0110
0000
0001
1000
,
0001
1000
1001
0000
1001
0000
0110
0000
,
1001
0000
0010
0001
1000
0100
0000
0010
,
0100
0220
0330
0110
,
1000
0100
1000
0000
0010
0001
0000
0100
,
0010
0100
0000
1000
0001
1000
1001
0000
,
0110
0000
0010
0001
0100
0010
0000
1000
,
0100
0022
0033
0110
,
1000
0100
1000
0000
0010
0100
0001
0000
,
1000
1100
0000
0001
0011
0000
0110
0000
,
1001
0000
1000
0100
1000
0100
0000
0010
,
0001
2002
0000
3003
;

//---------------dance-single - ----------------
#NOTES:
     dance-single:
     :
     Medium:
     8:
     0.406,0.549,0.259,0.226,0.000:
0000
0000
0000
0000
,
0000
0000
0000
0000
,
1000
1100
0001
0011
,
0100
0110
1000
1100
,
0010
0011
0100
0100
,
0010
0000
0100
0010
0000
0100
0010
0000
,
0200
0300
0001
0001
,
1000
0001
1000
1000
,
0010
0010
0010
0000
0010
0000
0010
0000
,
0100
0000
0010
0100
0000
0010
0100
0000
,
0020
0030
1000
1000
,
0001
1000
0001
0001
,
0100
0100
0100
0000
1000
0000
0100
0000
,
1000
0100
0010
0001
,
0010
0001
0100
0001
,
0100
0001
1000
0100
,
1000
0010
1010
0001
,
0100
0001
0100
0001
0000
0000
1000
0000
,
0100
0010
0100
0010
,
0100
0010
0100
0010
0100
0000
0100
0000
,
0000
0010
1000
1000
,
0001
0001
1000
1000
,
0001
0101
0101
0010
,
0100
0010
1000
0010
,
0100
0110
0110
1000
,
0010
1000
0010
1000
0000
0000
0100
0000
,
0001
0010
0002
0000
,
2000
3003
0220
0000
,
0330
1000
1000
0010
,
0100
0001
0001
0100
,
0010
1000
1000
0100
,
1000
0010
0100
0001
,
0010
0001
0001
0100
,
0010
0000
1000
0000
0010
1000
0010
0000
,
0001
0100
0001
0000
0100
0000
0100
0000
,
0100
0110
1000
1000
,
1001
1001
0001
0100
,
0010
1000
0100
1000
,
0010
0100
0001
0010
,
0001
0100
0001
0010
,
0001
0100
0010
1000
,
0100
1000
0100
0000
0001
0000
0011
0000
,
0100
0101
0010
0010
,
0010
0110
0001
0001
,
0101
1100
0010
0010
,
0100
0000
0010
0100
0000
0010
0100
0000
,
0020
0030
1000
1000
,
0001
1000
0001
0001
,
0100
0100
0100
0000
0100
0000
0100
0000
,
0010
0000
0100
0010
0000
0100
0010
0000
,
0200
0300
0001
0001
,
1000
0001
1000
1000
,
0010
0010
0010
0000
1000
0000
0100
0000
,
0010
0010
0010
0000
0001
0000
0010
0000
,
0100
0100
0100
0000
1000
0000
0010
0000
,
1000
1000
1000
0000
1001
0000
1001
0000
,
0010
0000
0010
0000
0200
0000
0300
0020
,
0000
0030
2000
0000
3000
0002
0000
0003
,
1000
1000
1100
1100
,
0010
0000
0001
0010
0000
0000
0100
0000
,
0100
0100
0001
0001
,
1000
1000
0001
0001
,
1000
1010
1010
0100
,
0010
0100
0001
0100
,
0010
0110
0110
0001
,
0100
0001
0100
0001
0000
0000
0010
0000
,
1000
0100
2000
0000
,
0002
3003
0220
0000
,
0330
0001
0001
0100
,
0010
1000
1000
0010
,
0100
0001
0001
0010
,
0001
0100
0010
1000
,
0100
1000
1000
0010
,
0100
0000
0001
0000
0100
0001
0100
0000
,
1000
0010
1000
0000
0010
0000
0010
0000
,
0010
0110
0001
0001
,
1001
1001
1000
0010
,
0100
0001
0010
0001
,
0100
0010
1000
0100
,
1000
0010
1000
0100
,
1000
0010
0100
0001
,
0010
0001
0010
0000
1000
0000
1100
0000
,
0010
1010
0100
0100
,
0100
0110
1000
1000
,
1010
0101
2002
0000
,
0000
0000
0000
3003
2000
0000
3000
0000
,
0020
0030
2000
0100
,
0100
0000
3010
0000
0001
0000
0010
0001
,
0010
0000
0100
0000
0000
0010
0100
0000
,
0100
0000
0000
0000
1000
0000
0000
0100
,
1100
0000
0010
0000
0200
0000
0000
0010
,
0000
0310
0100
0010
,
0110
1010
0001
0100
,
0202
0000
0303
0000
1000
0100
1000
0000
,
0022
0000
0033
0000
0010
0001
0010
0000
,
2200
3300
0010
0100
,
0220
0000
0330
0000
0000
1000
0100
0000
,
0220
0330
0001
0010
,
2200
3300
1000
0100
,
0022
0000
0033
0000
2000
3000
0200
0300
,
0020
0000
0030
0000
0002
0000
0003
0000
2002
0000
0000
3003
1000
0000
0100
0000
,
0010
0100
0001
0010
0100
1000
0100
0010
,
0001
0010
0100
0010
0001
0010
1000
0100
,
0010
0100
0010
0001
0010
0100
1000
1000
,
1000
1100
0001
0001
0011
0011
1000
0000
,
0100
1000
0100
0010
,
0001
0010
0001
0100
,
0010
1000
0100
0020
,
0130
0200
0310
0001
,
0100
0010
0100
0000
1000
0000
0010
0000
,
0001
0010
0001
0000
1000
0000
0010
0000
,
0100
0010
1100
0001
,
0100
1001
0110
0100
,
0100
0000
0010
0000
0100
0010
0000
0100
,
0010
0200
0300
0001
,
0001
1000
0001
1000
,
1000
0000
0010
0010
0010
0000
0010
0000
,
0010
0000
0100
0000
0010
0100
0000
0010
,
0100
0020
0030
1000
,
1000
0001
1000
0001
,
0001
0000
0100
0100
0100
0000
0010
0000
,
0010
0000
0100
0010
0100
0010
0000
1000
,
0100
0220
0000
0330
;

//---------------dance-single - ----------------
#NOTES:
     dance-single:
     :
     Easy:
     5:
     0.278,0.347,0.061,0.127,0.000:
0000
0000
0000
0000
,
0000
0000
0000
0000
,
0000
0000
1000
0000
,
1000
0000
1000
0000
,
1000
0000
0001
0001
,
0010
0000
0100
0100
,
0020
0030
0100
0100
,
0010
0000
1000
1000
,
0100
0100
1000
1000
,
1000
0000
0010
0010
,
0200
0300
0100
0100
,
0010
0010
0001
1000
,
0001
0100
0010
0000
,
0010
0000
0100
0010
,
1000
0100
1000
0000
,
1000
0000
0010
0100
,
0001
0010
0002
0000
,
1000
1000
1003
0000
,
1000
0010
0200
0000
,
0010
0010
0310
1000
,
0000
0010
0100
0000
,
0100
0000
0001
0000
,
1000
0010
1000
0000
,
1000
0000
0100
0000
,
1000
0010
1010
0000
,
0101
0001
0001
0000
,
1000
0100
1000
0000
,
0010
0100
0220
0000
,
0000
0330
1000
0000
,
1000
0000
0100
0010
,
0100
0000
0001
0000
,
0001
0000
0010
0001
,
0010
0000
0100
0000
,
0100
0000
0010
1000
,
0010
0000
0100
0100
,
0100
0100
0010
0010
,
0010
0010
0001
1000
,
0010
0000
0100
0100
,
0010
0000
1000
1000
,
0100
0000
0010
0010
,
0100
0000
0001
0001
,
0010
0000
0100
0100
,
0010
0000
1000
0010
,
1000
0010
0100
0001
,
0100
0100
1000
1000
,
0100
0000
0010
0010
,
0200
0300
0010
0010
,
0100
0000
0001
0001
,
0010
0010
0001
0001
,
0001
0000
0100
0100
,
0020
0030
0010
0010
,
0100
0100
1000
0001
,
1000
0010
0010
0000
,
0010
0000
0100
0000
,
0100
0000
0010
0000
,
0010
0000
1000
1000
,
0001
1000
2000
0000
,
3002
0000
0200
0303
,
1000
1000
0010
0200
,
0020
0000
0330
0100
,
0000
0100
0010
0000
,
0010
0000
1000
0000
,
0001
0100
0001
0000
,
0001
0000
0010
0000
,
0001
0100
0101
0000
,
1010
1000
1000
0000
,
0001
0010
0001
0000
,
0100
0010
0220
0000
,
0000
0330
0001
0000
,
0001
0000
0010
0100
,
0010
0000
1000
0000
,
1000
0000
0100
1000
,
0100
0000
0010
0000
,
0010
0000
0100
0001
,
0100
0000
0010
0010
,
0010
0010
0100
0100
,
0100
0100
1000
0001
,
0100
0000
0010
0010
,
0100
0000
0001
0001
,
0010
0000
0100
0100
,
0010
0000
1000
1000
,
0100
0000
0010
0010
,
0100
0000
0001
0100
,
0001
0100
0010
1000
,
0010
0010
2002
0000
,
0000
3003
1000
0000
,
1000
0000
0010
0000
,
0010
0000
0100
0100
,
0100
0000
0001
0001
,
0002
1003
0200
0000
,
0310
0000
0001
0000
2000
0000
0000
0001
,
0000
3001
0100
0100
,
0100
0000
0010
0010
,
0220
0330
1000
0100
,
1000
0000
0010
0001
,
0010
0000
0100
0010
,
0100
0000
1000
1000
,
1010
0000
0001
0100
,
0010
0000
1000
0100
,
0010
0000
0001
0010
,
0100
0000
0000
0000
0010
0000
0000
0000
0200
0000
0000
0300
1000
0000
0000
0000
,
0100
1000
0100
0010
,
0001
0010
0001
0100
,
0010
0000
0100
0010
0100
0000
1000
1000
,
1000
0100
0001
0001
0010
0001
1000
0000
,
0100
0010
0100
0001
,
0010
0001
0010
1000
,
0100
1000
0100
0010
,
0100
0010
0100
0001
,
0010
0001
0010
0100
,
0010
0001
0010
1000
,
1000
1000
1100
0010
,
0010
0011
0011
1000
,
1000
0100
0000
0010
,
0010
0200
0300
0010
,
0010
0100
0000
0001
,
0001
0010
0010
0001
,
0001
0001
0000
0100
,
0100
0020
0030
0010
,
0010
0100
0100
1000
,
0001
1000
0010
1000
,
1000
0000
0100
0000
0000
0010
0000
0000
,
0001
0220
0000
0330
;

//---------------dance-single - Copied from----------------
#NOTES:
     dance-single:
     Copied from:
     Beginner:
     1:
     0.059,0.142,0.014,0.005,0.000:
0000
0000
0000
0000
,
0000
0000
0000
0000
,
0000
0000
0000
0000
,
0000
0000
0000
0000
,
0000
0000
1000
0000
,
0000
0000
0000
0000
,
0000
0000
0000
0000
,
0000
0000
0000
0000
,
0000
0000
0001
0000
,
0000
0000
0000
0000
,
0000
0000
0000
0000
,
0000
0000
0000
0000
,
0000
0000
1000
0000
,
0000
0000
1000
0000
,
0000
0000
0001
0000
,
0000
0000
0001
0000
,
0000
0000
0100
0000
,
0000
0000
0000
0000
,
0000
0000
0010
0000
,
0000
0000
0000
0000
,
0000
0000
0010
0000
,
0000
0000
0010
0000
,
0000
0000
0100
0000
,
0000
0000
0100
0000
,
0000
0000
0001
0000
,
0000
0000
0000
0000
,
0000
0000
1000
0000
,
1000
0000
0100
0000
,
0000
0000
0010
0000
,
0000
0000
0000
0000
,
0000
0000
0010
0000
,
0000
0000
0000
0000
,
0000
0000
0010
0000
,
0000
0000
0000
0000
,
0000
0000
0100
0000
,
0000
0000
0100
0000
,
0100
0000
0010
0000
,
0000
0000
0000
0000
,
0000
0000
0010
0000
,
0000
0000
0000
0000
,
0000
0000
0010
0000
,
0000
0000
0000
0000
,
0000
0000
0100
0000
,
0000
0000
0100
0000
,
0100
0000
0001
0000
,
0000
0000
0000
0000
,
0000
0000
0000
0000
,
0000
0000
0000
0000
,
0000
0000
1000
0000
,
0000
0000
0000
0000
,
0000
0000
0000
0000
,
0000
0000
0000
0000
,
0000
0000
0100
0000
,
0000
0000
0000
0000
,
0000
0000
0010
0000
,
0000
0000
0000
0000
,
0000
0000
1000
0000
,
0000
0000
0000
0000
,
0001
0000
0001
0000
,
0000
0000
0100
0000
,
0000
0000
0010
0000
,
0000
0000
0010
0000
,
0000
0000
0100
0000
,
0000
0000
0100
0000
,
0000
0000
0001
0000
,
0000
0000
0000
0000
,
0000
0000
1000
0000
,
1000
0000
0100
0000
,
0000
0000
0100
0000
,
0000
0000
0000
0000
,
0000
0000
0100
0000
,
0000
0000
0000
0000
,
0000
0000
0100
0000
,
0000
0000
0000
0000
,
0000
0000
0010
0000
,
0000
0000
0010
0000
,
0010
0000
0100
0000
,
0000
0000
0000
0000
,
0000
0000
0100
0000
,
0000
0000
0000
0000
,
0000
0000
0100
0000
,
0000
0000
0000
0000
,
0000
0000
0010
0000
,
0000
0000
0010
0000
,
0010
0000
0200
0000
,
0000
0300
0010
0000
,
0000
0000
0000
0000
,
0000
0000
0100
0000
,
0000
0000
0000
0000
,
0000
0000
1000
0000
,
0000
0000
0000
0000
,
0000
0000
0001
0000
,
0000
0000
0000
0000
,
0000
0000
0100
0000
,
0000
0000
0100
0000
,
0000
0000
0010
0000
,
0000
0000
0010
0000
,
0000
0000
1000
0000
,
0000
0000
0001
0000
,
0000
0000
1000
0000
,
1000
0000
1001
0100
,
0000
0000
0000
0000
,
0000
0000
0000
0000
,
0000
0000
0000
0000
,
0000
0000
0000
0010
,
0000
0000
0000
0000
,
0000
0000
0000
0010
,
0000
0000
0000
0000
,
0000
0000
0000
0010
,
0000
0000
0000
0000
,
0000
0000
0000
1000
,
0001
1000
0000
0001
,
1000
1001
0000
0100
,
0000
0000
0000
0000
,
0000
0000
0000
0000
,
0000
0000
0000
0000
,
0000
0000
0000
0010
,
0000
0000
0000
0000
,
0000
0000
0000
0000
,
0000
0000
0000
0000
,
0000
0000
0000
1001
;
