#TITLE:Zorra;
#SUBTITLE:;
#ARTIST:Nebulossa;
#TITLETRANSLIT:;
#SUBTITLETRANSLIT:;
#ARTISTTRANSLIT:;
#GENRE:;
#CREDIT:;
#MUSIC:ZORRA.mp3;
#BANNER:ZORRA.png;
#BACKGROUND:ZORRA-bg.png;
#CDTITLE:;
#SAMPLESTART:38.525;
#SAMPLELENGTH:14.538;
#SELECTABLE:YES;
#OFFSET:-0.448;
#BPMS:0.000=130.000;
#STOPS:;
#BGCHANGES:0.000=ZORRA.avi=1.000=1=0=1===CrossFade==,
99999.000=-nosongbg-=1.000=0=0=0=StretchNoLoop====
;
#FGCHANGES:;

//--------------- dance-single - ----------------
#NOTES:
     dance-single:
     :
     Medium:
     8:
     0,0,0,0,0:
0000
0000
0000
0000
,
0000
0000
0000
0000
,
0000
0000
0000
0000
,
0000
0000
0000
0000
,
0000
0000
0000
0000
0000
0010
1000
0000
,
0001
0010
0001
0001
,
0001
0000
0001
0000
0000
1000
0010
1000
,
0010
0000
0001
0100
0001
0100
0000
0000
,
0010
0000
0010
0000
0000
0001
1000
0001
,
0000
1000
0001
0010
0100
1000
0000
0000
,
0100
0000
0100
0000
0000
0001
0010
0001
,
0010
0000
1000
0100
1000
0100
0000
0000
,
0001
0000
0001
0000
0000
0100
0010
0100
,
0010
0000
1000
0001
1000
0001
0000
0000
,
0000
0000
0100
0001
0000
1000
0010
1000
,
0010
0000
0100
1000
0100
0010
0000
0000
,
0000
0001
0100
0000
0000
0010
0100
0010
,
0100
0010
0001
0010
0100
1000
0000
0000
,
0010
0000
0010
0000
0000
1000
0100
0010
,
0100
1000
0001
1000
0001
0100
0100
0000
,
0010
0010
0100
0010
0000
1000
0100
0010
,
0001
1000
0100
0010
0001
0000
0100
0000
,
0010
0000
0100
0000
0000
0010
1000
0000
,
1000
0100
1000
0010
0100
0010
0000
0000
,
0001
0000
0001
0000
0000
1000
0010
1000
,
0001
1000
0010
1000
0000
0100
0001
0100
,
0000
0010
0001
0010
0001
0000
0000
0010
,
1000
0010
1000
0000
0200
0000
0320
0000
,
0230
0320
0030
1000
,
0010
0001
0010
1000
,
1000
0000
1000
0000
0010
0000
0100
0001
,
0100
1000
1000
0001
,
0001
0000
0000
0000
0000
0100
0001
0100
,
0001
0000
1000
0001
1000
0010
0000
0000
,
0100
0100
0000
1000
,
0100
0010
0001
0100
,
0100
0000
0100
0000
0000
0010
1000
0010
,
1000
0000
0000
0000
0010
0000
0100
0000
0010
0000
0100
0000
0001
0000
0000
0001
,
0000
0000
0010
0000
0000
1000
0001
0001
,
1000
0000
0000
0000
0010
0000
1000
0000
0010
0000
1000
0000
0001
0000
0000
0001
,
0000
0100
0010
0001
,
0010
0000
0100
1000
0100
1000
0000
0000
,
0010
0000
0010
0000
0000
0100
0001
0100
,
0001
0000
1000
0001
1000
0001
0000
0000
,
0010
0000
0010
0000
0000
0100
0010
0100
,
0001
0100
0010
0100
0000
0020
0000
0000
,
0000
0000
0000
0000
0030
1000
0010
1000
,
0001
1000
0001
0010
0000
2000
0000
0000
,
0000
0000
0000
0000
3000
0001
0000
0010
,
0100
0010
1000
0010
0000
0100
0010
0100
,
0000
0010
1000
0010
1000
0010
0000
1000
,
0001
1000
0100
1000
0002
0000
0023
0000
,
0230
0000
2300
0000
3000
0100
0010
0100
,
1000
0000
0001
0000
0100
0000
0001
0000
0100
0000
0000
0000
0010
0000
0000
0010
,
0000
0000
0100
0000
0100
0000
0001
1000
,
0010
0000
1000
0000
0010
0000
0100
0000
0010
0000
0000
0000
0001
0000
0000
0001
,
0000
0000
1000
0000
1000
0000
0001
0100
,
0001
0100
0010
0001
0000
0001
0000
1000
,
0000
1000
0010
0100
0000
0010
1000
0010
,
1000
0010
0001
1000
,
0010
0100
0001
0100
,
0010
0000
0002
0000
0000
0003
0110
0000
,
0110
0000
0110
0000
0000
0100
0001
0100
,
0000
0010
1000
0010
1000
0000
0101
0000
,
0101
0000
0101
0000
0000
0100
0001
0100
,
0010
0100
0010
1000
0000
0001
0010
0100
,
0001
1000
0001
0100
0000
0001
1000
0100
,
1000
0001
0010
0100
0000
0000
0002
0000
,
0023
0230
2300
3000
,
0000
0010
0100
0010
0000
0000
0110
0000
,
0110
0000
0110
0000
0000
0100
0010
1000
,
0010
0100
0001
1000
0100
0000
0011
0000
,
0011
0000
0011
0000
0000
0010
1000
0010
,
0100
0010
1000
0010
0000
0000
0100
0001
,
0100
0010
0100
0001
0100
0000
0010
1000
,
0010
1000
0001
0010
0001
0000
1000
0000
,
1000
1000
1000
0100
,
0100
0100
0100
0001
,
0001
0001
0000
0000
;

//--------------- dance-single - mekacat ----------------
#NOTES:
     dance-single:
     mekacat:
     Hard:
     12:
     0,0,0,0,0:
0000
0000
0000
0000
,
0000
0000
0000
0000
,
0000
0000
0000
0000
,
0000
0000
0000
0000
,
0000
0000
0000
0000
0000
0000
0000
0000
0000
0000
0010
0000
1000
0000
0100
1000
,
0000
0001
0100
0000
0010
0000
0100
0000
0001
0000
0010
0000
0001
0000
0100
0010
,
0100
0010
0001
1000
0001
1000
0010
1000
,
0010
0000
0100
0000
0001
0000
0100
0000
0001
0000
0100
0000
1000
0000
0100
0010
,
0100
0010
1000
0100
0000
0001
1000
0001
,
0100
0010
1000
0100
0100
1000
0010
1000
,
0100
0001
0100
0100
0100
0001
0100
0001
,
0100
0001
1000
0010
1000
0100
0010
1000
,
0001
0100
0001
1000
0001
0100
0010
0100
,
0010
0001
1000
0010
0100
0001
1000
0100
,
1000
0000
0001
0000
0100
0000
0001
0000
0001
0000
0010
0001
0010
0000
1000
0000
,
0010
0000
0100
0000
1000
0000
0100
0000
1000
0000
0010
0000
1000
0100
0001
0000
,
0000
0001
0100
1000
1000
0010
1000
0010
,
0100
0010
0100
1000
0001
1000
0010
0100
,
0010
0000
0010
0000
0010
1000
0100
0010
,
0100
1000
0001
1000
0001
0100
0100
0100
,
0010
0010
0100
0010
0000
1000
0100
0010
,
0001
0000
1000
0000
0100
0000
0010
0000
0001
0000
1000
0000
0100
0000
0010
0001
,
0010
0000
0100
0010
0100
0000
1000
0000
1000
0000
0010
0000
1000
0000
0001
0000
,
1000
0000
0100
0000
1000
0000
0010
0000
0100
0000
0001
0010
0001
0000
0100
1000
,
0100
0010
0001
0100
0010
1000
0010
1000
,
0001
1000
0010
1000
0000
0100
0001
0100
,
0000
0010
0001
0010
0001
1000
0000
0010
,
1000
0010
1000
0001
0200
1000
0320
0000
,
2030
0000
3020
0000
0030
0100
1000
0001
,
0010
0000
0001
1000
0010
0001
1000
0100
,
1000
0010
1000
0001
0010
0000
0100
0001
,
0100
0001
1000
0100
1000
0000
0001
1000
,
0001
0010
0001
0000
0100
0000
0100
0000
0000
0000
0100
0000
0001
0000
0100
0000
,
0001
0010
1000
0001
1000
0010
0000
0010
,
0100
0010
0100
0010
0100
0000
1000
0010
,
0100
1000
0010
0100
0001
0010
0100
1000
,
0100
0010
0100
0000
1000
0000
0100
0000
0000
0000
0010
0000
1000
0000
0010
0000
,
1000
0000
0001
0000
0010
0000
0100
0000
0010
0000
0100
0000
1001
0000
0000
1001
,
0000
0000
0010
0000
0010
1000
0001
0001
,
1000
0000
0000
0000
0010
0000
1000
0000
0010
0000
1000
0000
0101
0000
0000
0101
,
0000
0000
0100
0000
0010
1000
0001
1000
,
0010
0000
0100
1000
0100
1000
0001
0100
,
0010
0100
1000
0000
0000
0100
0001
0100
,
0001
0000
0000
0000
1000
0000
0100
0000
0010
0000
0001
0000
1000
0000
0000
0100
,
0010
0100
0000
0000
0010
0000
0100
0000
0001
0000
0100
0000
0010
0000
0100
0000
,
0001
0100
1000
0100
0000
0020
0000
0000
,
0000
0000
0000
0000
0000
0000
0000
0000
0030
0000
1000
0010
0000
0010
1000
0000
,
0001
0010
1000
0010
0001
0000
0010
0000
0100
0000
2000
0000
0000
0000
0000
0000
,
0000
0000
0000
0000
0000
0000
0000
0000
3000
0000
0001
0100
0001
0000
0010
0000
,
0100
0000
1000
0010
1000
0000
0010
0000
1000
0000
0001
0000
0010
0000
0001
0000
,
0100
0010
1000
0010
1000
0010
0000
1000
,
0001
0000
0000
0000
0000
0000
0000
0000
0000
0000
0000
0000
0000
0000
0000
0000
0000
0000
0000
0000
0000
0000
0000
0000
1000
0000
0000
0000
0000
0000
0000
0000
0000
0000
0000
0000
0000
0000
0000
0000
0000
0000
0000
0000
0000
0000
0000
0000
0100
0000
0000
0000
0000
0000
0000
0000
0000
0000
0000
0000
0000
0000
0000
0000
0000
0000
0000
0000
0000
0000
0000
0000
1000
0000
0000
0000
0000
0000
0000
0000
0000
0000
0000
0000
0000
0000
0000
0000
0000
0000
0000
0000
0000
0000
0000
0000
2002
0000
0000
0000
0000
0000
0000
0000
0000
0000
0000
0000
0000
0000
0000
0000
0000
0000
0000
0000
0000
0000
0000
0000
0000
0000
0000
0000
0000
0000
0000
0000
0000
0000
0000
0000
0000
0000
0000
0000
0000
0000
0000
0000
0000
0000
0000
0000
3223
0000
0000
0000
0000
0000
0000
0000
0000
0000
0000
0000
0000
0000
0000
0000
0000
0000
0000
0000
0000
0000
0000
0000
0000
0000
0000
0000
0000
0000
0000
0000
0000
0000
0000
0000
0000
0000
0000
0000
0000
0000
0000
0000
0000
0000
0000
0030
,
0322
0000
2233
0000
3300
0100
0010
0100
,
1000
0000
0001
0000
0100
0000
0001
0000
0100
0000
0000
0000
1010
0000
0000
1010
,
0000
0000
0001
0000
0100
0010
0100
0000
1000
0100
1000
0000
0001
0000
1000
0000
,
0010
0000
1000
0000
0010
0000
0100
0000
0001
0000
1000
0000
0011
0000
0000
0011
,
0000
0000
0010
0000
1000
0000
0000
0100
1000
0000
0100
0000
0001
0000
0100
0000
,
0001
0100
0010
0001
0000
0001
0010
1000
,
0000
1000
0010
0100
0000
0010
1000
0010
,
1000
0100
0010
0000
0001
0000
1000
0000
,
0010
0100
0001
0100
,
0010
1000
0002
0000
0000
0003
0110
0000
,
1100
0000
0000
0000
0011
0000
1000
0000
0000
0000
0100
0000
0001
0000
0100
0010
,
0000
0010
1000
0010
1000
0000
0101
0000
,
1001
0000
0011
0010
0000
0100
0001
0100
,
0010
0100
0010
1000
0010
0001
0010
0100
,
0001
1000
0001
0100
0100
0001
1000
0100
,
1000
0000
0000
0000
0000
0000
0000
0000
0000
0000
0000
0000
0001
0000
0000
0000
0000
0000
0000
0000
0000
0000
0000
0000
0010
0000
0000
0000
0000
0000
0000
0000
0000
0000
0000
0000
0100
0000
0000
0000
0000
0000
0000
0000
0000
0000
0000
0000
1000
0000
0000
0000
0000
0000
0000
0000
0000
0000
0000
0000
0000
0000
0000
0000
0000
0000
0000
0000
0000
0000
0000
0000
2002
0000
0000
0000
0000
0000
0000
0000
0000
0000
0000
0000
0000
0000
0000
0000
0000
0000
0000
0000
0000
0000
0000
3000
,
2023
0000
0000
0000
0000
0000
0000
0000
0000
0000
0000
0000
0000
0000
0000
0000
0000
0000
0000
0000
0000
0000
0000
0000
0000
0000
0000
0000
0000
0000
0000
0000
0000
0000
0000
0000
0000
0000
0000
0000
0000
0000
0000
0000
0000
0000
0000
3000
0232
0000
0000
0000
0000
0000
0000
0000
0000
0000
0000
0000
0000
0000
0000
0000
0000
0000
0000
0000
0000
0000
0000
0000
0000
0000
0000
0000
0000
0000
0000
0000
0000
0000
0000
0000
0000
0000
0000
0000
0000
0000
0000
0000
0000
0000
0000
0000
2303
0000
0000
0000
0000
0000
0000
0000
0000
0000
0000
0000
0000
0000
0000
0000
0000
0000
0000
0000
0000
0000
0000
0000
0010
0000
0000
0000
0000
0000
0000
0000
0000
0000
0000
0000
0000
0000
0000
0000
0000
0000
0000
0000
0000
0000
0000
0000
3010
0000
0000
0000
0000
0000
0000
0000
0000
0000
0000
0000
0000
0000
0000
0000
0000
0000
0000
0000
0000
0000
0000
0000
0100
0000
0000
0000
0000
0000
0000
0000
0000
0000
0000
0000
0000
0000
0000
0000
0000
0000
0000
0000
0000
0000
0000
0000
,
1000
0010
0100
0010
0001
0000
0110
0000
,
1010
0000
0011
0100
0000
1000
0010
1000
,
0010
0100
0001
1000
0100
0000
1001
0000
,
0101
0000
0011
0000
0000
0010
1000
0010
,
0100
0010
1000
0010
0001
1000
0100
0001
,
0100
0010
0100
0001
0100
0100
0010
1000
,
0010
1000
0001
0010
1001
0000
1000
1000
,
1000
0010
1000
0100
1010
0000
0100
0001
,
0100
0001
0100
1000
0101
1000
0001
0010
,
0001
0100
0001
0000
0000
0000
0000
0000
;
