#TITLE:Spinning over you;
#SUBTITLE:;
#ARTIST:Reyko;
#TITLETRANSLIT:;
#SUBTITLETRANSLIT:;
#ARTISTTRANSLIT:;
#GENRE:;
#CREDIT:;
#MUSIC:Spinning Over You.mp3;
#BANNER:banner.png;
#BACKGROUND:background.png;
#CDTITLE:;
#SAMPLESTART:59.916;
#SAMPLELENGTH:18.900;
#SELECTABLE:YES;
#OFFSET:-0.216;
#BPMS:0.000=200.000;
#STOPS:;
#BGCHANGES:3.100=Spinning Over You.avi=1.000=0=0=1,
99999.000=-nosongbg-=1.000=0=0=0=StretchNoLoop====
;
#FGCHANGES:;

//--------------- dance-single - mekacat ----------------
#NOTES:
     dance-single:
     mekacat:
     Medium:
     11:
     0,0,0,0,0:
0000
0000
0000
0000
,
0000
0000
0000
0000
,
0000
0000
0000
0000
,
0000
0000
0000
0000
,
0000
0000
0000
0000
,
0000
0000
0000
0010
,
0001
0000
0010
0000
0100
0000
0000
0010
,
0000
0000
1000
0000
1000
0000
0000
0010
,
0000
0000
0100
0000
0010
0000
0000
0100
,
0000
0010
1000
0010
,
0100
0000
0001
0000
0100
0000
0000
0010
,
1000
0000
0100
0000
0010
0000
0000
0001
,
0000
0000
0001
0000
1000
0000
0000
0001
,
0000
0000
0100
0000
0010
0000
1000
0100
,
0000
0010
0100
0000
0010
0000
0000
0100
,
0010
0000
0001
0000
0010
0000
0000
0010
,
0000
0100
0100
0001
,
0000
0000
0001
0000
0100
0000
0100
0010
,
0100
1000
0100
0001
,
0010
0000
0100
0000
1001
0000
0100
0001
,
0100
0000
0010
0000
1000
0000
0000
0001
,
0100
0000
0010
0000
1000
0000
0010
0100
,
0000
0100
0000
0001
1000
0000
0000
0100
,
0000
0000
0010
0000
0001
0000
0000
1000
,
0000
0000
0001
0000
0001
0000
0000
0100
,
0001
1000
0100
0000
0001
0000
1000
0100
,
0010
0000
0100
0000
0001
0100
0000
0010
,
0100
1000
0001
0000
0100
0100
0000
0010
,
0010
0000
1000
0100
1000
0000
0001
0010
,
0001
0100
1000
0001
,
0010
0100
0000
0010
0000
0000
1000
0000
,
0001
0100
0001
0010
0000
0000
0100
0001
,
1000
0000
0100
0000
0100
0000
0010
0100
,
0010
0000
0100
0000
0100
0000
1000
0010
,
1000
0000
0100
0000
0100
0000
0010
0001
,
0010
0000
0100
0000
1000
0000
0000
1000
,
0000
0000
0010
0000
0100
0000
0000
0002
0000
0000
0000
0000
0003
0000
0100
0000
,
0000
0000
0000
0000
0001
0000
0000
2000
0000
0000
0000
0000
3000
0000
0010
0000
,
0000
0000
0000
0000
0100
0000
0000
0002
0000
0000
0000
0000
0003
0000
0010
0000
,
0000
0000
0100
0001
0100
0000
0000
1000
,
0000
0000
0001
0000
0100
0000
0000
0020
0000
0000
0000
0000
0030
0000
1000
0000
,
0000
0000
0000
0000
0010
0000
0000
0200
0000
0000
0000
0000
0300
0000
0010
0000
,
0000
0000
0000
0000
1000
0000
0000
0002
0000
0000
0000
0000
0003
0000
0010
0000
,
0000
0000
0100
0001
0100
0000
0000
0010
,
0000
0000
0000
0000
1000
0000
0000
0200
0000
0000
0000
0000
0300
0000
1000
0000
,
0000
0000
0001
0000
0020
0000
0030
0100
,
0000
0000
0020
0000
0030
0000
1000
0020
,
0000
0030
0200
0010
,
0010
0010
0040
0000
,
0000
0000
0000
0000
0330
0000
1000
0001
,
0000
0001
0000
1000
0000
0010
0000
1000
,
0100
0000
2002
3003
,
1010
0101
0020
0030
,
1010
0000
0101
0000
1000
0000
0010
0001
,
0010
0000
0100
1000
0100
0000
0000
0010
,
0000
0010
0000
0000
0100
0000
0010
1000
,
0010
0000
0100
0001
0100
0000
0000
1000
,
0000
1000
0000
0000
0010
0000
1000
0100
,
0010
0000
1000
0000
0020
0000
0030
1000
,
0001
0000
0202
0303
,
1010
0011
0200
0300
,
1100
0000
0101
0000
0100
0000
1000
0010
,
1000
0000
0001
1000
0001
0000
0000
0100
,
0000
0100
0000
0000
1000
0000
0001
0010
,
0001
0000
0100
0010
0100
0000
0000
1000
,
0000
1000
0000
0000
0010
0000
0000
0010
,
0000
0000
0000
0000
0010
0000
0000
0010
,
0000
0000
1000
1000
1000
0000
0001
0001
,
0000
0100
0100
0001
,
0000
0000
0010
0010
0000
0000
0000
0000
,
0100
0000
0000
0000
0010
0000
0000
2000
0000
0000
0000
0000
3000
0000
0001
0000
,
0000
0000
0000
0000
0000
0000
0000
0200
0000
0000
0000
0000
0300
0000
0001
0000
,
0000
0000
0000
0000
0000
0000
0000
0020
0000
0000
0000
0000
0030
0000
1000
0000
,
0000
0200
0000
0300
,
0100
0000
0010
0001
1000
0000
0000
0100
,
0000
0000
0010
0000
,
0010
0000
0001
0000
,
0100
0000
0010
1000
0010
0000
0000
0001
,
0000
0000
1000
0000
0000
0000
0000
0020
0000
0000
0000
0000
0030
0000
1000
0000
,
0000
0000
0020
0000
0030
0100
0000
0000
,
0020
0000
0030
0100
0000
0000
2000
0000
,
0000
3000
0020
0100
,
0100
0100
0400
0000
,
0000
0000
0000
0000
,
0000
0000
0000
0000
,
0000
0000
0000
0000
0330
0000
1000
0010
,
0000
0010
0000
0100
0000
0010
0000
0001
,
0100
0000
2002
3003
,
0011
1100
0020
0030
,
1100
0000
0011
0000
0001
0000
0010
1000
,
0010
0000
0100
0001
0100
0000
0000
0010
,
0000
0010
0000
0000
0100
0000
0010
0100
,
0010
0000
0100
1000
0100
0000
0000
0001
,
0000
0001
0000
0000
0010
0000
0001
0100
,
0010
0000
0001
0000
0020
0000
0030
0001
,
1000
0000
2200
3300
,
0011
1010
0200
0300
,
0101
0000
1010
0000
0100
0000
0001
0010
,
0001
0000
0001
1000
0001
0000
0000
0100
,
0000
0100
0000
0000
0001
0000
0010
1000
,
0010
0000
0100
0010
0100
0000
0000
0001
,
0000
0001
0000
0000
1000
0000
0000
0010
,
0000
0000
1000
0001
,
0010
0000
2020
3030
,
1100
0101
0020
0030
,
1010
0000
0101
0000
0001
0000
0010
0100
,
0010
0000
1000
0001
1000
0000
0000
0010
,
0000
0010
0000
0000
1000
0000
0001
0010
,
0001
0000
0100
1000
0100
0000
0000
0100
,
0000
0100
0000
0000
0010
0000
1000
0100
,
0010
0000
0100
0010
0100
0000
0000
0001
,
0100
0000
0000
2020
0000
0000
0000
0000
,
0000
3030
0000
0000
;
