#TITLE:Picaflor;
#SUBTITLE:;
#ARTIST:Lao Ra;
#TITLETRANSLIT:;
#SUBTITLETRANSLIT:;
#ARTISTTRANSLIT:;
#GENRE:;
#CREDIT:Mekacat;
#MUSIC:Picaflor Lao Ra C. Tangana.mp3;
#BANNER:banner.jpg;
#BACKGROUND:background.jpg;
#CDTITLE:;
#SAMPLESTART:99.002;
#SAMPLELENGTH:17.449;
#SELECTABLE:YES;
#OFFSET:-0.124;
#BPMS:0.000=196.000;
#STOPS:;
#BGCHANGES:0.000=Picaflor.avi=1.000=1=0=1,
99999=-nosongbg-=1.000=0=0=0 // don't automatically add -songbackground-
#FGCHANGES:;

//--------------- dance-single - Mekacat ----------------
#NOTES:
     dance-single:
     Mekacat:
     Medium:
     8:
     0,0,0,0,0:
0000
0000
0000
0000
,
0000
0000
0000
0000
,
0000
0000
0000
0000
,
0000
0000
0000
0000
,
0000
0000
0000
0000
,
0000
0000
0000
0000
,
0000
0000
0000
0000
,
1000
0001
0010
0001
,
0000
0100
0010
1000
,
0010
0200
0000
0300
,
0000
0000
0000
0000
,
0010
0001
0010
0100
,
0001
0010
1000
0010
,
1000
0020
0000
0030
,
0000
0000
1000
0001
,
1000
0010
0010
0000
,
0010
0001
0010
0001
,
1000
0001
0001
0000
,
0010
0100
1000
0001
,
0010
0100
1000
1000
,
0010
0010
1000
0001
,
0100
0000
0001
0001
,
0100
0100
0000
0000
,
0000
1000
0100
0010
,
0100
0010
0001
0000
,
0010
0100
1000
0100
,
1000
0001
0010
0000
,
1000
0010
0100
0001
,
0010
1000
0100
0000
,
0010
0100
0010
1000
,
0010
0100
1000
0000
,
0000
0000
0010
0000
0000
0010
0000
0000
,
0100
0000
0010
0000
0000
0001
0000
0000
,
0020
0000
0030
0000
,
1000
1000
0010
0100
,
0100
0001
0100
0002
,
0000
0003
0100
0000
,
0020
0000
0030
0000
,
0010
1000
0100
0010
,
0001
0000
0200
0000
0000
0310
0000
0000
,
0001
0000
0020
0000
0000
1030
0000
0000
,
0001
0000
0200
0000
0000
0301
0000
0000
,
1000
0100
1000
0001
,
0001
0000
0100
0000
0000
0100
0000
0000
,
0010
0000
1000
0000
0000
0001
0000
0000
,
0200
0000
0310
0000
,
0000
0000
0000
1001
,
0000
0010
0100
0001
,
0100
0001
0010
0100
,
0000
0001
0010
0001
,
0100
0001
1000
0010
,
0000
0001
1000
0010
,
1000
0001
1000
0100
,
0000
0001
0010
1000
,
0100
1000
0010
1000
,
0010
0000
1000
0100
,
1000
0010
1000
0001
,
0001
1000
1001
0000
,
0001
0010
0100
0010
,
0001
0110
1000
0001
,
1000
0001
0010
0100
,
0010
0100
0010
1000
,
0010
1010
0000
0010
,
0001
1000
0100
1000
,
0001
0001
0000
0010
,
0100
1000
0100
0010
,
0100
0100
0000
0010
,
0100
0010
0000
0100
,
0001
0100
0000
2000
,
3000
0100
0001
0010
,
0100
0000
0000
0000
,
0000
0010
0100
0010
,
0100
0010
0000
0100
,
0010
0100
0001
1000
,
0010
1000
0100
0000
,
0010
0100
1000
0100
,
1000
0100
0010
0000
,
0010
0100
0010
1000
,
0100
0010
0001
0010
,
1000
0001
1000
0100
,
1000
0100
0000
0100
,
0010
1000
0001
0010
,
0100
0100
0000
0100
,
0001
0100
0000
0010
,
1000
0010
0000
0100
,
0000
0010
1000
0001
,
1000
0011
0000
1100
,
0000
0100
0010
1000
,
0010
1000
0100
0010
,
0000
1000
0100
1000
,
0010
1000
0001
0100
,
0000
0001
1000
0001
,
0100
0010
1000
0010
,
0000
0100
0001
0100
,
0010
1000
0010
1000
,
0010
0001
0100
0010
,
1000
0010
0100
0010
,
0101
0000
0100
0010
,
0100
1000
0100
1000
,
0001
0010
0001
0010
,
0100
1000
0001
1000
,
1010
0000
0000
0000
0000
0000
0010
0000
0010
0000
0000
0000
,
1000
0100
0010
0100
,
1000
0001
1000
0000
,
1000
0010
0100
0001
,
0100
0010
1000
0000
,
0001
0001
0100
0010
,
1000
0100
0001
0001
,
0100
0100
0010
1000
,
0001
0100
0010
0010
,
1000
1000
0000
0000
,
0000
0000
0100
0000
0000
0100
0000
0000
,
0010
0000
0100
0000
0000
0001
0000
0000
,
0200
0000
0300
0000
,
1000
1000
0100
0010
,
0010
0001
0010
0002
,
0000
0003
0100
0000
,
0200
0000
0300
0000
,
0100
1000
0010
0100
,
0001
0000
0020
0000
0000
0130
0000
0000
,
0001
0000
0200
0000
0000
1300
0000
0000
,
0001
0000
0020
0000
0000
0031
0000
0000
,
1000
0000
0010
0000
0000
1000
0000
0001
,
0000
0000
0010
0000
0000
0010
0000
0000
,
0100
0000
1000
0000
0000
0001
0000
0000
,
0010
0002
0000
0103
,
0000
0000
0000
0110
,
0000
0100
0010
1000
,
0010
1000
0100
0010
,
0000
1000
0100
1000
,
0010
1000
0001
0100
,
0000
0001
1000
0001
,
0100
0010
1000
0010
,
0000
0100
0001
0100
,
0010
0100
0100
0001
,
0001
0010
0100
1000
,
0001
1000
0010
0100
,
0000
0100
0010
0100
,
0010
1000
0100
1000
,
0000
0100
1000
0100
,
0001
0010
0100
0010
,
1000
0010
0000
0000
;

//--------------- dance-single - mekacat ----------------
#NOTES:
     dance-single:
     mekacat:
     Hard:
     13:
     0,0,0,0,0:
0000
0000
0000
0000
,
0000
0000
0000
0000
,
0000
0000
0000
0000
,
0000
0000
0000
0000
,
0000
0000
0000
0000
,
0000
0000
0000
0000
,
0000
0000
0000
0000
,
1000
0000
0001
0100
0010
1000
0001
0010
,
0000
0010
0100
0000
0010
0100
1000
0000
,
0010
0200
0000
0000
0301
0000
0000
0000
,
0001
0000
1000
0000
,
0010
0100
0001
0100
0010
0000
0200
0000
,
0301
0000
0010
0001
1000
0000
0010
0000
,
1000
0020
0000
0030
,
2000
3000
1000
0001
,
1000
0011
1100
0000
,
0010
0001
0010
0001
,
1000
1010
0101
0000
,
0010
0100
1000
0001
,
0010
0000
0100
0000
1000
0001
1000
0000
,
0010
0100
0010
0000
1000
0100
0010
0001
,
0100
0000
0000
0000
0001
0010
0001
0000
,
0100
1000
0100
0000
0000
0000
0000
0000
,
0000
0000
1000
0001
0100
0001
0010
1000
,
0010
0100
0010
0000
1001
0000
0000
0000
,
0010
0001
0100
0001
1000
0001
0100
0001
,
1000
0100
0001
0000
0010
0000
0000
0000
,
1000
0001
0010
0100
1000
0010
0001
0000
,
0010
0100
0010
0000
0000
0100
0000
0000
,
0010
0100
0010
0100
0010
0001
1000
0001
,
0010
0100
1000
0200
0000
0000
0300
0000
,
0000
0000
0010
0000
0000
0010
0000
0000
,
0100
0000
0010
0000
0000
0001
0000
0000
,
0020
0230
0300
0000
,
1001
1001
0010
0110
,
0110
0001
0100
0002
,
0023
0000
0030
0000
0100
0010
0000
0000
,
0020
2030
3000
0000
,
0010
1001
0100
1010
,
0101
0000
0200
0000
0000
0310
0000
0000
,
0001
0000
0020
0000
0000
1030
0000
0100
,
0001
1000
0200
0000
0000
0301
0000
0001
,
1000
0010
0001
0010
1000
0000
0001
0000
,
0001
0000
0101
0000
0000
0101
0000
0000
,
0010
0000
1000
0000
0000
1001
0000
0000
,
0200
0001
0310
0000
,
0000
0000
0000
1001
,
0000
0101
0100
0001
,
0100
0001
0010
0101
,
0000
0011
0010
0001
,
0100
0001
1000
0110
,
0000
1001
1000
0010
,
1000
0001
1000
0011
,
0000
1100
0010
1000
,
0100
1010
0011
1010
,
1001
0000
0000
0000
1000
0010
1000
0000
,
0100
0010
0100
0000
0010
0001
1000
0000
,
0001
0100
0010
0000
1001
0000
0000
0000
,
0001
1000
0010
1000
0001
0100
0001
1000
,
0001
0000
0110
0000
1000
0100
0001
0000
,
0001
0010
1000
0000
0010
0001
0100
0000
,
0010
1000
0100
0000
0010
0001
1000
0000
,
0010
0000
1010
0000
0000
0000
0001
1000
,
0001
1000
0010
1000
0001
0000
0010
0000
,
0100
0000
1000
0000
0000
0000
0010
1000
,
0100
0001
1000
0001
0100
1000
0010
0000
,
0100
0000
0100
0000
0000
0000
0010
0100
,
0001
0100
0001
1000
0000
0000
1000
0100
,
0010
1000
0010
1000
0000
0000
2000
0000
,
3000
0000
0100
0010
0001
1000
0010
0100
,
0001
2020
0000
0000
,
3030
0000
1000
0010
1000
0001
0010
0100
,
1000
0001
1000
0010
0000
0000
0101
0000
,
0010
0100
1000
0010
0100
0010
1000
0001
,
0100
0010
0100
0010
0000
0000
0000
0000
,
1000
0001
0100
0010
1000
0100
1000
0000
,
0010
0100
0010
0001
0000
0000
0000
0000
,
0001
0100
0001
0100
0010
1000
0010
1000
,
0001
0010
0100
2000
0000
0000
3010
0100
,
1000
0100
0010
1000
,
0010
0000
1000
0000
0000
0000
0001
1000
,
0100
0010
0001
0010
0100
0000
0010
0000
,
0100
0000
0100
0000
0000
0000
1000
1000
,
0000
0010
0100
0010
0000
0000
0010
0000
,
0100
0001
1000
0001
0000
0000
0010
0000
,
0000
0000
0001
1000
0010
1000
0100
0010
,
1000
0011
0000
1100
,
0000
0110
0010
1000
,
0010
1000
0100
1010
,
0000
1001
0100
1000
,
0010
1000
0001
1100
,
0000
0011
1000
0001
,
0100
0010
1000
0101
,
0000
0110
0001
0100
,
0010
0011
0110
1100
,
0101
0000
0000
0010
0000
1000
0000
0100
0000
0010
0000
1000
,
0000
0010
0000
1000
0000
1000
0000
0010
0000
0001
0000
0000
,
1001
0000
0000
0000
0010
1000
0010
0000
,
0100
0010
0100
0000
0001
0100
0001
0000
,
1000
0001
0100
0001
0000
0100
0010
0000
,
0100
0010
0001
0000
0001
1000
0010
1000
,
0011
0000
0000
0000
0000
0000
0010
0000
0010
0000
0000
0000
,
1000
0001
0100
0001
0010
0000
0100
0000
,
1000
0011
1100
0000
,
1000
0000
0110
0000
0001
0010
0001
0000
,
0101
1010
1001
0000
,
0010
0000
0001
0100
0001
0000
0010
0000
,
1000
0000
0200
0000
0301
0010
0001
0000
,
0010
1000
0010
0000
0010
0001
1000
0100
,
0020
0000
0130
0000
0001
1000
0001
0100
,
0001
1000
0000
0000
0000
0010
0000
0000
,
0000
0000
0110
0000
0000
0110
0000
0000
,
1010
0000
0100
0000
0000
0002
0000
0000
,
1000
0013
0000
0000
,
1100
1100
0100
0110
,
0110
0001
1000
0002
,
0203
0000
0300
0000
0100
0010
0000
0000
,
0200
2300
3000
0000
,
0100
1001
0010
0101
,
0011
0000
0020
0000
0000
0130
0000
0000
,
0001
0010
0200
0000
0000
1300
0000
0000
,
0001
1000
0020
0000
0000
0031
0000
0000
,
1000
0100
0010
0001
0000
1000
0000
0001
,
0000
0000
1010
0000
0000
1010
0000
0000
,
0100
0000
1000
0000
0000
0101
0000
0000
,
2000
0010
3000
0000
,
0000
0000
0000
0110
,
0000
1100
0010
1000
,
0010
1000
0100
0011
,
0000
1001
0100
1000
,
0010
1000
0001
0110
,
0000
0101
1000
0001
,
0100
0010
1000
1010
,
0000
0101
0001
0100
,
0010
0110
1001
0110
,
1001
1010
0100
1000
,
0001
1000
0010
0101
,
0000
0110
0010
0100
,
0010
1000
0100
1010
,
0000
0101
1000
0100
,
0001
0010
0100
0010
,
1000
0110
0000
0000
;

//--------------- dance-single - mekacat ----------------
#NOTES:
     dance-single:
     mekacat:
     Challenge:
     14:
     0,0,0,0,0:
0000
0000
0000
0000
,
0000
0000
0000
0000
,
0000
0000
0000
0000
,
0000
0000
0000
0000
,
0000
0000
0000
0000
,
0000
0000
0000
0000
,
0000
0000
0000
0000
,
1000
0000
0001
0100
0010
1000
0001
0010
,
0000
0010
0100
0000
0010
0100
1000
0000
,
0010
0200
0000
0000
0301
0000
0000
0000
,
0011
0000
1010
0000
,
0010
0100
0001
0100
0010
0000
0200
0000
,
0301
0000
0010
0001
1000
0100
0001
0000
,
1000
0020
0000
0030
,
0202
0303
1010
0001
,
1000
0011
1100
0001
,
1010
0001
0010
0001
,
1000
1010
0101
1000
,
0011
0100
1000
0001
,
0010
0000
0110
0000
1000
0001
1000
0000
,
0010
0100
0010
0000
1000
0100
0010
0001
,
0100
0000
0010
0000
0001
0010
0001
0000
,
0100
1000
0100
0000
0001
0100
0000
0000
,
0010
0000
1000
0001
0100
0001
0010
1000
,
0010
0100
0010
0000
1001
0000
0100
0000
,
0010
0001
0100
0001
1000
0001
0100
0001
,
1000
0100
0001
0000
0010
0000
0001
0000
,
1000
0001
0010
0100
1000
0010
0001
0000
,
0010
0100
0010
0000
1000
0100
1000
0000
,
0010
0100
0010
0100
0010
0001
1000
0001
,
0010
0100
1000
0200
0000
1000
0301
0000
,
0000
0000
0110
0000
0000
0011
0000
0000
,
1100
0000
0010
0000
0000
0101
0000
0000
,
0020
0230
0300
0000
,
1001
1001
0010
0110
,
0110
1010
0101
0002
,
0023
0000
0030
0000
0100
0010
0000
0000
,
0020
2030
3000
0000
,
0010
1001
0100
1010
,
0101
0000
0200
0000
0000
0310
0000
0000
,
0101
0000
0020
0000
0000
1030
0000
0110
,
0001
1000
0200
0000
0000
0301
0000
0001
,
1000
0010
0001
0010
1000
0000
0011
0000
,
1001
0000
0110
0000
0000
0101
0000
0000
,
1100
0000
1000
0000
0000
1001
0000
0000
,
0200
0000
0001
0000
0310
1000
0000
0000
,
0100
0001
0000
0000
0000
0000
1001
0000
,
0000
0101
0100
1001
,
0110
1001
0010
0101
,
0000
0011
0010
1001
,
0110
0011
1000
0110
,
0000
1001
1000
0011
,
1010
0101
1000
0101
,
0000
1100
0010
1010
,
0101
1010
0011
1010
,
1001
0000
0000
0000
1000
0010
1001
0000
,
0100
0010
0110
0000
0010
0001
1100
0000
,
0001
0100
0011
0000
1001
0000
0000
0000
,
0001
1000
0010
1000
0001
0100
0001
1000
,
0011
0000
1100
0000
1000
0100
0001
0000
,
0001
0010
1000
0000
0010
0001
0100
0000
,
0010
1000
0100
0000
0010
0001
1001
0000
,
0010
0000
1010
0000
0000
0000
0001
1000
,
0001
1000
0010
1000
0001
0000
0010
0000
,
0100
0000
1000
0000
0100
0000
0010
1000
,
0100
0001
1000
0001
0100
1000
0010
0000
,
0100
0000
0100
0000
0010
0000
0010
0100
,
0001
0100
0001
1000
0000
0001
1000
0100
,
0010
1000
0010
1000
0000
0001
2000
0000
,
3000
0000
0100
0010
0001
1000
0010
0100
,
0001
2020
0000
0000
,
3030
0000
1000
0010
1000
0001
0010
0100
,
1000
0001
1000
0010
0000
0000
0101
0000
,
0010
0100
1000
0010
0100
0010
1000
0001
,
0100
0010
0100
0010
0000
0010
0001
0000
,
1000
0001
0100
0010
1000
0100
1000
0000
,
0010
0100
0010
0001
0000
1000
0100
0000
,
0001
0100
0001
0100
0010
1000
0010
1000
,
0001
0010
0100
2000
0000
0000
3010
0100
,
1000
0100
0010
1000
,
0010
0000
1000
0000
0000
0000
0001
1000
,
0100
0010
0001
0010
0100
0000
0010
0000
,
0100
0000
0100
0000
0000
0000
1000
1000
,
0000
0010
0100
0010
0000
0100
0010
0000
,
0100
0001
1000
0001
0000
0100
0010
0000
,
0000
0000
0001
1000
0010
1000
0100
0010
,
1000
0011
0000
1100
,
0000
0110
0001
1100
,
0110
1001
0100
1010
,
0000
1001
0100
1100
,
0101
1010
0001
1100
,
0000
0011
1100
0011
,
1000
0110
1000
0101
,
0000
0110
0001
1100
,
0110
0011
0110
1100
,
0101
0000
0000
0010
0000
1000
0000
0100
0000
0010
0000
1000
,
0000
0000
0010
0000
0000
0000
1000
0000
0000
0000
1000
0000
0000
0000
0010
0000
0000
0000
0001
0000
0000
0010
0000
0000
,
1001
0000
0001
0000
0010
1000
0010
0000
,
0100
0010
0100
0000
0001
0100
0001
0000
,
1000
0001
0100
0001
0000
0100
0010
0000
,
0100
0010
0001
0000
0001
1000
0010
1000
,
0011
0000
0000
1000
0000
0000
0010
0000
0010
0000
0000
0000
,
1000
0001
0100
0001
0010
0000
0100
0010
,
1000
0011
1100
0010
,
1000
0000
0110
0000
0001
0010
0001
0000
,
0101
1010
1001
0010
,
0110
0000
0001
0100
0001
0000
1010
0000
,
1001
0000
0202
0000
0303
0010
0001
1000
,
0010
1000
0010
0000
0010
0001
1000
0100
,
0020
0000
0130
0000
0001
1000
0001
0100
,
0001
1000
0010
0000
0000
0010
0100
0000
,
0000
0000
0110
0000
0000
0110
0000
0000
,
1010
0000
0100
0000
0000
0002
0000
0000
,
1000
0013
0000
0000
,
1100
1100
0100
0110
,
0110
0001
1000
0002
,
0203
0000
1300
0000
0100
0010
0000
0000
,
0200
2300
3000
0000
,
0100
1001
0010
0101
,
0011
0000
0020
0000
0000
0130
0000
0000
,
0001
0010
0200
0000
0000
1300
0000
0000
,
0001
1000
0020
0000
0000
0031
0000
0000
,
1000
0100
0010
0001
0000
1000
0000
0001
,
0000
0000
1010
0000
0000
1010
0000
0000
,
0100
0000
1010
0000
0000
0101
0000
0000
,
2000
0000
0010
0000
3000
0100
0001
0000
,
0100
0000
0000
0110
,
0000
1100
0010
1001
,
0110
1001
0100
0011
,
0000
1001
0100
1100
,
0011
1100
0001
0110
,
0000
0101
1000
0101
,
1010
0010
1000
1010
,
0000
0101
0001
1100
,
0011
0110
1001
0110
,
1001
1010
0100
0011
,
1001
1100
0010
0011
,
0000
0110
0010
1100
,
0110
1001
0100
1010
,
0000
0101
1000
0100
,
0001
0000
0010
0000
0100
0000
0010
0001
,
1000
0110
0000
0000
;
