#TITLE:mirror mirror;
#SUBTITLE:;
#ARTIST:Hasimero;
#TITLETRANSLIT:;
#SUBTITLETRANSLIT:;
#ARTISTTRANSLIT:;
#GENRE:;
#CREDIT:;
#MUSIC:mirror mirror.mp3;
#BANNER:mirror cd.png;
#BACKGROUND:mirror background.png;
#CDTITLE: ;
#SAMPLESTART:12.924;
#SAMPLELENGTH:25.600;
#SELECTABLE:YES;
#OFFSET:-0.124;
#BPMS:0.000=150.000;
#STOPS:;
#BGCHANGES:;
#FGCHANGES:;

//--------------- dance-single - ----------------
#NOTES:
     dance-single:
     :
     Medium:
     9:
     0,0,0,0,0:
0000
0000
0000
0000
,
0000
0000
0000
0000
,
0000
0000
0000
0000
,
0000
0000
0000
0000
,
0000
0100
0010
1000
,
0010
0100
0010
0010
,
0100
0010
1000
0100
,
0010
0001
0100
0100
,
0010
1000
0001
0010
,
0100
0001
0010
0001
,
1100
0000
0010
0000
0100
0010
0100
0000
,
1000
0000
0100
0000
0001
0010
0000
0100
,
0100
0000
0010
0010
0000
1000
1000
0000
,
0001
0001
0000
0100
0100
0000
0010
0000
,
0100
0000
1000
1000
0000
0100
0100
0000
,
0010
0010
0000
0001
0010
0000
1000
0100
,
0100
1001
1000
0010
,
0100
1000
0001
0100
,
0110
0000
0010
0000
0100
1000
0100
0000
,
1000
0000
0010
0001
0010
0000
0100
0000
,
1000
0000
0001
0001
0000
0010
0010
0000
,
0100
0100
0000
0010
0000
1000
0000
0100
,
0010
0000
0100
0100
0000
1000
1000
0000
,
0001
0001
0000
0100
0000
0010
1000
0100
,
0000
1001
0100
0000
0010
0000
0100
0010
,
0100
0000
0001
0010
0001
0000
1000
0010
,
0010
0010
0000
0100
0001
0000
0100
0000
,
1000
0000
0100
0010
0001
0000
0100
0000
,
0001
0000
1000
0000
0100
0000
0010
0010
,
0100
0000
2002
0000
3003
0220
0330
0100
,
0010
0000
0001
0001
0000
0010
0000
1000
,
0100
0000
0010
0010
0000
0100
0000
0000
,
0101
0000
0010
1000
0010
1000
0010
0100
,
1000
0000
0010
0001
0010
0001
0010
0000
,
0100
0010
0100
0000
1000
0000
0001
1000
,
0000
0010
1000
0000
0011
0000
0100
0000
,
0010
0000
1100
0000
0011
0100
0100
0000
,
1010
0000
0001
0100
0010
0000
1000
0000
,
0100
0010
1000
0010
1000
0000
0001
0000
,
0100
0000
0001
0010
0001
0000
0110
0000
,
1000
0000
0001
1000
0001
0010
0100
1000
,
0010
0100
0010
1000
0010
0000
0001
0000
,
0200
0300
1000
0001
0000
0100
0010
0000
,
1010
0000
0001
0000
0001
0010
0100
1000
,
0000
0000
0100
0010
0000
1000
0001
0000
,
0100
0001
0010
0000
0010
1000
0000
0100
,
0010
0000
0100
0000
0010
1000
0010
0100
,
0010
0000
0001
0000
0001
1000
0000
0010
,
0010
0010
0100
0000
1000
0010
0000
0000
,
0100
0010
0000
1000
0100
1000
0100
0020
,
0000
0030
0001
0000
0100
0010
0100
0000
,
0010
1000
0000
0100
0010
0001
0000
0010
,
0100
0010
0100
0000
1000
0010
0100
0000
,
0010
0100
0000
0010
0001
0000
0000
1000
,
0100
0010
0001
0000
0100
0010
0000
1000
,
0010
0100
1000
0010
0100
0001
0010
0000
,
1100
0000
0200
0000
0300
0002
0000
0003
,
2000
0000
3000
0100
0010
0100
0001
0000
,
1000
0000
0020
0000
0030
2000
0000
3000
,
0200
0000
0300
0001
0010
0100
0010
0002
,
0000
0003
0020
0000
0030
0200
0000
0300
,
0002
0000
0003
0100
0010
0100
0010
0000
,
1000
0001
0200
0000
0300
0020
0000
0030
,
0002
0000
0003
0000
1000
0100
1000
0000
,
0011
1000
0001
0010
,
0100
0001
0010
0001
,
1100
0000
0010
0000
0100
0010
0100
0000
,
1000
0000
0100
0000
0001
0010
0000
0100
,
0100
0000
0010
0010
0000
1000
1000
0000
,
0001
0001
0000
0100
0100
0000
0010
0000
,
0100
0000
0001
0001
0000
1000
1000
0000
,
0010
0010
0000
0001
1000
0100
1000
0000
,
0001
1001
1000
0010
,
0100
1000
0001
0100
,
0010
1000
0100
0010
,
0001
0010
0001
0000
0100
0000
0100
1000
,
0100
0000
0010
0010
0000
0100
0100
0000
,
1000
1000
0000
0010
0001
0010
0000
1000
,
0001
0100
0010
0010
0000
1000
1000
0000
,
0001
0001
0000
0000
1000
0010
0100
0010
,
0001
0110
0000
0000
;

//--------------- dance-single - mekacat ----------------
#NOTES:
     dance-single:
     mekacat:
     Hard:
     12:
     0,0,0,0,0:
0000
0000
0000
0000
,
0000
0000
0000
0000
,
0000
0000
0000
0000
,
0000
0000
0000
0000
,
0000
0000
0010
0000
1000
0100
1000
0000
,
0010
0000
0100
0000
0001
0010
0001
0000
,
1000
0000
0100
0000
0010
1000
0010
0000
,
0001
0000
0100
0000
1000
0001
1000
0000
,
0100
0000
0110
0000
1000
0100
0010
0001
,
0010
0000
0100
0010
0100
1000
0100
0000
,
0010
0000
0100
0001
0100
0000
0010
0000
,
0001
0100
0001
1000
0100
0010
0000
0001
,
0010
0000
1000
0100
0000
0001
0100
0000
,
1000
0010
0000
0001
0010
0000
1100
0000
,
0011
0000
0001
0010
0000
1000
0010
0000
,
0001
0010
0000
0100
1000
0100
0010
0011
,
0000
0000
1100
0000
0010
0000
0100
1000
,
0001
0000
0001
1000
0100
0010
0100
0000
,
0110
0000
0001
0000
0010
0100
0010
0000
,
0001
0010
0100
0010
0001
1000
0100
1000
,
0100
0000
0010
0001
0000
0010
1000
0000
,
0100
0010
0000
0010
0100
1000
0100
0010
,
0001
0000
0010
0100
0000
0100
0010
0000
,
0001
1000
0000
0100
0010
0100
1000
0100
,
0010
0000
1001
0100
0010
1000
0100
0010
,
0001
0100
0010
1000
0100
1000
0100
1000
,
1000
1000
0000
0001
0010
0000
0110
0000
,
0001
0000
0010
0100
0010
0100
0010
0000
,
0101
0000
1010
0000
0100
0000
0010
0001
,
0010
0000
0000
0000
0110
0000
0000
0110
0000
0000
2002
0000
3003
0000
0010
0000
,
0100
1000
0010
0100
0000
0001
0000
0100
,
0010
0001
0010
0010
0000
2000
0000
3000
,
0010
0000
0000
0000
0100
0010
0100
0001
1000
0100
1000
0000
0100
0000
0010
0000
,
0100
1000
0100
0010
1000
0100
0010
0000
,
0010
0100
1000
0000
0100
1000
0100
1000
,
0000
0100
0010
0000
0110
0010
0100
0000
,
0001
0100
0001
0010
0001
0010
0100
1000
,
0100
1000
0100
0010
0100
0001
0010
0000
,
1100
0100
1000
0001
0010
0100
1000
0001
,
1000
0010
1000
0100
0010
0001
1001
0100
,
0010
0000
0000
0000
1000
0100
1000
0000
0100
0000
0010
0100
0010
0000
1000
0000
,
0010
0000
0100
0010
0100
0000
1000
0000
0001
0000
0001
0000
0010
0000
0100
0000
,
0020
0030
0001
0010
0100
1000
0010
0100
,
1010
0100
0010
0000
0010
1000
0001
0100
,
0010
0100
1000
0000
0100
0001
0100
0000
,
0010
0010
1000
0010
0001
0010
0000
1000
,
1000
0000
0100
0000
0010
0001
0010
0001
,
0010
0001
1000
0001
1000
0100
0000
1100
,
0011
1100
0010
0000
0100
0001
0100
0010
,
1000
0001
0000
0001
0010
0100
1000
1000
,
0100
0000
0100
0000
0001
0010
0100
0010
,
0100
0001
0000
1000
0100
0010
0001
0001
,
0010
1000
0010
0000
0001
1000
0100
1000
,
0001
0010
0000
0010
0100
0001
1000
0010
,
0010
0100
0100
0000
0001
0010
1000
0010
,
1000
0020
0000
0130
1000
0010
0100
0000
,
1000
0000
0020
0000
0130
0200
0000
1300
,
2000
0000
3100
1000
0100
0010
0001
0010
,
0100
2000
0000
3100
0200
0000
0310
0020
,
0000
0031
0010
0100
1000
0100
0010
0002
,
0000
0000
1003
2000
0000
3100
0200
0000
,
0310
0020
0000
0130
1000
0001
0010
0100
,
1000
0100
0200
0000
0310
0020
0000
0031
,
0002
0000
1003
0010
0100
0010
0000
0101
,
0000
0000
0110
0000
1000
0100
0010
0001
,
0010
0000
0100
0010
0100
1000
0100
0000
,
0010
0000
0100
0001
0100
0000
0010
0000
,
1000
0001
1000
0010
0100
0010
0000
0001
,
0010
0000
1000
0100
0000
0001
0100
0000
,
1000
0010
0000
0001
0010
0000
1001
0000
,
1010
0000
0001
0010
0000
1000
0010
0000
,
0001
0010
0000
0100
1000
0100
0010
0101
,
0000
0000
1010
0000
0010
0000
0100
1000
,
0001
0000
0001
1000
0100
0010
0100
0000
,
0110
0000
0001
0000
0100
0010
0100
0000
,
1000
0010
0100
0010
0001
1000
0100
1000
,
0100
0000
0010
0001
0000
0010
1000
0000
,
0100
0010
0000
0010
0100
1000
0100
0010
,
0001
0000
0010
0100
0000
1000
0010
0000
,
0001
1000
0000
0100
0010
0100
0001
0100
,
0001
1001
0000
0000
;
